<?xml version="1.0" standalone="no"?>
<!DOCTYPE svg PUBLIC "-//W3C//DTD SVG 1.1//EN" "http://www.w3.org/Graphics/SVG/1.1/DTD/svg11.dtd" >
<svg>
<metadata>
Created by FontForge 20090914 at Wed Jul 31 05:45:36 2013
 By www-data
Designed by Paul van der Laan &#38; Pieter van Rosmalen 2008. Produced by Bold Monday. For exclusive use by AUDI AG and its affiliates only.
</metadata>
<defs>
<font id="AudiType-Normal" horiz-adv-x="1794" >
  <font-face 
    font-family="Audi Type"
    font-weight="400"
    font-stretch="normal"
    units-per-em="4096"
    panose-1="2 11 5 3 4 2 0 0 0 3"
    ascent="3113"
    descent="-983"
    x-height="2101"
    cap-height="2966"
    bbox="-672 -983.001 9085 4014"
    underline-thickness="205"
    underline-position="-206"
    unicode-range="U+000D-U+FB04"
  />
<missing-glyph horiz-adv-x="1004" 
d="M197 -860v3768h610v-3768h-610z" />
    <glyph glyph-name="uniFB00" unicode="ff" horiz-adv-x="3064" 
d="M2015 0l-0.000976562 1802h-1110v-1802h-360v1802h-459v299h459v283c0 126.667 16.833 238.167 50.5 334.5s81.667 176.666 144 241c62.333 64.333 138 112.833 227 145.5s188.833 49 299.5 49c48.667 0 94.834 -1.66699 138.501 -5s84.167 -8 121.5 -14
s71.5 -13 102.5 -21s58.833 -16.667 83.5 -26v-295c-28.667 9.33301 -57 17.166 -85 23.5c-28 6.33301 -56.833 11.5 -86.5 15.5s-60.167 6.83301 -91.5 8.5s-65 2.5 -101 2.5c-86 0 -157.5 -9.66699 -214.5 -29s-102.333 -49.5 -136 -90.5s-57.5 -93 -71.5 -156
s-21 -137.833 -21 -224.5v-242h1110v283c0 126.667 16.833 238.167 50.5 334.5s81.667 176.666 144 241c62.333 64.333 138 112.833 227 145.5s188.833 49 299.5 49c49.333 0 95.666 -1.66699 139 -5c43.333 -3.33301 83.666 -8 121 -14c37.333 -6 71.666 -13 103 -21
c31.333 -8 59.333 -16.667 84 -26v-295c-28.667 9.33301 -57.167 17.166 -85.5 23.5c-28.333 6.33301 -57.166 11.5 -86.5 15.5c-29.333 4 -59.833 6.83301 -91.5 8.5s-65.5 2.5 -101.5 2.5c-86 0 -157.333 -9.66699 -214 -29s-102 -49.5 -136 -90.5s-57.833 -93 -71.5 -156
s-20.5 -137.833 -20.5 -224.5v-242h676v-299h-676v-1802h-361z" />
    <glyph glyph-name="fi" unicode="fi" horiz-adv-x="2757" 
d="M2015 0l-0.000976562 1802h-1110v-1802h-360v1802h-459v299h459v283c0 126.667 16.833 238.167 50.5 334.5s81.667 176.666 144 241c62.333 64.333 138 112.833 227 145.5s188.833 49 299.5 49c48.667 0 94.834 -1.66699 138.501 -5s84.167 -8 121.5 -14
s71.5 -13 102.5 -21s58.833 -16.667 83.5 -26v-295c-28.667 9.33301 -57 17.166 -85 23.5c-28 6.33301 -56.833 11.5 -86.5 15.5s-60.167 6.83301 -91.5 8.5s-65 2.5 -101 2.5c-86 0 -157.5 -9.66699 -214.5 -29s-102.333 -49.5 -136 -90.5s-57.5 -93 -71.5 -156
s-21 -137.833 -21 -224.5v-242h1471v-2101h-361zM2015 2540v426h361v-426h-361z" />
    <glyph glyph-name="fl" unicode="fl" horiz-adv-x="2879" 
d="M545 0l-0.000976562 1802h-459v299h459v283c0 126.667 16.833 238.167 50.5 334.5s81.667 176.666 144 241c62.333 64.333 138 112.833 227 145.5s188.833 49 299.5 49c48.667 0 94.834 -1.66699 138.501 -5s84.167 -8 121.5 -14s71.5 -13 102.5 -21
s58.833 -16.667 83.5 -26v-295c-28.667 9.33301 -57 17.166 -85 23.5c-28 6.33301 -56.833 11.5 -86.5 15.5s-60.167 6.83301 -91.5 8.5s-65 2.5 -101 2.5c-86 0 -157.5 -9.66699 -214.5 -29s-102.333 -49.5 -136 -90.5s-57.5 -93 -71.5 -156s-21 -137.833 -21 -224.5v-242
h676v-299h-676v-1802h-360zM2777 25c-22.667 -7.33301 -46.999 -14 -72.999 -20s-53.5 -11.333 -82.5 -16s-59.167 -8.16699 -90.5 -10.5s-64 -3.5 -98 -3.5c-70.667 0 -134.334 8.83301 -191 26.5c-56.667 17.667 -104.834 46 -144.5 85c-39.667 39 -70.167 89 -91.5 150
s-32 135.167 -32 222.5v2646h360v-2605c0 -35.333 3.16699 -66 9.5 -92s16.666 -47.667 31 -65c14.333 -17.333 33.666 -30.333 58 -39c24.333 -8.66699 54.5 -13 90.5 -13c41.333 0 83.666 2 127 6c43.333 4 85.666 10 126.999 18v-290z" />
    <glyph glyph-name="uniFB03" unicode="ffi" horiz-adv-x="4227" 
d="M3486 0l-0.000976562 1802h-1110v-1802h-361v1802h-1110v-1802h-360v1802h-459v299h459v283c0 126.667 16.833 238.167 50.5 334.5s81.667 176.666 144 241c62.333 64.333 138 112.833 227 145.5s188.833 49 299.5 49c48.667 0 94.834 -1.66699 138.501 -5
s84.167 -8 121.5 -14s71.5 -13 102.5 -21s58.833 -16.667 83.5 -26v-295c-28.667 9.33301 -57 17.166 -85 23.5c-28 6.33301 -56.833 11.5 -86.5 15.5s-60.167 6.83301 -91.5 8.5s-65 2.5 -101 2.5c-86 0 -157.5 -9.66699 -214.5 -29s-102.333 -49.5 -136 -90.5
s-57.5 -93 -71.5 -156s-21 -137.833 -21 -224.5v-242h1110v283c0 126.667 16.833 238.167 50.5 334.5s81.667 176.666 144 241c62.333 64.333 138 112.833 227 145.5s188.833 49 299.5 49c49.333 0 95.666 -1.66699 139 -5c43.333 -3.33301 83.666 -8 121 -14
c37.333 -6 71.666 -13 103 -21c31.333 -8 59.333 -16.667 84 -26v-295c-28.667 9.33301 -57.167 17.166 -85.5 23.5c-28.333 6.33301 -57.166 11.5 -86.5 15.5c-29.333 4 -59.833 6.83301 -91.5 8.5s-65.5 2.5 -101.5 2.5c-86 0 -157.333 -9.66699 -214 -29
s-102 -49.5 -136 -90.5s-57.833 -93 -71.5 -156s-20.5 -137.833 -20.5 -224.5v-242h1470v-2101h-360zM3486 2540v426h360v-426h-360z" />
    <glyph glyph-name="uniFB04" unicode="ffl" horiz-adv-x="4350" 
d="M2015 0l-0.000976562 1802h-1110v-1802h-360v1802h-459v299h459v283c0 126.667 16.833 238.167 50.5 334.5s81.667 176.666 144 241c62.333 64.333 138 112.833 227 145.5s188.833 49 299.5 49c48.667 0 94.834 -1.66699 138.501 -5s84.167 -8 121.5 -14
s71.5 -13 102.5 -21s58.833 -16.667 83.5 -26v-295c-28.667 9.33301 -57 17.166 -85 23.5c-28 6.33301 -56.833 11.5 -86.5 15.5s-60.167 6.83301 -91.5 8.5s-65 2.5 -101 2.5c-86 0 -157.5 -9.66699 -214.5 -29s-102.333 -49.5 -136 -90.5s-57.5 -93 -71.5 -156
s-21 -137.833 -21 -224.5v-242h1110v283c0 126.667 16.833 238.167 50.5 334.5s81.667 176.666 144 241c62.333 64.333 138 112.833 227 145.5s188.833 49 299.5 49c49.333 0 95.666 -1.66699 139 -5c43.333 -3.33301 83.666 -8 121 -14c37.333 -6 71.666 -13 103 -21
c31.333 -8 59.333 -16.667 84 -26v-295c-28.667 9.33301 -57.167 17.166 -85.5 23.5c-28.333 6.33301 -57.166 11.5 -86.5 15.5c-29.333 4 -59.833 6.83301 -91.5 8.5s-65.5 2.5 -101.5 2.5c-86 0 -157.333 -9.66699 -214 -29s-102 -49.5 -136 -90.5s-57.833 -93 -71.5 -156
s-20.5 -137.833 -20.5 -224.5v-242h676v-299h-676v-1802h-361zM4248 25c-22.666 -7.33301 -47.001 -14 -73.001 -20s-53.5 -11.333 -82.5 -16s-59.167 -8.16699 -90.5 -10.5s-64 -3.5 -98 -3.5c-70.667 0 -134.334 8.83301 -191 26.5c-56.667 17.667 -104.834 46 -144.5 85
c-39.667 39 -70.167 89 -91.5 150s-32 135.167 -32 222.5v2646h360v-2605c0 -35.333 3.16699 -66 9.5 -92s16.666 -47.667 31 -65c14.333 -17.333 33.666 -30.333 58 -39c24.333 -8.66699 54.5 -13 90.5 -13c41.333 0 83.666 2 127 6s85.668 10 127.001 18v-290z" />
    <glyph glyph-name=".notdef" horiz-adv-x="1004" 
d="M197 -860v3768h610v-3768h-610z" />
    <glyph glyph-name=".null" horiz-adv-x="0" 
 />
    <glyph glyph-name=".null" horiz-adv-x="0" 
 />
    <glyph glyph-name="nonmarkingreturn" unicode="&#xd;" horiz-adv-x="1016" 
 />
    <glyph glyph-name="space" unicode=" " horiz-adv-x="1016" 
 />
    <glyph glyph-name="exclam" unicode="!" horiz-adv-x="1356" 
d="M586 815l-40.999 430c-2.66699 32 -6.16699 70.167 -10.5 114.5l-13.5 144.5c-4.66699 52 -9.16699 106.333 -13.5 163s-8.33301 113.5 -12 170.5s-6.66699 112.833 -9 167.5s-3.5 106 -3.5 154v807h394v-807c0 -48 -1.16699 -99.333 -3.5 -154
s-5.33301 -110.5 -9 -167.5s-7.83398 -113.833 -12.501 -170.5l-14 -163l-13 -144.5l-10 -114.5l-41 -430h-188zM451.001 0v446h454v-446h-454z" />
    <glyph glyph-name="quotedbl" unicode="&#x22;" horiz-adv-x="1683" 
d="M410 1954l-41 172c-4 19.333 -9.5 44 -16.5 74s-13.833 62 -20.5 96s-12.5 68.333 -17.5 103s-7.5 66.334 -7.5 95v472h385v-472c0 -28.667 -2.5 -60.334 -7.5 -95c-5 -34.667 -10.667 -69 -17 -103s-13 -66 -20 -96s-12.5 -54.667 -16.5 -74l-41 -172h-180zM1094 1954
l-41 172c-4 19.333 -9.5 44 -16.5 74s-13.833 62 -20.5 96s-12.5 68.333 -17.5 103s-7.5 66.334 -7.5 95v472h385v-472c0 -28.667 -2.5 -60.334 -7.5 -95c-5 -34.667 -10.667 -69 -17 -103s-13 -66 -20 -96s-12.5 -54.667 -16.5 -74l-41 -172h-180z" />
    <glyph glyph-name="numbersign" unicode="#" horiz-adv-x="2597" 
d="M1421 184l66 676h-492l-65 -676h-312l66 676h-365v279h390l73 753h-463v279h492l53 545h312l-54 -545h492l53 545h311l-53 -545h352v-279h-381l-73 -753h454v-279h-479l-65 -676h-312zM1585 1892h-491l-74 -753h491z" />
    <glyph glyph-name="dollar" unicode="$" horiz-adv-x="2597" 
d="M1073 -238l-0.00195312 324c-72.667 2.66699 -144 9.16699 -214 19.5s-136.167 23.166 -198.5 38.499s-119.833 32.833 -172.5 52.5s-98 40.167 -136 61.5v307c29.333 -14 63 -27.667 101 -41s78.833 -26.333 122.5 -39s89.667 -24.334 138 -35.001
s97.333 -19.834 147 -27.501s99.334 -13.834 149.001 -18.501s98.167 -7 145.5 -7c106.667 0 204.334 10.167 293.001 30.5s165 50.5 229 90.5s113.833 89.5 149.5 148.5s53.5 127.5 53.5 205.5c0 52 -7.5 97.667 -22.5 137s-36.167 74 -63.5 104s-60.5 56.167 -99.5 78.5
s-82.667 42.5 -131 60.5s-100.666 34.5 -156.999 49.5l-177.5 46.5c-133.333 34 -252.333 71.667 -357 113s-193 91.833 -265 151.5s-127 131 -165 214s-57 182.833 -57 299.5c0 100 16.167 192.333 48.5 277s80.5 159.167 144.5 223.5s143.5 117.833 238.5 160.5
s205.167 72 330.5 88v369h328v-356c67.333 -3.33301 132 -10 194 -20s120.5 -22.667 175.5 -38s106.167 -33 153.5 -53s90 -41.667 128 -65v-304c-46 24.667 -97.5 47.834 -154.5 69.501s-117.667 40.5 -182 56.5s-131.333 28.5 -201 37.5s-140.5 13.5 -212.5 13.5
c-93.333 0 -177.666 -10.833 -252.999 -32.5s-139.833 -52.5 -193.5 -92.5s-95 -88.333 -124 -145s-43.5 -119.667 -43.5 -189c0 -52 7.5 -97.667 22.5 -137s36.167 -73.833 63.5 -103.5s60.5 -55.667 99.5 -78s82.667 -42.5 131 -60.5s100.666 -34.667 156.999 -50
s115.5 -30.666 177.5 -45.999c133.333 -34 252.333 -71.667 357 -113s193 -92 265 -152s127 -131.5 165 -214.5s57 -182.833 57 -299.5c0 -100 -20 -193.333 -60 -280s-97.167 -163.667 -171.5 -231s-164.333 -123.666 -270 -168.999s-223.834 -76.666 -354.501 -93.999
v-336h-328z" />
    <glyph glyph-name="percent" unicode="%" horiz-adv-x="3858" 
d="M991 1511c-120 0 -224.503 19.667 -313.503 59s-163 93.5 -222 162.5s-103.167 150.167 -132.5 243.5s-44 193.666 -44 301c0 108.667 15.5 210 46.5 304s76.667 175.5 137 244.5s134.833 123.167 223.5 162.5s190.334 59 305.001 59
c120.667 0 225.834 -19.667 315.501 -59s163.834 -93.5 222.501 -162.5s102.5 -150.5 131.5 -244.5s43.5 -195.333 43.5 -304c0 -71.333 -6.83301 -140 -20.5 -206s-34.167 -127.333 -61.5 -184s-61 -108.167 -101 -154.5s-86.5 -85.833 -139.5 -118.5s-112 -58 -177 -76
s-136.167 -27 -213.5 -27zM990.997 1765c65.333 0 121.5 12.333 168.5 37s85.667 59.334 116 104.001s52.666 98.5 66.999 161.5s21.5 132.833 21.5 209.5c0 78 -7.16699 148.667 -21.5 212s-36.666 117.5 -66.999 162.5s-69 79.833 -116 104.5s-103.167 37 -168.5 37
c-64.667 0 -120.667 -12.333 -168 -37s-86.5 -59.5 -117.5 -104.5s-54 -99.167 -69 -162.5s-22.5 -134 -22.5 -212c0 -76.667 7.5 -146.5 22.5 -209.5s38 -116.833 69 -161.5s70.167 -79.334 117.5 -104.001s103.333 -37 168 -37zM2867 -33
c-120 0 -224.501 19.667 -313.501 59s-163.167 93.5 -222.5 162.5s-103.666 150.167 -133 243.5c-29.333 93.333 -44 193.666 -44 300.999c0 108.667 15.667 209.834 47 303.501s77.166 175 137.5 244c60.333 69 134.833 123.333 223.5 163s190.334 59.5 305 59.5
c120.667 0 225.834 -19.833 315.5 -59.5c89.667 -39.667 163.834 -94 222.501 -163s102.5 -150.333 131.5 -244s43.5 -194.834 43.5 -303.501c0 -107.333 -15.5 -207.666 -46.5 -300.999s-76.5 -174.5 -136.5 -243.5s-134.333 -123.167 -223 -162.5s-191 -59 -307 -59z
M2867 221c65.333 0 121.5 12.333 168.5 37s85.667 59.334 116 104.001s52.666 98.5 67 161.5c14.333 63 21.5 132.833 21.5 209.5c0 78 -7.16699 148.667 -21.5 212s-36.666 117.5 -67 162.5c-30.333 45 -69 79.833 -116 104.5s-103.167 37 -168.5 37
c-64.667 0 -120.667 -12.333 -168 -37s-86.5 -59.5 -117.5 -104.5s-54 -99.167 -69 -162.5s-22.5 -134 -22.5 -212c0 -76.667 7.5 -146.5 22.5 -209.5s38 -116.833 69 -161.5s70.167 -79.334 117.5 -104.001s103.333 -37 168 -37zM806.996 0l1819 2966h348l-1815 -2966h-352
z" />
    <glyph glyph-name="ampersand" unicode="&#x26;" horiz-adv-x="3269" 
d="M2580 0l-335 319c-63.333 -58 -131.666 -109.833 -204.999 -155.5s-151.833 -84.334 -235.5 -116.001s-172.334 -55.667 -266.001 -72s-192.834 -24.5 -297.501 -24.5c-110.667 0 -212.5 9.33301 -305.5 28s-176.833 45 -251.5 79s-140.5 75 -197.5 123
s-104.5 101.333 -142.5 160s-66.667 122 -86 190s-29 139.333 -29 214c0 62 5.16699 120.833 15.5 176.5s26 108.5 47 158.5s47.833 97.5 80.5 142.5s71.334 88 116.001 129s95.5 80.167 152.5 117.5s120.5 73.333 190.5 108l58 29v0
c-53.333 48.667 -104.166 97.834 -152.499 147.501s-91 102.667 -128 159s-66.5 117.5 -88.5 183.5s-33 140 -33 222c0 72.667 8.5 140.334 25.5 203c17 62.667 41.833 119.667 74.5 171s72.834 97.166 120.501 137.5c47.667 40.333 102.167 74.166 163.5 101.5
c61.333 27.333 129.166 48.166 203.499 62.5c74.333 14.333 154.5 21.5 240.5 21.5c128 0 242.5 -16.5 343.5 -49.5s186.333 -78 256 -135s123 -123.5 160 -199.5s55.5 -157 55.5 -243c0 -89.333 -15.833 -172.666 -47.5 -250
c-31.667 -77.333 -75.834 -149.666 -132.501 -216.999s-124.5 -129.5 -203.5 -186.5s-165.5 -109.5 -259.5 -157.5l-41 -21l774 -733c23.333 42 44.166 86.5 62.5 133.5c18.333 47 33.666 96.333 46 148c12.333 51.667 21.833 105.667 28.5 162s10 114.833 10 175.5v262h713
v-291h-352c-2 -80 -9 -157.5 -21 -232.5s-28.833 -147.333 -50.5 -217s-47.834 -136.334 -78.5 -200.001c-30.667 -63.667 -65.334 -124.167 -104 -181.5l614 -582h-508zM1118 1393l-45 -25c-78 -39.333 -145.167 -79.833 -201.5 -121.5s-103 -86.5 -140 -134.5
s-64.333 -99.667 -82 -155s-26.5 -116.333 -26.5 -183c0 -74 14.833 -141.833 44.5 -203.5s72.5 -114.667 128.5 -159s124.333 -79 205 -104s171.667 -37.5 273 -37.5c76 0 148 5.83301 216 17.5s132.5 29.167 193.5 52.5s118.333 52 172 86s104.167 73.667 151.5 119z
M1262 1798c86 44 159.666 87.832 220.999 131.499s111.833 88.334 151.5 134.001s68.667 93.167 87 142.5s27.5 101.666 27.5 157c0 38.667 -9.16699 78.167 -27.5 118.5s-45.666 77 -81.999 110s-81.5 59.833 -135.5 80.5s-117 31 -189 31
c-62.667 0 -121 -7.83301 -175 -23.5s-100.833 -39.334 -140.5 -71c-39.667 -31.667 -70.834 -71.667 -93.501 -120s-34 -105.166 -34 -170.5c0 -61.333 7.16699 -114.666 21.5 -160c14.333 -45.333 35.333 -87.833 63 -127.5s61.834 -78.667 102.501 -117l141 -127.5
l17 -12z" />
    <glyph glyph-name="quotesingle" unicode="'" horiz-adv-x="999" 
d="M410 1954l-41 172c-4 19.333 -9.5 44 -16.5 74s-13.833 62 -20.5 96s-12.5 68.333 -17.5 103s-7.5 66.334 -7.5 95v472h385v-472c0 -28.667 -2.5 -60.334 -7.5 -95c-5 -34.667 -10.667 -69 -17 -103s-13 -66 -20 -96s-12.5 -54.667 -16.5 -74l-41 -172h-180z" />
    <glyph glyph-name="parenleft" unicode="(" horiz-adv-x="1536" 
d="M1196 -377c-86.667 46 -167.336 104.498 -242.003 175.498s-142.5 151.167 -203.5 240.5s-115.333 186.5 -163 291.5s-87.667 214.333 -120 328s-56.833 230.167 -73.5 349.5s-25 238 -25 356c0 118.667 8.33301 237.834 25 357.501s41.167 236.334 73.5 350.001
s72.333 222.834 120 327.5c47.667 104.667 102 201.667 163 291s128.833 169.333 203.5 240s155.334 129 242.001 175h279c-70 -49.333 -136.5 -110.833 -199.5 -184.5s-121.333 -156 -175 -247s-101.834 -189.167 -144.501 -294.5s-79 -214.333 -109 -327
s-53 -227.167 -69 -343.5s-24 -231.166 -24 -344.499c0 -112.667 8 -227 24 -343s39 -230.333 69 -343s66.333 -221.834 109 -327.501s90.834 -204.167 144.501 -295.5s111.834 -173.833 174.501 -247.5s129.334 -135.167 200.001 -184.5h-279z" />
    <glyph glyph-name="parenright" unicode=")" horiz-adv-x="1536" 
d="M61 -377c70 49.333 136.5 110.835 199.5 184.502s121.333 156.167 175 247.5s101.834 189.833 144.501 295.5s79 214.834 109 327.501s53 227 69 343s24 230.333 24 343c0 113.333 -8 228.166 -24 344.499s-39 230.833 -69 343.5s-66.333 221.667 -109 327
s-90.834 203.5 -144.501 294.5s-112 173.333 -175 247s-129.5 135.167 -199.5 184.5h279c86.667 -46 167.334 -104.333 242.001 -175s142.5 -150.667 203.5 -240s115.333 -186.333 163 -291s87.667 -213.834 120 -327.5c32.333 -113.667 56.833 -230.334 73.5 -350.001
s25 -238.834 25 -357.501c0 -118 -8.33301 -236.667 -25 -356s-41.167 -235.833 -73.5 -349.5s-72.333 -223 -120 -328s-102 -202.167 -163 -291.5s-128.833 -169.5 -203.5 -240.5s-155.334 -129.5 -242.001 -175.5h-279z" />
    <glyph glyph-name="asterisk" unicode="*" horiz-adv-x="1876" 
d="M1180 1626l-139.999 241.999c-10 16 -19.833 34 -29.5 54s-18.834 40.833 -27.501 62.5s-16.834 43.5 -24.501 65.5s-14.5 43.333 -20.5 64l-23 -64l-25 -65.5c-8.66699 -21.667 -17.667 -42.5 -27 -62.5s-18.333 -38 -27 -54l-140 -242l-241 135l139 246
c18.667 33.333 42.667 68.666 72 105.999s58.666 71.666 87.999 103c-43.333 -8 -88.166 -15.5 -134.499 -22.5s-88.833 -10.5 -127.5 -10.5h-279v279h279c38.667 0 81.167 -3.5 127.5 -10.5s91.166 -14.5 134.499 -22.5c-29.333 30.667 -58.666 64.834 -87.999 102.501
s-53.333 73.167 -72 106.5l-139 246l241 135l140 -242c8.66699 -16 17.667 -34 27 -54s18.333 -40.833 27 -62.5l25 -65.5l23 -64c6 20.667 12.833 42 20.5 64s15.834 43.833 24.501 65.5s17.834 42.5 27.501 62.5s19.5 38 29.5 54l140 242l241 -135l-139 -246
c-10 -16.667 -21.5 -34 -34.5 -52l-40.5 -55l-43 -55l-42 -51l65 14c22.667 4.66699 45.334 8.66699 68.001 12s45 6 67 8s42.667 3 62 3h279v-279h-279c-19.333 0 -40 0.666992 -62 2s-44.333 3.5 -67 6.5s-45.334 6.5 -68.001 10.5s-44.334 8.66699 -65.001 14l85 -104.5
c29.333 -36.333 54.333 -71.166 75 -104.499l139 -246z" />
    <glyph glyph-name="plus" unicode="+" horiz-adv-x="2408" 
d="M1040 184v889h-843v295h843v873h328v-873h844v-295h-844v-889h-328z" />
    <glyph glyph-name="comma" unicode="," horiz-adv-x="1307" 
d="M201 -598l291.001 605.999l-70 447h311c34.667 0 64.834 -3.66699 90.501 -11s47 -18.166 64 -32.499s29.667 -32.166 38 -53.499s12.5 -46.333 12.5 -75c0 -34.667 -3 -69.834 -9 -105.501s-15.667 -72.667 -29 -111s-30.333 -78 -51 -119s-45.334 -84.667 -74.001 -131
s-61.834 -95.333 -99.501 -147l-126.5 -165.5l-82 -102h-266z" />
    <glyph glyph-name="hyphen" unicode="-" horiz-adv-x="1491" 
d="M225 1044v369h1041v-369h-1041z" />
    <glyph glyph-name="period" unicode="." horiz-adv-x="1307" 
d="M426 0v446h455v-446h-455z" />
    <glyph glyph-name="slash" unicode="/" horiz-adv-x="1876" 
d="M94 0l1336 3105h348l-1332 -3105h-352z" />
    <glyph glyph-name="zero" unicode="0" horiz-adv-x="2597" 
d="M1290 -49c-136.667 0 -257.333 17.3311 -362 51.998s-195.667 84.167 -273 148.5s-142.166 142.166 -194.499 233.499s-94.333 193.5 -126 306.5s-54.334 235.833 -68.001 368.5s-20.5 272.334 -20.5 419.001c0 147.333 7.16699 287.5 21.5 420.5
s37.833 256.5 70.5 370.5s75.5 216.833 128.5 308.5s118.5 169.834 196.5 234.5c78 64.667 169.333 114.5 274 149.5s225 52.5 361 52.5c137.333 0 258.833 -17.333 364.5 -52s197.667 -84.167 276 -148.5s144 -142.166 197 -233.5c53 -91.333 95.833 -193.666 128.5 -307
c32.667 -113.333 56 -236.166 70 -368.499s21 -271.833 21 -418.5c0 -147.333 -7.16699 -287.666 -21.5 -420.999s-37.833 -256.833 -70.5 -370.5s-76 -216.5 -130 -308.5s-120.333 -170.167 -199 -234.5s-171.167 -114 -277.5 -149s-228.5 -52.5 -366.5 -52.5z
M1298 269.998c84.667 0 160 13.667 226 41s123.667 66.333 173 117s91.166 112 125.499 184s62.166 153 83.499 243s36.666 187.833 45.999 293.5s14 217.167 14 334.5s-4.66699 228.666 -14 333.999s-24.666 203 -45.999 293s-49.166 171 -83.499 243
s-76.166 133.333 -125.499 184s-107 89.667 -173 117s-141.333 41 -226 41s-159.834 -13.667 -225.501 -41s-123 -66.333 -172 -117s-90.333 -112 -124 -184s-61 -153 -82 -243s-36.167 -187.667 -45.5 -293s-14 -216.666 -14 -333.999s4.66699 -228.833 14 -334.5
s24.5 -203.5 45.5 -293.5s48.333 -171 82 -243s75 -133.333 124 -184s106.333 -89.667 172 -117s140.834 -41 225.501 -41z" />
    <glyph glyph-name="one" unicode="1" horiz-adv-x="2597" 
d="M537 0v311h626v2298l-626 -127v311l774 173h229v-2655h631v-311h-1634z" />
    <glyph glyph-name="two" unicode="2" horiz-adv-x="2597" 
d="M287 0l-0.000976562 287l737 741l211 218.5c64.667 69 123.667 135.167 177 198.5s100.333 124.5 141 183.5s75 116.667 103 173s49.167 112 63.5 167s21.5 110.167 21.5 165.5c0 82.667 -11.833 157.667 -35.5 225s-60 124.666 -109 172
c-49 47.333 -111.5 83.833 -187.5 109.5s-166 38.5 -270 38.5c-79.333 0 -154.333 -3.16699 -225 -9.5s-138 -16 -202 -29s-124.5 -29.5 -181.5 -49.5s-110.833 -44 -161.5 -72v332c46 27.333 96 51.333 150 72s112.833 37.834 176.5 51.5
c63.667 13.667 132.167 23.834 205.5 30.5c73.333 6.66699 152.666 10 237.999 10c118 0 224.333 -9.16699 319 -27.5s178.834 -44.833 252.501 -79.5s136.834 -77.167 189.501 -127.5s96.167 -107.5 130.5 -171.5s59.5 -134.5 75.5 -211.5s24 -159.5 24 -247.5
c0 -86.667 -10.833 -170 -32.5 -250s-51.667 -157.667 -90 -233s-83.833 -148.833 -136.5 -220.5s-110 -142.667 -172 -213s-127.833 -140.5 -197.5 -210.5l-211.5 -212l-499 -500h1437v-311h-1941z" />
    <glyph glyph-name="three" unicode="3" horiz-adv-x="2597" 
d="M311 438c49.333 -21.333 104.497 -41.999 165.497 -61.999s126.167 -37.5 195.5 -52.5s142 -27 218 -36s153.333 -13.5 232 -13.5c110.667 0 207.334 13.167 290.001 39.5s151.334 63.166 206.001 110.499s95.667 103.5 123 168.5s41 136.5 41 214.5
c0 86 -15 164.167 -45 234.5s-75 130.666 -135 180.999s-135.333 89.166 -226 116.499s-197 41 -319 41h-266v316h266c101.333 0 190.5 11.333 267.5 34s141.5 56.334 193.5 101.001s91.167 99.834 117.5 165.501s39.5 141.5 39.5 227.5c0 50.667 -6 97.167 -18 139.5
s-29.333 80.666 -52 115c-22.667 34.333 -50.5 64.5 -83.5 90.5s-70.333 47.667 -112 65s-87.667 30.5 -138 39.5s-104.166 13.5 -161.499 13.5c-74 0 -145.5 -4.66699 -214.5 -14s-134.333 -21.833 -196 -37.5s-118.5 -33.667 -170.5 -54s-97.333 -41.166 -136 -62.5v332
c26 14.667 55.333 29 88 43s68 27.167 106 39.5s78.167 23.5 120.5 33.5s86.333 18.5 132 25.5s92.5 12.5 140.5 16.5s96.667 6 146 6c154 0 289.333 -16.333 406 -49s214.5 -81.334 293.5 -146c79 -64.667 138.5 -145.334 178.5 -242c40 -96.667 60 -209 60 -337
c0 -72.667 -8.83301 -142.334 -26.5 -209c-17.667 -66.667 -43.834 -128.667 -78.501 -186s-77.834 -109.833 -129.501 -157.5s-111.167 -88.834 -178.5 -123.501c88.667 -34 165.667 -76.667 231 -128s119.5 -109.5 162.5 -174.5s74.833 -136 95.5 -213
s31 -157.833 31 -242.5c0 -82 -9.16699 -160 -27.5 -234s-46.166 -142.833 -83.5 -206.5c-37.333 -63.667 -84.5 -121 -141.5 -172s-123.833 -94.667 -200.5 -131s-163.5 -64.166 -260.5 -83.499s-204.5 -29 -322.5 -29c-89.333 0 -173.666 3.5 -252.999 10.5
s-153.333 17.5 -222 31.5s-132.167 31.167 -190.5 51.5s-111.166 43.833 -158.499 70.5v323z" />
    <glyph glyph-name="four" unicode="4" horiz-adv-x="2597" 
d="M1577 0v659h-1487v304l1499 2003h365v-1995h495v-312h-495v-659h-377zM1577 2130c0 43.333 1.00098 94.666 3.00098 154c2 59.333 5 120 9 182l-99.5 -150c-33.667 -50 -65.834 -95.667 -96.501 -137l-901 -1208h1085v1159z" />
    <glyph glyph-name="five" unicode="5" horiz-adv-x="2597" 
d="M369 438c48 -21.333 102.333 -42.001 163 -62.001s125.834 -37.5 195.501 -52.5s142.334 -27 218.001 -36s152.5 -13.5 230.5 -13.5c118 0 218.833 14.667 302.5 44s152.167 70 205.5 122s92.5 114.167 117.5 186.5s37.5 151.5 37.5 237.5
c0 76 -13.833 142.833 -41.5 200.5s-65.334 108.167 -113.001 151.5s-103.167 79.833 -166.5 109.5s-131 54.334 -203 74.001s-146.167 35.167 -222.5 46.5s-151.166 19.833 -224.499 25.5s-143 9.33398 -209 11.001l-176 4.5l49 1479h1586v-320h-1229l-29 -836
c68.667 -3.33301 140.834 -8.83301 216.501 -16.5s152 -18.667 229 -33s153.167 -32.833 228.5 -55.5s147.166 -50.834 215.499 -84.501s131.666 -73.5 189.999 -119.5s108.833 -99.667 151.499 -161c42.667 -61.333 76.167 -131 100.5 -209s36.5 -165.667 36.5 -263
c0 -86.667 -8.66699 -169.5 -26 -248.5s-44 -152.5 -80 -220.5s-81.833 -129.5 -137.5 -184.5s-122 -102 -199 -141s-165.167 -69.167 -264.5 -90.5s-210.333 -32 -333 -32c-88 0 -171.5 3.5 -250.5 10.5s-153 17.5 -222 31.5s-132.5 31.167 -190.5 51.5
s-110 43.833 -156 70.5v323z" />
    <glyph glyph-name="six" unicode="6" horiz-adv-x="2597" 
d="M2216 2589c-43.333 14 -87.0029 27.333 -131.003 40s-90.333 23.5 -139 32.5s-100.334 16.167 -155.001 21.5s-113.667 8 -177 8c-148.667 0 -278.167 -22.667 -388.5 -68s-203.5 -113 -279.5 -203s-135.333 -202.333 -178 -337s-70.667 -291 -84 -469
c44.667 40.667 93.167 77.5 145.5 110.5s107.833 61 166.5 84s120.334 40.667 185.001 53s132.334 18.5 203.001 18.5c108.667 0 208.5 -11 299.5 -33s173.167 -53.5 246.5 -94.5s137.5 -90.5 192.5 -148.5s101 -122.833 138 -194.5s64.833 -149.334 83.5 -233.001
s28 -171.5 28 -263.5c0 -84 -8.83301 -166 -26.5 -246s-44.667 -155.667 -81 -227s-82 -136.833 -137 -196.5s-119.833 -111.167 -194.5 -154.5s-159.334 -77.166 -254.001 -101.499s-199.667 -36.5 -315 -36.5c-171.333 0 -323.666 30.333 -456.999 91s-246 150 -338 268
s-162 263.833 -210 437.5s-72 373.834 -72 600.501c0 269.333 26.833 507.666 80.5 714.999s134.834 381.5 243.501 522.5s245.5 247.833 410.5 320.5s358.5 109 580.5 109c70.667 0 135.167 -2.5 193.5 -7.5s112.333 -11.833 162 -20.5s95.667 -19 138.001 -31
c42.333 -12 82.5 -25.333 120.5 -40v-327zM667.997 1327c0.666992 -127.333 8.83203 -242.167 24.499 -344.5s37.834 -193 66.501 -272s63.5 -146.833 104.5 -203.5s87.167 -103.167 138.5 -139.5s107.333 -63 168 -80s125.334 -25.5 194.001 -25.5c103.333 0 194 16 272 48
s143 76.833 195 134.5s91 126.334 117 206.001s39 167.167 39 262.5c0 97.333 -13 186.166 -39 266.499s-65.167 149 -117.5 206s-118.333 101.167 -198 132.5s-173.167 47 -280.5 47c-61.333 0 -122 -4.83301 -182 -14.5s-118.667 -24.5 -176 -44.5
s-113.333 -44.833 -168 -74.5s-107.334 -64.5 -158.001 -104.5z" />
    <glyph glyph-name="seven" unicode="7" horiz-adv-x="2597" 
d="M557 0l1307 2646h-1545v320h1950v-320l-1302 -2646h-410z" />
    <glyph glyph-name="eight" unicode="8" horiz-adv-x="2597" 
d="M1827 1556c61.333 -22.667 116.833 -49.334 166.5 -80.001s94 -64.834 133 -102.501s72.5 -78.5 100.5 -122.5s51.167 -90.833 69.5 -140.5s32 -101.667 41 -156s13.5 -110.5 13.5 -168.5c0 -81.333 -9 -158.333 -27 -231s-45.5 -140 -82.5 -202
s-84 -117.833 -141 -167.5s-124.333 -91.834 -202 -126.501s-166 -61.334 -265 -80.001s-209.167 -28 -330.5 -28c-122.667 0 -234 9.33301 -334 28s-189 45.334 -267 80.001s-145.5 76.834 -202.5 126.501s-104 105.5 -141 167.5s-64.333 129.333 -82 202
s-26.5 149.667 -26.5 231c0 58 4.5 114.167 13.5 168.5s22.833 106.333 41.5 156s42.167 96.5 70.5 140.5s62 84.833 101 122.5s83.167 71.834 132.5 102.501s104.333 57.334 165 80.001c-69.333 32.667 -130 72.5 -182 119.5s-95.167 99.833 -129.5 158.5
s-60 122.167 -77 190.5s-25.5 140.5 -25.5 216.5c0 128 20.167 240.333 60.5 337s100 177.334 179 242c79 64.667 177.333 113.334 295 146c117.667 32.667 253.834 49 408.501 49c153.333 0 288.666 -16.333 405.999 -49s215.666 -81.334 294.999 -146
c79.333 -64.667 139.333 -145.334 180 -242c40.667 -96.667 61 -209 61 -337c0 -76 -8.66699 -148.167 -26 -216.5s-43.5 -131.833 -78.5 -190.5s-78.667 -111.5 -131 -158.5s-113.166 -86.833 -182.499 -119.5zM1958 807c0 76 -12.668 148.5 -38.001 217.5
s-64.666 129.833 -117.999 182.5s-121.166 94.667 -203.499 126s-180.833 47 -295.5 47s-213.334 -15.667 -296.001 -47s-150.667 -73.333 -204 -126s-92.666 -113.5 -117.999 -182.5s-38 -141.5 -38 -217.5c0 -78 13 -150 39 -216s66 -123 120 -171
s122.167 -85.667 204.5 -113s179.833 -41 292.5 -41c111.333 0 208.166 13.667 290.499 41s150.5 65 204.5 113s94.167 105 120.5 171s39.5 138 39.5 216zM1855 2224c0 76 -12.5 143.667 -37.5 203s-61 109.5 -108 150.5s-104.833 72.167 -173.5 93.5
s-146.334 32 -233.001 32c-88 0 -166.333 -10.667 -235 -32s-126.5 -52.5 -173.5 -93.5s-82.833 -91.167 -107.5 -150.5s-37 -127 -37 -203s11.333 -146.167 34 -210.5s56.834 -120 102.501 -167s103.167 -83.833 172.5 -110.5s150.666 -40 243.999 -40
c92.667 0 173.667 13.333 243 40s126.833 63.5 172.5 110.5s79.834 102.667 102.501 167s34 134.5 34 210.5z" />
    <glyph glyph-name="nine" unicode="9" horiz-adv-x="2597" 
d="M377 377c42.667 -14.667 86.1641 -28.1738 130.497 -40.5068s90.833 -23.166 139.5 -32.499s100.334 -16.666 155.001 -21.999s113.667 -8 177 -8c151.333 0 283 23.833 395 71.5s206 118.834 282 213.501s135 212.834 177 354.501s68.667 306.834 80 495.501
c-45.333 -41.333 -94.166 -78.333 -146.499 -111s-108.166 -60.5 -167.499 -83.5s-121.666 -40.667 -186.999 -53s-133.333 -18.5 -204 -18.5c-162.667 0 -305.667 23.333 -429 70s-226.333 111.5 -309 194.5s-144.834 182 -186.501 297s-62.5 240.5 -62.5 376.5
c0 82.667 8.83301 163 26.5 241s44.667 151.667 81 221s82 132.833 137 190.5s119.833 107.334 194.5 149.001s159.334 74.167 254.001 97.5s199.667 35 315 35c170.667 0 322.834 -30.333 456.501 -91s246.5 -150 338.5 -268s162 -264 210 -438s72 -374 72 -600
c0 -269.333 -26.833 -507.666 -80.5 -714.999s-134.834 -381.5 -243.5 -522.5c-108.667 -141 -245.5 -247.833 -410.5 -320.5s-358.5 -109 -580.5 -109c-70.667 0 -135.334 2.5 -194.001 7.5s-112.834 11.833 -162.501 20.5s-95.5 19 -137.5 31s-82 25 -120 39v328z
M1925 1695.99c-3.33301 120.667 -13.6709 229.332 -31.0039 325.999s-40.666 182.334 -69.999 257c-29.333 74.667 -64.5 138.834 -105.5 192.501s-86.667 97.667 -137 132s-105.166 59.5 -164.499 75.5s-122 24 -188 24c-103.333 0 -194 -15.333 -272 -46
s-143 -73.5 -195 -128.5s-91 -120.667 -117 -197s-39 -159.833 -39 -250.5c0 -93.333 12.833 -178.333 38.5 -255s64.834 -142.167 117.501 -196.5s118.834 -96.5 198.501 -126.5s173.167 -45 280.5 -45c61.333 0 121.833 4.83301 181.5 14.5s118.167 24.5 175.5 44.5
s113.333 44.833 168 74.5s107.667 64.5 159 104.5z" />
    <glyph glyph-name="colon" unicode=":" horiz-adv-x="1307" 
d="M426 1655v446h455v-446h-455zM426 0v446h455v-446h-455z" />
    <glyph glyph-name="semicolon" unicode=";" horiz-adv-x="1307" 
d="M426 1655v446h455v-446h-455zM201 -598l291.001 605.999l-70 447h311c34.667 0 64.834 -3.66699 90.501 -11s47 -18.166 64 -32.499s29.667 -32.166 38 -53.499s12.5 -46.333 12.5 -75c0 -34.667 -3 -69.834 -9 -105.501s-15.667 -72.667 -29 -111s-30.333 -78 -51 -119
s-45.334 -84.667 -74.001 -131s-61.834 -95.333 -99.501 -147l-126.5 -165.5l-82 -102h-266z" />
    <glyph glyph-name="less" unicode="&#x3c;" horiz-adv-x="2408" 
d="M1606 184l-1307 1028l1307 1029h503l-1306 -1029l1306 -1028h-503z" />
    <glyph glyph-name="equal" unicode="=" horiz-adv-x="2408" 
d="M246 664v294h1917v-294h-1917zM246 1483v295h1917v-295h-1917z" />
    <glyph glyph-name="greater" unicode="&#x3e;" horiz-adv-x="2408" 
d="M803 184h-504l1307 1028l-1307 1029h504l1306 -1029z" />
    <glyph glyph-name="question" unicode="?" horiz-adv-x="2097" 
d="M700 815l-35.9961 459l307 344l170 186.5c55.333 59 104.333 117.333 147 175s77 116.5 103 176.5s39 123.667 39 191c0 55.333 -12.167 103.666 -36.5 145c-24.333 41.333 -57.666 75.833 -99.999 103.5s-91.833 48.5 -148.5 62.5s-117.334 21 -182.001 21
c-46 0 -90.833 -1.83301 -134.5 -5.5s-86.334 -8.83398 -128.001 -15.5c-41.667 -6.66699 -82.334 -15 -122.001 -25s-78.167 -21.333 -115.5 -34s-73.833 -26.834 -109.5 -42.5c-35.667 -15.667 -70.167 -32.167 -103.5 -49.5v332c46 27.333 97.167 52 153.5 74
s117.166 40.5 182.499 55.5s134.666 26.5 207.999 34.5s150 12 230 12c58.667 0 119 -4.83301 181 -14.5s122.5 -24.834 181.5 -45.5c59 -20.667 114.667 -47.334 167 -80c52.333 -32.667 98.166 -71.667 137.499 -117s70.5 -97.666 93.5 -157
c23 -59.333 34.5 -126.333 34.5 -201c0 -72 -8 -139.667 -24 -203s-37.833 -123.5 -65.5 -180.5s-59.667 -111 -96 -162s-74.666 -99.667 -114.999 -146s-81.5 -91 -123.5 -134l-121 -124.5l-266 -270l-25 -365h-283zM606.004 0v446h455v-446h-455z" />
    <glyph glyph-name="at" unicode="@" horiz-adv-x="4162" 
d="M2753 -713c-29.333 -13.333 -60.168 -25.5078 -92.502 -36.5078c-32.333 -11 -66.166 -21 -101.5 -30c-35.333 -9 -72.5 -17 -111.5 -24s-80.333 -13 -124 -18s-89.667 -8.66699 -138 -11s-99.5 -3.5 -153.5 -3.5c-196 0 -375.667 19 -539 57s-310.5 92.167 -441.5 162.5
s-245.5 155.833 -343.5 256.5s-179.833 213.834 -245.5 339.501s-114.834 262.5 -147.501 410.5s-49 304.667 -49 470c0 215.333 22.167 418.166 66.5 608.499s108.333 365.333 192 525s185.667 302.667 306 429s256.166 233.333 407.499 321s317 154.834 497 201.501
s371.667 70 575 70c184.667 0 352.167 -19.5 502.5 -58.5s284.166 -93.167 401.5 -162.5c117.333 -69.333 218.833 -151.833 304.5 -247.5s156.334 -200.5 212 -314.5c55.667 -114 97 -234.833 124 -362.5s40.5 -257.834 40.5 -390.501
c0 -147.333 -13.667 -283.5 -41 -408.5s-65.166 -238.167 -113.5 -339.5c-48.333 -101.333 -106 -190.666 -173 -267.999s-140.167 -142 -219.5 -194s-163.666 -91.333 -253 -118c-89.333 -26.667 -180.333 -40 -273 -40c-52 0 -102.5 5.16699 -151.5 15.5
s-93.667 26 -134 47s-75.333 47.333 -105 79s-51.167 69.167 -64.5 112.5c-34 -45.333 -71.5 -84.333 -112.5 -117s-85.667 -59.5 -134 -80.5s-100.166 -36.5 -155.499 -46.5s-113.666 -15 -174.999 -15c-92 0 -177.333 17.333 -256 52s-146.667 84.334 -204 149.001
s-102.166 143 -134.499 235s-48.5 195.333 -48.5 310c0 99.333 10.333 199.166 31 299.499s51.167 196.333 91.5 288s90.666 177.334 150.999 257.001s130 148.834 209 207.501s167.5 104.834 265.5 138.501s205 50.5 321 50.5c46.667 0 92.667 -3.16699 138 -9.5
s88.666 -15.666 130 -27.999c41.333 -12.333 80.5 -28 117.5 -47s70.833 -41.167 101.5 -66.5l66 106h266l-328 -1524c-0.666992 -2.66699 -1.33398 -6.66699 -2 -12c-0.666992 -5.33301 -1 -11.666 -1 -18.999c0 -18.667 4.83301 -36.334 14.5 -53.001
s23.167 -30.667 40.5 -42s37 -19.666 59 -24.999s45.333 -8 70 -8c52.667 0 105.667 9.66699 159 29s104.666 49 154 89c49.333 40 95.5 90.5 138.5 151.5s80.5 133.333 112.5 217s57.167 178.5 75.5 284.5s27.5 224.333 27.5 355c0 114 -10.333 223.833 -31 329.5
s-52.5 204.5 -95.5 296.5s-98 175.667 -165 251s-146.833 140 -239.5 194s-199 95.833 -319 125.5s-254.333 44.5 -403 44.5c-173.333 0 -335 -20.167 -485 -60.5s-286.833 -98.5 -410.5 -174.5s-233.667 -168.333 -330 -277s-177.5 -231.5 -243.5 -368.5
s-116.167 -286.667 -150.5 -449s-51.5 -334.833 -51.5 -517.5c0 -148 12.833 -286.5 38.5 -415.5s64.334 -246.833 116.001 -353.5s116.334 -201.834 194.001 -285.501s168.667 -154.167 273 -211.5s222 -101 353 -131s275.833 -45 434.5 -45
c80.667 0 154.5 2.83301 221.5 8.5s129.167 13.834 186.5 24.501s111 23.834 161 39.501s98 33.834 144 54.501v-283zM2626 1719.99c-24 12 -49.833 23.3311 -77.5 33.998s-57.834 19.834 -90.5 27.501c-32.667 7.66699 -67.834 13.667 -105.5 18
c-37.667 4.33301 -77.834 6.5 -120.5 6.5c-81.333 0 -156 -12.167 -224 -36.5s-129.167 -57.833 -183.5 -100.5s-102.166 -93.167 -143.499 -151.5s-75.666 -121.666 -102.999 -189.999s-48 -140.166 -62 -215.499s-21 -151 -21 -227c0 -81.333 9.33301 -152.833 28 -214.5
s45.167 -113.334 79.5 -155.001s75.666 -73.167 123.999 -94.5s102.166 -32 161.499 -32c60.667 0 115.167 5.33301 163.5 16s92.666 26 133 46c40.333 20 77.333 44.167 111 72.5s65.834 59.833 96.5 94.5z" />
    <glyph glyph-name="A" unicode="A" horiz-adv-x="2671" 
d="M2191 0l-254 758h-1224l-254 -758h-381l1052 2966h402l1061 -2966h-402zM1430 2269c-20.667 58 -40.332 119.167 -58.999 183.5s-33.334 131.5 -44.001 201.5c-12 -70 -28.167 -137.167 -48.5 -201.5l-57.5 -183.5l-402 -1188h1008z" />
    <glyph glyph-name="B" unicode="B" horiz-adv-x="2601" 
d="M414 0l0.00195312 2966h827c164 0 306.667 -17.333 428 -52s222.333 -85.334 303 -152c80.667 -66.667 140.834 -148.667 180.5 -246c39.667 -97.333 59.5 -208.333 59.5 -333c0 -76.667 -8.33301 -147.167 -25 -211.5s-40.667 -122.5 -72 -174.5
s-69.833 -98.333 -115.5 -139s-97.834 -76 -156.501 -106c80 -30.667 151.667 -70.167 215 -118.5s117 -104.166 161 -167.499s77.667 -133.333 101 -210s35 -158.334 35 -245.001c0 -80.667 -8.33301 -156.667 -25 -228s-42.667 -137 -78 -197
s-80.333 -113.833 -135 -161.5s-119.834 -88.167 -195.501 -121.5s-162.167 -58.833 -259.5 -76.5s-206.333 -26.5 -327 -26.5h-921zM1307 311c116.667 0 216.668 12.3301 300.001 36.9971s151.5 59.334 204.5 104.001s92 98.5 117 161.5s37.5 132.833 37.5 209.5
c0 78 -11.333 149.833 -34 215.5s-58.5 122.334 -107.5 170.001s-112.333 84.834 -190 111.501s-171.834 40 -282.501 40h-561v-1049h516zM1245 1655c106.667 0 196.667 11.8301 270 35.4971s132.833 57.834 178.5 102.501s78.667 98.834 99 162.501s30.5 135.5 30.5 215.5
c0 70.667 -12.5 135.667 -37.5 195s-63.5 110.333 -115.5 153s-118 75.834 -198 99.501s-174.667 35.5 -284 35.5h-397v-999h454z" />
    <glyph glyph-name="C" unicode="C" horiz-adv-x="2454" 
d="M2265 98c-51.333 -23.333 -104.5 -44.1689 -159.5 -62.502s-115 -33.833 -180 -46.5s-136 -22.167 -213 -28.5s-163.167 -9.5 -258.5 -9.5c-127.333 0 -245.166 14.667 -353.499 44s-207 72.833 -296 130.5s-167.667 129.5 -236 215.5s-125.833 185.833 -172.5 299.5
s-82 241.167 -106 382.5s-36 296 -36 464c0 150.667 10.833 293.167 32.5 427.5s54.5 258 98.5 371s99.333 214.667 166 305s145 166.833 235 229.5s191.5 110.834 304.5 144.5c113 33.667 238.167 50.5 375.5 50.5c76.667 0 151.834 -3.83301 225.501 -11.5
s143.5 -18.5 209.5 -32.5s127.167 -31.167 183.5 -51.5s105.5 -43.166 147.5 -68.5v-328c-43.333 22.667 -92.666 43.5 -148 62.5c-55.333 19 -115 35.5 -179 49.5s-131.667 24.833 -203 32.5s-144.333 11.5 -219 11.5c-98 0 -187 -12.167 -267 -36.5
s-151.333 -60 -214 -107s-116.834 -104.667 -162.501 -173s-83.334 -146.666 -113.001 -234.999s-51.667 -186.166 -66 -293.499s-21.5 -223 -21.5 -347c0 -139.333 9.16699 -266 27.5 -380s45 -215.667 80 -305s77.833 -166.833 128.5 -232.5s108.167 -120 172.5 -163
s135 -75 212 -96s159.5 -31.5 247.5 -31.5c80 0 154.5 3 223.5 9s134.167 14.833 195.5 26.5s119.833 26.167 175.5 43.5s110.167 37.333 163.5 60v-320z" />
    <glyph glyph-name="D" unicode="D" horiz-adv-x="2867" 
d="M414 0v2966h909c162 0 305.833 -17 431.5 -51s235.667 -82.333 330 -145s174.166 -138.334 239.5 -227c65.333 -88.667 118.166 -187.834 158.5 -297.5c40.333 -109.667 69.5 -228.334 87.5 -356.001s27 -261.834 27 -402.501
c0 -141.333 -9.16699 -276.166 -27.5 -404.499s-48.166 -247.666 -89.5 -357.999c-41.333 -110.333 -95.5 -210 -162.5 -299s-148.667 -165 -245 -228s-208.833 -111.667 -337.5 -146s-275.667 -51.5 -441 -51.5h-880zM1266 303c112.667 0 214.167 11.5 304.5 34.5
s170.333 57 240 102s129.667 100.833 180 167.5s91.5 143.5 123.5 230.5s55.667 184 71 291s23 223.833 23 350.5s-7.33301 244 -22 352s-37.834 205.833 -69.5 293.5c-31.667 87.667 -72.167 165 -121.5 232s-109 123.167 -179 168.5s-150.5 79.5 -241.5 102.5
s-193.833 34.5 -308.5 34.5h-475v-2359h475z" />
    <glyph glyph-name="E" unicode="E" horiz-adv-x="2380" 
d="M414 0v2966h1781v-312h-1404v-983h1200v-311h-1200v-1049h1404v-311h-1781z" />
    <glyph glyph-name="F" unicode="F" horiz-adv-x="2245" 
d="M414 0v2966h1675v-312h-1298v-1048h1220v-312h-1220v-1294h-377z" />
    <glyph glyph-name="G" unicode="G" horiz-adv-x="2839" 
d="M2191 1417h377.004v-1278c-41.333 -20.667 -85.166 -39.667 -131.5 -57c-46.333 -17.333 -94.833 -32.833 -145.5 -46.5s-103.834 -25.834 -159.501 -36.501s-114 -19.5 -175 -26.5s-124.833 -12.333 -191.5 -16s-136.334 -5.5 -209.001 -5.5
c-206.667 0 -390.834 31.167 -552.501 93.5s-298 157.333 -409 285s-195.5 288.334 -253.5 482.001s-87 421.5 -87 683.5c0 161.333 13.167 310.833 39.5 448.5s65.166 262.834 116.499 375.5c51.333 112.667 115.166 212.334 191.499 299
c76.333 86.667 164.833 159.334 265.5 218c100.667 58.667 213 103.167 337 133.5s259.333 45.5 406 45.5c51.333 0 102.166 -1.66699 152.499 -5s99.5 -8.33301 147.5 -15s94.333 -14.667 139 -24s87.167 -20 127.5 -32s78 -25.5 113 -40.5s66.5 -30.833 94.5 -47.5v-328
c-43.333 22.667 -92.833 43.5 -148.5 62.5s-116 35.5 -181 49.5s-133.667 24.833 -206 32.5s-146.5 11.5 -222.5 11.5c-162 0 -304.5 -23.833 -427.5 -71.5s-226 -120.334 -309 -218.001s-145.5 -220.667 -187.5 -369s-63 -323.5 -63 -525.5c0 -146 10.333 -277.5 31 -394.5
s50.5 -220.5 89.5 -310.5s86.333 -167.333 142 -232s118.667 -117.667 189 -159s147 -71.666 230 -90.999s171.167 -29 264.5 -29c58.667 0 115.334 1.5 170.001 4.5s107.334 7.66699 158.001 14s99.167 14.333 145.5 24s90.5 21.167 132.5 34.5v1061z" />
    <glyph glyph-name="H" unicode="H" horiz-adv-x="2982" 
d="M2191 0v1368h-1400v-1368h-377v2966h377v-1287h1400v1287h377v-2966h-377z" />
    <glyph glyph-name="I" unicode="I" horiz-adv-x="1671" 
d="M270 0v291h377v2384h-377v291h1131v-291h-377v-2384h377v-291h-1131z" />
    <glyph glyph-name="J" unicode="J" horiz-adv-x="1434" 
d="M-16 -242c11.333 -2 22.668 -3.83008 34.001 -5.49707s22.833 -3 34.5 -4s23.667 -1.66699 36 -2s25.166 -0.5 38.499 -0.5c80 0 151.667 12.167 215 36.5s117 63.166 161 116.499s77.667 122.666 101 207.999s35 189 35 311v2257h-414v291h791v-2589
c0 -168 -21.667 -312.5 -65 -433.5s-103.333 -220.333 -180 -298s-167.834 -135 -273.501 -172s-220.834 -55.5 -345.501 -55.5c-15.333 0 -30.666 0.5 -45.999 1.5s-30.166 2.5 -44.499 4.5s-28 4.16699 -41 6.5s-25.167 5.16602 -36.5 8.49902v319z" />
    <glyph glyph-name="K" unicode="K" horiz-adv-x="2601" 
d="M2060 0l-1269 1393v-1393h-377v2966h377v-1356l1241 1356h458l-1130 -1229c-55.333 -59.333 -102.833 -106 -142.5 -140s-76.834 -61 -111.501 -81c16 -9.33301 32.833 -20.333 50.5 -33s36.5 -27.5 56.5 -44.5s41.5 -36.667 64.5 -59s47.833 -47.833 74.5 -76.5
l1192 -1303h-484z" />
    <glyph glyph-name="L" unicode="L" horiz-adv-x="2138" 
d="M414 0v2966h377v-2655h1228v-311h-1605z" />
    <glyph glyph-name="M" unicode="M" horiz-adv-x="3604" 
d="M2822 0v2068c0 59.333 1.33301 127 4 203s8.33398 153.333 17 232c-30.667 -81.333 -62.5 -158.166 -95.5 -230.5c-33 -72.333 -64.167 -134.833 -93.5 -187.5l-725 -1249h-250l-721 1249c-17.333 29.333 -34.5 60.166 -51.5 92.5l-51.5 103l-50.5 110.5
c-16.333 37.333 -31.833 74.666 -46.5 112c8 -74.667 14 -148.5 18 -221.5s6 -144.167 6 -213.5v-2068h-368v2966h426l815 -1426c27.333 -49.333 53.333 -101.333 78 -156s47.667 -115 69 -181c20 66 43 126.333 69 181s53.667 106.667 83 156l815 1426h422v-2966h-369z" />
    <glyph glyph-name="N" unicode="N" horiz-adv-x="3043" 
d="M2232 0l-1228 1995c-41.333 66 -84 140.167 -128 222.5s-83.333 167.833 -118 256.5c4 -41.333 7.5 -83.5 10.5 -126.5s5.5 -85.333 7.5 -127s3.5 -81.667 4.5 -120s1.5 -73.5 1.5 -105.5v-1995h-368v2966h401l1229 -1995l60 -104.5l62.5 -115.5
c21 -40 41.5 -81.167 61.5 -123.5l58 -127.5c-4 40 -7.66699 81 -11 123s-6 83.5 -8 124.5s-3.5 80.5 -4.5 118.5s-1.5 73 -1.5 105v1995h369v-2966h-398z" />
    <glyph glyph-name="O" unicode="O" horiz-adv-x="2920" 
d="M1454 -49c-147.333 0 -278.999 17.3311 -394.999 51.998s-218 84.167 -306 148.5s-162.833 142.166 -224.5 233.499s-112 193.5 -151 306.5s-67.333 235.833 -85 368.5s-26.5 272.334 -26.5 419.001c0 147.333 9 287.5 27 420.5s46.5 256.5 85.5 370.5
s89.667 216.833 152 308.5s137.833 169.834 226.5 234.5c88.667 64.667 191.334 114.5 308.001 149.5s249 52.5 397 52.5c147.333 0 279.166 -17.333 395.499 -52s218.666 -84.167 306.999 -148.5s163.5 -142.166 225.5 -233.5c62 -91.333 112.5 -193.666 151.5 -307
c39 -113.333 67.5 -236.166 85.5 -368.499s27 -271.833 27 -418.5c0 -147.333 -9 -287.666 -27 -420.999s-46.833 -256.833 -86.5 -370.5s-90.667 -216.5 -153 -308.5s-138 -170.167 -227 -234.5s-192 -114 -309 -149s-249.5 -52.5 -397.5 -52.5zM1462 269.998
c98.667 0 186.834 13.667 264.501 41s146 66.333 205 117s109.333 112 151 184s75.834 153 102.5 243c26.667 90 46 187.833 58 293.5s18 217.167 18 334.5s-6 228.666 -18 333.999s-31.333 203 -58 293s-60.834 171 -102.501 243s-92 133.333 -151 184
s-127.5 89.667 -205.5 117s-166 41 -264 41c-99.333 0 -188 -13.667 -266 -41s-146.667 -66.333 -206 -117s-110 -112 -152 -184s-76.333 -153 -103 -243s-46 -187.667 -58 -293s-18 -216.666 -18 -333.999s6 -228.833 18 -334.5s31.333 -203.5 58 -293.5s61 -171 103 -243
s92.667 -133.333 152 -184s128 -89.667 206 -117s166.667 -41 266 -41z" />
    <glyph glyph-name="P" unicode="P" horiz-adv-x="2441" 
d="M414 0l0.00195312 2966h942c106.667 0 204.167 -9.33301 292.5 -28s167.666 -46.167 237.999 -82.5s131.666 -81 183.999 -134s96 -113.667 131 -182s61.167 -144 78.5 -227s26 -172.5 26 -268.5c0 -96.667 -8.16699 -186.667 -24.5 -270s-41.5 -159.166 -75.5 -227.499
s-77.667 -128.833 -131 -181.5s-117 -97 -191 -133s-158.833 -63.333 -254.5 -82s-203.167 -28 -322.5 -28h-516v-1122h-377zM1274 1421c116.667 0 215.833 14.001 297.5 42.001s148 68.667 199 122s88.167 118.666 111.5 195.999s35 165 35 263
c0 92 -11.667 176.167 -35 252.5s-59.833 141.833 -109.5 196.5s-113.167 97.167 -190.5 127.5s-170.333 45.5 -279 45.5h-512v-1245h483z" />
    <glyph glyph-name="Q" unicode="Q" horiz-adv-x="2920" 
d="M2200 -532c-13.333 0 -24.833 1.33203 -34.5 3.99902s-18.167 6.16699 -25.5 10.5s-13.666 9.16602 -18.999 14.499l-16 16l-446 450c-33.333 -4 -67 -7 -101 -9s-68.667 -3 -104 -3c-147.333 0 -279 17.333 -395 52s-218 84.167 -306 148.5
s-162.833 142.166 -224.5 233.499s-112 193.5 -151 306.5s-67.333 235.833 -85 368.5s-26.5 272.334 -26.5 419.001c0 147.333 9 287.5 27 420.5s46.5 256.5 85.5 370.5s89.667 216.833 152 308.5s137.833 169.834 226.5 234.5c88.667 64.667 191.334 114.5 308.001 149.5
s249 52.5 397 52.5c147.333 0 279.166 -17.333 395.499 -52s218.666 -84.167 306.999 -148.5s163.5 -142.166 225.5 -233.5c62 -91.333 112.5 -193.666 151.5 -306.999s67.5 -236.166 85.5 -368.499s27 -271.833 27 -418.5c0 -168 -11.833 -326.333 -35.5 -475
s-61.5 -284.167 -113.5 -406.5s-119.167 -229.833 -201.5 -322.5s-182.5 -166.667 -300.5 -222c26.667 -14 53.5 -31.667 80.5 -53s56.167 -47.333 87.5 -78l459 -462h-430zM1462 269.999c98.667 0 186.833 13.667 264.5 41s146 66.333 205 117s109.333 112 151 184
s75.834 153 102.5 243c26.667 90 46 187.833 58 293.5s18 217.167 18 334.5s-6 228.666 -18 333.999s-31.333 203 -58 293s-60.834 171 -102.5 243c-41.667 72 -92 133.333 -151 184s-127.5 89.667 -205.5 117s-166 41 -264 41c-99.333 0 -188 -13.667 -266 -41
s-146.667 -66.333 -206 -117s-110 -112 -152 -184s-76.333 -153 -103 -243s-46 -187.667 -58 -293s-18 -216.666 -18 -333.999s6 -228.833 18 -334.5s31.333 -203.5 58 -293.5s61 -171 103 -243s92.667 -133.333 152 -184s128 -89.667 206 -117s166.667 -41 266 -41z" />
    <glyph glyph-name="R" unicode="R" horiz-adv-x="2671" 
d="M2077 0l-618.998 987.001l-56 86c-17.333 25.333 -34.5 47.5 -51.5 66.5s-34.333 35.167 -52 48.5s-36.334 24.333 -56.001 33s-41 14.834 -64 18.501s-48.5 5.5 -76.5 5.5h-311v-1245h-377v2966h909c158 0 296 -17.167 414 -51.5s216.5 -86.333 295.5 -156
s138.167 -157.334 177.5 -263.001s59 -230.167 59 -373.5c0 -127.333 -16.833 -238.5 -50.5 -333.5s-79.667 -176.333 -138 -244s-126.833 -122.5 -205.5 -164.5s-163 -73.333 -253 -94c41.333 -22.667 80.666 -53.334 117.999 -92.001s74.333 -85.667 111 -141l664 -1053
h-438zM1249 1536c99.333 0 188.166 11.5 266.499 34.5s144.5 58.5 198.5 106.5s95.167 108.833 123.5 182.5s42.5 161.167 42.5 262.5c0 90.667 -11.833 170.167 -35.5 238.5s-60.5 125 -110.5 170s-113.667 78.833 -191 101.5s-169.666 34 -276.999 34h-475v-1130h458z" />
    <glyph glyph-name="S" unicode="S" horiz-adv-x="2372" 
d="M229 438c48 -21.333 103.839 -41.998 167.506 -61.998s131.667 -37.5 204 -52.5s147.666 -27 225.999 -36s156.5 -13.5 234.5 -13.5c114.667 0 215.667 13.5 303 40.5s160.333 64.333 219 112s103 103.667 133 168s45 133.833 45 208.5c0 50 -5.5 95 -16.5 135
s-27.667 76.5 -50 109.5s-50.5 63 -84.5 90s-74.167 52 -120.5 75s-98.666 44.667 -156.999 65s-122.833 40.833 -193.5 61.5c-90 26 -174 53 -252 81s-149.167 59 -213.5 93s-121.5 72 -171.5 114s-92.167 89.667 -126.5 143s-60.5 113.666 -78.5 180.999
s-27 143.333 -27 227.999c0 82.667 8.66699 160.667 26 234s43.833 141 79.5 203s80.667 117.667 135 167s118.5 91.166 192.5 125.5c74 34.333 158.167 60.666 252.5 79c94.333 18.333 199.166 27.5 314.499 27.5c84.667 0 163.834 -3.33301 237.501 -10
s142 -16.834 205 -30.5c63 -13.667 121.333 -30.834 175 -51.5c53.667 -20.667 103.167 -44.667 148.5 -72v-328c-50 28 -103.333 52.167 -160 72.5s-116.834 37.333 -180.501 51s-130.834 23.834 -201.501 30.501s-145.334 10 -224.001 10
c-104.667 0 -195.5 -12.167 -272.5 -36.5s-140.833 -58.5 -191.5 -102.5s-88.5 -96.667 -113.5 -158s-37.5 -129 -37.5 -203c0 -49.333 5.66699 -93.333 17 -132s28.333 -73.834 51 -105.501s51.167 -60 85.5 -85s74.833 -48.5 121.5 -70.5s99.167 -42.833 157.5 -62.5
s123.166 -39.834 194.499 -60.501c90.667 -26 175.167 -53.333 253.5 -82s149.666 -60.667 213.999 -96s121.333 -74.666 171 -117.999s91.5 -92.333 125.5 -147s59.833 -116 77.5 -184s26.5 -144.333 26.5 -229c0 -81.333 -9.83301 -159 -29.5 -233s-49.5 -143 -89.5 -207
s-89.833 -122.167 -149.5 -174.5s-129.334 -97 -209.001 -134s-169.5 -65.5 -269.5 -85.5s-210 -30 -330 -30c-88 0 -172.833 3.5 -254.5 10.5s-158.5 17.5 -230.5 31.5s-138.333 31.167 -199 51.5s-114 43.833 -160 70.5v323z" />
    <glyph glyph-name="T" unicode="T" horiz-adv-x="2302" 
d="M963 0v2654h-852v312h2080v-312h-852v-2654h-376z" />
    <glyph glyph-name="U" unicode="U" horiz-adv-x="2822" 
d="M2089 2966h377v-2073c0 -106 -9 -202.833 -27 -290.5s-45.667 -166.334 -83 -236.001s-84.666 -130.5 -142 -182.5c-57.333 -52 -125.166 -95.333 -203.5 -130c-78.333 -34.667 -167.5 -60.5 -267.5 -77.5s-211.333 -25.5 -334 -25.5s-234 8.5 -334 25.5
s-189 42.833 -267 77.5s-145.333 78 -202 130s-103.5 112.833 -140.5 182.5s-64.5 148.334 -82.5 236.001s-27 184.5 -27 290.5v2073h377v-1999c0 -118 13.167 -220.667 39.5 -308s67 -159.833 122 -217.5s125 -100.667 210 -129s186.5 -42.5 304.5 -42.5
c118.667 0 220.834 14.167 306.501 42.5s156.167 71.333 211.5 129s96.166 130.167 122.499 217.5s39.5 190 39.5 308v1999z" />
    <glyph glyph-name="V" unicode="V" horiz-adv-x="2642" 
d="M1122 0l-1048 2966h409l742 -2188l58 -178.5c18 -57.667 32.667 -118.167 44 -181.5c13.333 64 29.333 124.5 48 181.5l59 178.5l741 2188h393l-1044 -2966h-402z" />
    <glyph glyph-name="W" unicode="W" horiz-adv-x="4235" 
d="M2839 0l-618.998 2003c-9.33301 28.667 -19.166 62.834 -29.5 102.501c-10.333 39.667 -20.166 82.5 -29.5 128.5c-9.33301 46 -17.666 90.5 -25 133.5c-7.33301 43 -13.333 83.833 -18 122.5c-6 -40 -12.833 -81.167 -20.5 -123.5s-16.334 -86.5 -26 -132.5
c-9.66699 -46 -19.334 -88.833 -29.001 -128.5s-18.834 -73.834 -27.501 -102.501l-618 -2003h-398l-917 2966h401l639 -2188l23.5 -80c7.66699 -26.667 15 -53.5 22 -80.5s13.5 -54.333 19.5 -82s11.667 -55.834 17 -84.501c4 28.667 8.66699 56.834 14 84.501s11 55 17 82
s12.667 53.833 20 80.5l23 80l651 2188h377l651 -2188l23 -80c7.33301 -26.667 14.166 -53.5 20.5 -80.5c6.33301 -27 12 -54.333 17 -82s9.5 -55.834 13.5 -84.501c4 28.667 9 56.834 15 84.501s12.5 55 19.5 82s14.667 53.833 23 80.5l24.5 80l639 2188h401l-917 -2966
h-397z" />
    <glyph glyph-name="X" unicode="X" horiz-adv-x="2490" 
d="M1987 0l-607 979l-36.5 59c-12.333 20.667 -24.166 42 -35.499 64l-33 67c-10.667 22.667 -20.667 45.334 -30 68.001l-31.5 -68l-33 -67c-11 -22 -22.5 -43.333 -34.5 -64s-24 -40.334 -36 -59.001l-606 -979h-430l954 1520l-905 1446h430l553 -902l36 -60.5
c12 -21 23.5 -42.5 34.5 -64.5l33 -67.5c11 -23 21.5 -46.167 31.5 -69.5c9.33301 23.333 19.333 46.5 30 69.5s21.667 45.5 33 67.5s23.166 43.5 35.499 64.5l36.5 60.5l557 902h430l-905 -1446l959 -1520h-430z" />
    <glyph glyph-name="Y" unicode="Y" horiz-adv-x="2433" 
d="M1028 0l-0.00390625 1167l-979 1799h406l594 -1119c14.667 -28.667 29.334 -59 44.001 -91s28.834 -65 42.501 -99l40 -104c13 -35.333 25.167 -71 36.5 -107c11.333 36 23.833 71.667 37.5 107s27.834 70 42.501 104s29.834 67 45.501 99l46.5 91l594 1119h406
l-979 -1803v-1163h-377z" />
    <glyph glyph-name="Z" unicode="Z" horiz-adv-x="2441" 
d="M152 0v319l1626 2335h-1577v312h2027v-320l-1626 -2335h1688v-311h-2138z" />
    <glyph glyph-name="bracketleft" unicode="[" horiz-adv-x="1536" 
d="M500 -381v3486h794v-209h-417v-3068h417v-209h-794z" />
    <glyph glyph-name="backslash" unicode="\" horiz-adv-x="1860" 
d="M1425 0l-1331 3105h332l1335 -3105h-336z" />
    <glyph glyph-name="bracketright" unicode="]" horiz-adv-x="1536" 
d="M242 -381v209h417v3068h-417v209h794v-3486h-794z" />
    <glyph glyph-name="asciicircum" unicode="^" horiz-adv-x="1786" 
d="M1352 1794l-459 909l-459 -909h-319l565 1172h430l561 -1172h-319z" />
    <glyph glyph-name="underscore" unicode="_" horiz-adv-x="1638" 
d="M-33 -295v295h1704v-295h-1704z" />
    <glyph glyph-name="grave" unicode="`" 
d="M1008 2408l-549 574h483l393 -574h-327z" />
    <glyph glyph-name="a" unicode="a" horiz-adv-x="2232" 
d="M1561 0l-24.999 168.004c-42 -32.667 -86.667 -62.334 -134 -89.001s-97.333 -49.5 -150 -68.5s-108.167 -33.667 -166.5 -44s-119.833 -15.5 -184.5 -15.5c-102 0 -194.833 13.833 -278.5 41.5s-155.334 67.167 -215.001 118.5s-105.667 113.666 -138 186.999
s-48.5 155.666 -48.5 246.999c0 75.333 10.667 144.333 32 207s53 118.667 95 168s94 92.333 156 129s133.667 67 215 91s172.166 42 272.499 54s209.5 18 327.5 18h79.5h68.5h61v144c0 86 -9.33301 159.5 -28 220.5s-47.834 111 -87.501 150s-90.667 67.5 -153 85.5
s-136.833 27 -223.5 27c-69.333 0 -136.166 -4.83301 -200.499 -14.5s-125 -22 -182 -37s-109.5 -31.833 -157.5 -50.5s-90.333 -36.667 -127 -54v291c42.667 23.333 90.5 45.666 143.5 66.999s109.5 40 169.5 56s123.167 28.833 189.5 38.5s134.833 14.5 205.5 14.5
c120.667 0 230.834 -12.667 330.501 -38s185.167 -66.833 256.5 -124.5s126.5 -133.5 165.5 -227.5s58.5 -209.667 58.5 -347v-1413h-327zM1528 946.004h-156c-139.333 0 -258.333 -8.16699 -357 -24.5s-179.5 -40.833 -242.5 -73.5s-109.167 -73.667 -138.5 -123
s-44 -106.666 -44 -171.999c0 -49.333 8.16699 -92.833 24.5 -130.5s40.666 -69.334 72.999 -95.001s72.833 -45 121.5 -58s105.334 -19.5 170.001 -19.5c52 0 102 3.33301 150 10s94.5 17 139.5 31s89 31.5 132 52.5s85.5 45.833 127.5 74.5v528z" />
    <glyph glyph-name="b" unicode="b" horiz-adv-x="2470" 
d="M381 0v3105h360v-1180c42 34 86.667 64.833 134 92.5s97.5 51.334 150.5 71.001s109 34.834 168 45.501s121.167 16 186.5 16c136 0 257 -21.833 363 -65.5s195.167 -110 267.5 -199s127.333 -200.667 165 -335s56.5 -292.166 56.5 -473.499
c0 -185.333 -21.833 -348.166 -65.5 -488.499s-105.167 -257.833 -184.5 -352.5s-175 -165.834 -287 -213.501s-236 -71.5 -372 -71.5c-63.333 0 -123 3.83301 -179 11.5s-108.833 19 -158.5 34s-96.5 33.667 -140.5 56s-85.333 48.5 -124 78.5l-21 -131h-319zM741 392.997
c40.667 -25.333 81.999 -46.835 123.999 -64.502s85.167 -32 129.5 -43s90.333 -19 138 -24s97.5 -7.5 149.5 -7.5c95.333 0 179 17.333 251 52s132.333 85.834 181 153.501s85.167 150.834 109.5 249.501s36.5 212 36.5 340c0 128.667 -11.333 242.5 -34 341.5
s-57.334 182 -104.001 249s-105.167 117.667 -175.5 152s-153.166 51.5 -248.499 51.5c-54 0 -105.667 -3.33301 -155 -10s-96.666 -17 -141.999 -31s-89.5 -31.833 -132.5 -53.5s-85.5 -47.5 -127.5 -77.5v-1278z" />
    <glyph glyph-name="c" unicode="c" horiz-adv-x="1942" 
d="M1757 98c-32 -19.333 -70 -38.0029 -114 -56.0029s-92.333 -33.667 -145 -47s-108.667 -24 -168 -32s-120.333 -12 -183 -12c-146.667 0 -276.5 24 -389.5 72s-208 119.333 -285 214s-135.333 211.834 -175 351.501s-59.5 301.167 -59.5 484.5
c0 106 8.66699 206.167 26 300.5s43.333 181.333 78 261s77.834 151.334 129.501 215.001s112 117.834 181 162.501s146.667 78.834 233 102.5c86.333 23.667 181.5 35.5 285.5 35.5c55.333 0 109.666 -2.66699 162.999 -8s103.666 -13.166 150.999 -23.5
c47.333 -10.333 91.333 -22.833 132 -37.5s76.334 -31 107.001 -49v-312c-32 15.333 -68.333 30 -109 44s-84.5 26.167 -131.5 36.5s-96.5 18.666 -148.5 24.999s-105 9.5 -159 9.5c-96 0 -179.5 -17.5 -250.5 -52.5s-129.833 -85.167 -176.5 -150.5
s-81.5 -145.166 -104.5 -239.499s-34.5 -200.833 -34.5 -319.5c0 -137.333 12.5 -256.333 37.5 -357s61.333 -184 109 -250s106 -115.167 175 -147.5s147.5 -48.5 235.5 -48.5c72 0 136.667 3.83301 194 11.5s109.5 17.5 156.5 29.5s90 25.5 129 40.5
s75.833 30.167 110.5 45.5v-299z" />
    <glyph glyph-name="d" unicode="d" horiz-adv-x="2470" 
d="M1769 0l-32 180.001c-42 -34.667 -86.833 -66.167 -134.5 -94.5s-98.334 -52.5 -152.001 -72.5s-110.167 -35.333 -169.5 -46s-121.666 -16 -186.999 -16c-136 0 -257.167 22.167 -363.5 66.5s-196 111.166 -269 200.499s-128.5 201.333 -166.5 336s-57 292.667 -57 474
c0 185.333 21.833 348 65.5 488s105.167 257 184.5 351s175 164.667 287 212s236 71 372 71c60.667 0 117.667 -4 171 -12s104 -19.667 152 -35s93.333 -34.166 136 -56.5c42.667 -22.333 83.667 -47.833 123 -76.5v1135h360v-3105h-320zM1729 1683
c-41.333 26.667 -83.002 49.668 -125.002 69.001s-85.333 35.166 -130 47.499s-90.667 21.333 -138 27s-96.666 8.5 -147.999 8.5c-95.333 0 -179 -17 -251 -51s-132.333 -84.167 -181 -150.5s-85.167 -148.833 -109.5 -247.5s-36.5 -212.667 -36.5 -342
c0 -128 11.333 -241.333 34 -340s57.334 -181.667 104.001 -249s105 -118.333 175 -153s152.667 -52 248 -52c53.333 0 104.333 3.33301 153 10s95.667 17 141 31s89.833 31.5 133.5 52.5s87.167 45.833 130.5 74.5v1265z" />
    <glyph glyph-name="e" unicode="e" horiz-adv-x="2236" 
d="M1901 102c-41.333 -21.333 -86.8311 -41.3379 -136.498 -60.0049s-104.334 -34.667 -164.001 -48s-124.5 -23.833 -194.5 -31.5s-145.333 -11.5 -226 -11.5c-104.667 0 -200.5 11.333 -287.5 34s-165.5 55.834 -235.5 99.501s-131.167 97.334 -183.5 161.001
s-96 136.834 -131 219.501s-61.167 174.167 -78.5 274.5s-26 208.833 -26 325.5c0 104 7.83301 203 23.5 297s39.5 181.167 71.5 261.5s72.333 153 121 218s105.667 120.333 171 166s139.333 80.834 222 105.5c82.667 24.667 174.334 37 275.001 37
c98.667 0 189.167 -11.833 271.5 -35.5s156.333 -57.167 222 -100.5s123 -95.5 172 -156.5s89.667 -128.833 122 -203.5s56.666 -155.5 72.999 -242.5s24.5 -177.833 24.5 -272.5c0 -13.333 -0.166992 -27.166 -0.5 -41.499s-1 -28.166 -2 -41.499s-2 -25.666 -3 -36.999
l-2.5 -28h-1397c4 -116.667 19 -219.834 45 -309.501s64.333 -165 115 -226s114 -107.167 190 -138.5s165.667 -47 269 -47c78 0 149.833 4 215.5 12s126.5 18.167 182.5 30.5s107.167 26.333 153.5 42s89.166 31.167 128.499 46.5v-299zM1638 1270
c-4 88.667 -18.333 169.334 -43 242.001s-58.834 134.834 -102.501 186.501s-96.667 91.5 -159 119.5s-132.833 42 -211.5 42s-149 -14 -211 -42s-115 -67.833 -159 -119.5s-78.667 -113.834 -104 -186.501s-40.666 -153.334 -45.999 -242.001h1036z" />
    <glyph glyph-name="f" unicode="f" horiz-adv-x="1593" 
d="M545 0l-0.000976562 1802h-459v299h459v283c0 126.667 16.833 238.167 50.5 334.5s81.667 176.666 144 241c62.333 64.333 138 112.833 227 145.5s188.833 49 299.5 49c48.667 0 94.834 -1.66699 138.501 -5s84.167 -8 121.5 -14s71.5 -13 102.5 -21
s58.833 -16.667 83.5 -26v-295c-28.667 9.33301 -57 17.166 -85 23.5c-28 6.33301 -56.833 11.5 -86.5 15.5s-60.167 6.83301 -91.5 8.5s-65 2.5 -101 2.5c-86 0 -157.5 -9.66699 -214.5 -29s-102.333 -49.5 -136 -90.5s-57.5 -93 -71.5 -156s-21 -137.833 -21 -224.5v-242
h676v-299h-676v-1802h-360z" />
    <glyph glyph-name="g" unicode="g" horiz-adv-x="2470" 
d="M1729 176c-42 -34.667 -86.832 -65.833 -134.499 -93.5s-98.167 -51.334 -151.5 -71.001s-109.333 -34.667 -168 -45s-120.334 -15.5 -185.001 -15.5c-136 0 -257 22.167 -363 66.5s-195.167 111.166 -267.5 200.499s-127.333 201.333 -165 336s-56.5 292.667 -56.5 474
c0 185.333 21.833 348 65.5 488s105.167 257 184.5 351s175 164.667 287 212s236 71 372 71c62.667 0 121.667 -4.16699 177 -12.5s107.666 -20.666 156.999 -36.999s95.833 -36.5 139.5 -60.5s85.167 -51.333 124.5 -82l24 143h320v-2089
c0 -160.667 -22.333 -302.834 -67 -426.501s-109.834 -227.667 -195.501 -312s-190.667 -148.166 -315 -191.499s-266.5 -65 -426.5 -65c-69.333 0 -136.166 3 -200.499 9s-125.5 14.5 -183.5 25.5s-112.833 24.333 -164.5 40s-99.5 33.167 -143.5 52.5v315
c38.667 -15.333 81.334 -30.5 128.001 -45.5s97.167 -28.5 151.5 -40.5s112.5 -21.5 174.5 -28.5s127.667 -9.83301 197 -8.5c126.667 1.33301 233.667 15.5 321 42.5s158 68.833 212 125.5s92.833 128.834 116.5 216.501s35.5 193.167 35.5 316.5v139zM1729 1683
c-41.333 26.667 -83.002 49.668 -125.002 69.001s-85.333 35.166 -130 47.499s-90.667 21.333 -138 27s-96.666 8.5 -147.999 8.5c-95.333 0 -179 -17 -251 -51s-132.333 -84.167 -181 -150.5s-85.167 -148.833 -109.5 -247.5s-36.5 -212.667 -36.5 -342
c0 -128 11.333 -241.333 34 -340s57.334 -181.667 104.001 -249s105 -118.333 175 -153s152.667 -52 248 -52c53.333 0 104.333 3.33301 153 10s95.667 17 141 31s89.833 31.5 133.5 52.5s87.167 45.833 130.5 74.5v1265z" />
    <glyph glyph-name="h" unicode="h" horiz-adv-x="2470" 
d="M1765 0l0.00195312 1413c0 76.667 -9.5 142.167 -28.5 196.5s-47 98.833 -84 133.5s-82.833 60 -137.5 76s-117.334 24 -188.001 24c-56 0 -109.667 -3.83301 -161 -11.5s-100.833 -19.5 -148.5 -35.5s-94.334 -36 -140.001 -60s-91.167 -52.333 -136.5 -85v-1651h-360
v3105h360v-1192c42 36 87.167 68.5 135.5 97.5s99.666 53.833 153.999 74.5s112 36.667 173 48s125.5 17 193.5 17c80 0 153.5 -6.5 220.5 -19.5s127.5 -32.167 181.5 -57.5s101.333 -57 142 -95s74.834 -82.333 102.501 -133s48.334 -107.167 62 -169.5
c13.667 -62.333 20.5 -130.833 20.5 -205.5v-1470h-361z" />
    <glyph glyph-name="i" unicode="i" horiz-adv-x="1122" 
d="M381 0v2101h360v-2101h-360zM381 2540v426h360v-426h-360z" />
    <glyph glyph-name="j" unicode="j" horiz-adv-x="1122" 
d="M-225 -643c22.667 -4 43.665 -6.99902 62.998 -8.99902s43.333 -3 72 -3c78 0 146.333 13.667 205 41s107.667 69.5 147 126.5s69 129.5 89 217.5s30 193 30 315v2056h360v-2097c0 -167.333 -19.333 -311.5 -58 -432.5s-92.667 -220.667 -162 -299
s-152.5 -136.333 -249.5 -174s-203.833 -56.5 -320.5 -56.5c-16.667 0 -33.5 0.5 -50.5 1.5s-33.167 2.33301 -48.5 4s-29.666 3.66699 -42.999 6s-24.666 5.16602 -33.999 8.49902v295zM380.998 2540v426h360v-426h-360z" />
    <glyph glyph-name="k" unicode="k" horiz-adv-x="2171" 
d="M1679 0l-938 954.001v-954h-360v3105h360v-1934l918 930h426l-852 -868c-20.667 -20.667 -40 -38.834 -58 -54.501s-35.167 -29.667 -51.5 -42s-32 -23.333 -47 -33s-29.833 -18.5 -44.5 -26.5c13.333 -6 26.833 -13 40.5 -21s28.167 -17.667 43.5 -29s32 -24.5 50 -39.5
s37.667 -32.833 59 -53.5l913 -934h-459z" />
    <glyph glyph-name="l" unicode="l" horiz-adv-x="1286" 
d="M1184 25c-22.667 -7.33301 -46.9941 -14 -72.9941 -20s-53.5 -11.333 -82.5 -16s-59.167 -8.16699 -90.5 -10.5s-64 -3.5 -98 -3.5c-70.667 0 -134.334 8.83301 -191.001 26.5s-104.834 46 -144.501 85s-70.167 89 -91.5 150s-32 135.167 -32 222.5v2646h360v-2605
c0 -35.333 3.16699 -66 9.5 -92s16.666 -47.667 30.999 -65s33.666 -30.333 57.999 -39s54.5 -13 90.5 -13c41.333 0 83.666 2 126.999 6s85.666 10 126.999 18v-290z" />
    <glyph glyph-name="m" unicode="m" horiz-adv-x="3854" 
d="M3150 0l0.00195312 1413c0 76.667 -9.66699 142.167 -29 196.5s-47.5 98.833 -84.5 133.5s-82.667 60 -137 76s-116.833 24 -187.5 24c-56.667 0 -110.5 -3.83301 -161.5 -11.5s-100.5 -19.5 -148.5 -35.5s-94.833 -36.333 -140.5 -61s-90.834 -54 -135.501 -88v-129
v-129v-1389h-361v1413c0 76.667 -9.5 142.167 -28.5 196.5s-47 98.833 -84 133.5s-82.833 60 -137.5 76s-117.334 24 -188.001 24c-56 0 -109.667 -3.83301 -161 -11.5s-100.833 -19.5 -148.5 -35.5s-94.334 -36.333 -140.001 -61s-91.167 -54 -136.5 -88v-1647h-360v2101
h328l24 -192c42.667 36.667 88.5 69.834 137.5 99.501s101 55 156 76s113.333 37.167 175 48.5s126.834 17 195.501 17c80 0 153.667 -6.66699 221 -20s128 -33 182 -59s101.5 -58.333 142.5 -97s74.833 -83.667 101.5 -135c46 47.333 95.5 90.166 148.5 128.499
s110 71 171 98s126.167 47.833 195.5 62.5s143.333 22 222 22c80 0 153.5 -6.5 220.5 -19.5s127.5 -32.167 181.5 -57.5s101.333 -57 142 -95s74.834 -82.333 102.5 -133c27.667 -50.667 48.334 -107.167 62 -169.5c13.667 -62.333 20.5 -130.833 20.5 -205.5v-1470h-360z
" />
    <glyph glyph-name="n" unicode="n" horiz-adv-x="2470" 
d="M1765 0v1413c0 76.667 -9.5 142.167 -28.5 196.5s-47 98.833 -84 133.5s-82.833 60 -137.5 76s-117.334 24 -188.001 24c-56 0 -109.667 -3.83301 -161 -11.5s-100.833 -19.5 -148.5 -35.5s-94.334 -36.333 -140.001 -61s-91.167 -54 -136.5 -88v-1647h-360v2101h328
l24 -192c42.667 36.667 88.5 69.834 137.5 99.501s101 55 156 76s113.333 37.167 175 48.5s126.834 17 195.501 17c80 0 153.5 -6.5 220.5 -19.5s127.5 -32.167 181.5 -57.5s101.333 -57 142 -95s74.834 -82.333 102.501 -133s48.334 -107.167 62 -169.5
c13.667 -62.333 20.5 -130.833 20.5 -205.5v-1470h-361z" />
    <glyph glyph-name="o" unicode="o" horiz-adv-x="2384" 
d="M1192 -49c-118 0 -223.835 12.833 -317.502 38.5s-176.167 62.167 -247.5 109.5s-132.5 104.166 -183.5 170.499s-92.667 140.166 -125 221.499s-56 169 -71 263s-22.5 192.333 -22.5 295s8.16699 201.334 24.5 296.001s41.5 182.667 75.5 264s77 155.333 129 222
s113.833 123.667 185.5 171s153.334 83.833 245.001 109.5s194.167 38.5 307.5 38.5c118.667 0 225 -12.833 319 -38.5s176.833 -62.167 248.5 -109.5s132.834 -104.333 183.501 -171s92 -140.667 124 -222s55.333 -169.333 70 -264s22 -193.334 22 -296.001
s-8 -201 -24 -295s-40.833 -181.667 -74.5 -263s-76.5 -155.166 -128.5 -221.499s-113.833 -123.166 -185.5 -170.499s-153.5 -83.833 -245.5 -109.5s-195 -38.5 -309 -38.5zM1192 254c110.667 0 203.834 19.5 279.501 58.5s136.834 93.667 183.501 164
s80.167 154.166 100.5 251.499s30.5 204.333 30.5 321c0 118 -10.167 226.333 -30.5 325s-53.833 183.667 -100.5 255s-107.834 126.833 -183.501 166.5s-168.834 59.5 -279.501 59.5c-109.333 0 -201.833 -19.833 -277.5 -59.5s-137 -95.167 -184 -166.5
s-80.833 -156.333 -101.5 -255s-31 -207 -31 -325c0 -116.667 10.333 -223.667 31 -321s54.5 -181.166 101.5 -251.499s108.333 -125 184 -164s168.167 -58.5 277.5 -58.5z" />
    <glyph glyph-name="p" unicode="p" horiz-adv-x="2470" 
d="M381 -934l-0.000976562 3035h328l24 -180c42 34.667 86.833 66.167 134.5 94.5s98.334 52.5 152.001 72.5s110.5 35.333 170.5 46s123.333 16 190 16c136 0 257 -21.833 363 -65.5s195.167 -110 267.5 -199s127.333 -200.667 165 -335s56.5 -292.166 56.5 -473.499
c0 -185.333 -21.833 -348.166 -65.5 -488.499s-105.167 -257.833 -184.5 -352.5s-175 -165.834 -287 -213.501s-236 -71.5 -372 -71.5c-61.333 0 -119 3.5 -173 10.5s-105 17.5 -153 31.5s-93.167 31.5 -135.5 52.5s-82.5 45.5 -120.5 73.5v-1053h-360zM740.999 392.999
c40.667 -25.333 81.999 -46.667 123.999 -64s85.167 -31.333 129.5 -42s90.333 -18.167 138 -22.5s97.5 -6.5 149.5 -6.5c95.333 0 179 17.167 251 51.5s132.333 85 181 152s85.167 149.667 109.5 248s36.5 211.5 36.5 339.5c0 128.667 -11.333 242.5 -34 341.5
s-57.334 182 -104.001 249s-105.167 117.667 -175.5 152s-153.166 51.5 -248.499 51.5c-54 0 -105.667 -3.33301 -155 -10s-96.666 -17 -141.999 -31s-89.5 -31.833 -132.5 -53.5s-85.5 -47.5 -127.5 -77.5v-1278z" />
    <glyph glyph-name="q" unicode="q" horiz-adv-x="2470" 
d="M1729 -934l0.00195312 1110c-42 -34.667 -86.833 -65.834 -134.5 -93.501s-98.167 -51.334 -151.5 -71.001s-109.333 -34.667 -168 -45s-120.334 -15.5 -185.001 -15.5c-136 0 -257 22.167 -363 66.5s-195.167 111.166 -267.5 200.499s-127.333 201.333 -165 336
s-56.5 292.667 -56.5 474c0 185.333 21.833 348 65.5 488s105.167 257 184.5 351s175 164.667 287 212s236 71 372 71c62.667 0 121.667 -4.16699 177 -12.5s107.666 -20.666 156.999 -37c49.333 -16.333 95.833 -36.5 139.5 -60.5s85.167 -51.333 124.5 -82l24 143h320
v-3035h-360zM1729 1683c-41.333 26.667 -83.002 49.668 -125.002 69.001s-85.333 35.166 -130 47.499s-90.667 21.333 -138 27s-96.666 8.5 -147.999 8.5c-95.333 0 -179 -17 -251 -51s-132.333 -84.167 -181 -150.5s-85.167 -148.833 -109.5 -247.5
s-36.5 -212.667 -36.5 -342c0 -128 11.333 -241.333 34 -340s57.334 -181.667 104.001 -249s105 -118.333 175 -153s152.667 -52 248 -52c53.333 0 104.333 3.33301 153 10s95.667 17 141 31s89.833 31.5 133.5 52.5s87.167 45.833 130.5 74.5v1265z" />
    <glyph glyph-name="r" unicode="r" horiz-adv-x="1651" 
d="M381 0l0.00585938 2101h328l24 -311c28.667 50 62 97 100 141s81.167 82.167 129.5 114.5s101.666 57.833 159.999 76.5s122.5 28 192.5 28c51.333 0 97.833 -4.33301 139.5 -13s77.167 -19.334 106.5 -32v-344c-18.667 6 -39.834 11.833 -63.501 17.5
s-48.834 10.5 -75.501 14.5s-54.334 7.16699 -83.001 9.5s-57.334 3.5 -86.001 3.5c-44 0 -85.5 -5 -124.5 -15s-75.667 -24.167 -110 -42.5s-66 -40 -95 -65s-55.167 -52.333 -78.5 -82s-43.833 -61.167 -61.5 -94.5s-31.834 -67.333 -42.501 -102v-1405h-360z" />
    <glyph glyph-name="s" unicode="s" horiz-adv-x="1962" 
d="M233 393c23.333 -10.667 50.1709 -21.5039 80.5039 -32.5039s63.166 -21.5 98.499 -31.5s72.333 -19.333 111 -28s78 -16.167 118 -22.5s79.833 -11.333 119.5 -15s78.5 -5.5 116.5 -5.5c84.667 0 159.667 6.83301 225 20.5s120.166 33.5 164.499 59.5
s77.833 58 100.5 96s34 81.667 34 131c0 53.333 -10.5 98.666 -31.5 135.999s-51.5 69.5 -91.5 96.5s-88.833 50.167 -146.5 69.5s-123.5 37.666 -197.5 54.999c-109.333 25.333 -206.333 54 -291 86s-155.834 71.333 -213.501 118s-101.334 103.167 -131.001 169.5
s-44.5 146.5 -44.5 240.5c0 92 14.5 175.833 43.5 251.5s75 140.334 138 194.001s144.667 95.167 245 124.501c100.333 29.333 221.5 44 363.5 44c41.333 0 82 -1.66699 122 -5s78.5 -8 115.5 -14s72.667 -13.333 107 -22s66.833 -18.5 97.5 -29.5s59.5 -23 86.5 -36
s51.833 -26.5 74.5 -40.5v-299c-24.667 12.667 -51.334 25.167 -80.001 37.5s-58.834 23.833 -90.501 34.5s-64.667 20.334 -99 29.001s-69.666 16.167 -105.999 22.5s-73.666 11.166 -111.999 14.499s-76.833 5 -115.5 5c-73.333 0 -137 -6.16699 -191 -18.5
s-98.667 -30.666 -134 -54.999s-61.666 -55 -78.999 -92s-26 -80.167 -26 -129.5c0 -53.333 9.83301 -97.666 29.5 -132.999s48.834 -65.333 87.501 -90s86.167 -45.5 142.5 -62.5s121.5 -33.5 195.5 -49.5c110.667 -24.667 208.667 -54 294 -88
s157.166 -75.833 215.499 -125.5s102.666 -108.834 132.999 -177.501s45.5 -150 45.5 -244c0 -92 -18.5 -176.667 -55.5 -254s-92.167 -144 -165.5 -200s-164.333 -99.5 -273 -130.5s-234.667 -46.5 -378 -46.5c-64.667 0 -128.5 3.83301 -191.5 11.5
s-123 17.834 -180 30.501s-109.5 27.334 -157.5 44.001s-89 34.334 -123 53.001v303z" />
    <glyph glyph-name="t" unicode="t" horiz-adv-x="1704" 
d="M1585 33c-27.333 -12 -58.834 -23.167 -94.501 -33.5s-73.667 -19 -114 -26s-82.166 -12.5 -125.499 -16.5s-86.333 -6 -129 -6c-103.333 0 -194.5 11 -273.5 33s-145.333 57.833 -199 107.5s-94.167 114.667 -121.5 195s-41 178.833 -41 295.5v1220h-360v299h360v647
h361v-647h762v-299h-762v-1192c0 -70.667 7.16699 -128.334 21.5 -173.001s35.666 -79.667 63.999 -105s63.833 -42.666 106.5 -51.999s92 -14 148 -14c38.667 0 76.5 1.83301 113.5 5.5s72.5 8.66699 106.5 15s65.833 13.5 95.5 21.5s56.834 16 81.501 24v-299z" />
    <glyph glyph-name="u" unicode="u" horiz-adv-x="2433" 
d="M1724 0l-23.998 168.001c-42 -32.667 -86.333 -62.334 -133 -89.001s-96 -49.5 -148 -68.5s-106.833 -33.667 -164.5 -44s-118.167 -15.5 -181.5 -15.5c-80 0 -153.5 6.5 -220.5 19.5s-127.5 32.167 -181.5 57.5s-101.333 57 -142 95s-74.834 82.333 -102.501 133
s-48.334 107.167 -62.001 169.5s-20.5 130.833 -20.5 205.5v1470h361v-1413c0 -76.667 9.33301 -142.5 28 -197.5s46.5 -100 83.5 -135s82.667 -60.667 137 -77s117.5 -24.5 189.5 -24.5c52 0 101.833 3.16699 149.5 9.5s94 16.166 139 29.499s88.833 30.333 131.5 51
s85.667 45.334 129 74.001v1683h360v-2101h-328z" />
    <glyph glyph-name="v" unicode="v" horiz-adv-x="1995" 
d="M811 0l-766.001 2101h385l488 -1478l44 -153c15.333 -54 29.333 -111 42 -171c10 60 23.333 116.833 40 170.5s33.334 103.167 50.001 148.5l487 1483h373l-762 -2101h-381z" />
    <glyph glyph-name="w" unicode="w" horiz-adv-x="3195" 
d="M2073 0l-406 1348l-34.5 118.5c-13 46.333 -24.833 95.5 -35.5 147.5c-12 -52 -24 -101.167 -36 -147.5s-23 -85.833 -33 -118.5l-406 -1348h-360l-701 2101h377l434 -1462c12.667 -41.333 25 -86.666 37 -135.999s23 -101 33 -155c10.667 54 22.5 105.667 35.5 155
s25.833 94.666 38.5 135.999l418 1462h327l418 -1462l35 -136c12.667 -49.333 24.334 -101 35 -155c10 54 21.667 105.667 35 155l38 136l435 1462h376l-700 -2101h-360z" />
    <glyph glyph-name="x" unicode="x" horiz-adv-x="2081" 
d="M1577 0l-537 827l-540 -827h-418l754 1073l-721 1028h426l503 -774l508 774h414l-721 -1024l754 -1077h-422z" />
    <glyph glyph-name="y" unicode="y" horiz-adv-x="1995" 
d="M4 -647c16.667 -2 36.167 -3.83398 58.5 -5.50098s47.833 -2.5 76.5 -2.5c52.667 0 102.167 3.66699 148.5 11s89.833 19.666 130.5 36.999s79 40.333 115 69s70 64.5 102 107.5s62.167 93.833 90.5 152.5s55.5 126.667 81.5 204l12 45l-774 2130h385l488 -1478l44 -153
c15.333 -54 29.333 -111 42 -171c10 60 23.333 116.833 40 170.5s33.334 103.167 50.001 148.5l487 1483h373l-807 -2224c-36.667 -101.333 -74.334 -192.666 -113.001 -273.999s-79.667 -153 -123 -215s-90 -115.167 -140 -159.5s-104.833 -80.666 -164.5 -108.999
s-125 -49.166 -196 -62.499s-149.167 -20 -234.5 -20c-14 0 -28.833 0.5 -44.5 1.5s-31 2.5 -46 4.5s-29.5 4.16699 -43.5 6.5s-26.667 5.16602 -38 8.49902v295z" />
    <glyph glyph-name="z" unicode="z" horiz-adv-x="2028" 
d="M205 0v254l1155 1548h-1122v299h1556v-254l-1163 -1548h1208v-299h-1634z" />
    <glyph glyph-name="braceleft" unicode="{" horiz-adv-x="1696" 
d="M1221 -381c-74 0 -139.167 4.16504 -195.5 12.498s-105.333 21.666 -147 39.999s-76.5 42.5 -104.5 72.5s-50.5 66.833 -67.5 110.5s-29.167 94.334 -36.5 152.001s-11 123.834 -11 198.501v725c0 60 -6 111.5 -18 154.5s-30.667 78.333 -56 106
s-57.666 47.834 -96.999 60.501s-86 19 -140 19h-106v184h106c54 0 100.667 6.33301 140 19s71.666 32.667 96.999 60s44 62.5 56 105.5s18 94.833 18 155.5v725c0 74.667 3.66699 140.834 11 198.5c7.33301 57.667 19.5 108.334 36.5 152c17 43.667 39.5 80.5 67.5 110.5
s62.833 54.167 104.5 72.5s90.667 31.666 147 40c56.333 8.33301 121.5 12.5 195.5 12.5h233v-217h-180c-54 0 -96.833 -10.5 -128.5 -31.5s-55.667 -50 -72 -87s-26.666 -81 -30.999 -132s-6.5 -106.833 -6.5 -167.5v-676c0 -54 -5.33301 -103.667 -16 -149
s-27 -86 -49 -122s-49.333 -67.5 -82 -94.5s-71 -49.833 -115 -68.5c44 -17.333 82.333 -39.333 115 -66s60 -57.834 82 -93.501s38.333 -75.667 49 -120s16 -93.166 16 -146.499v-680c0 -60.667 2.16699 -117 6.5 -169s14.666 -97 30.999 -135s40.333 -67.833 72 -89.5
s74.5 -32.5 128.5 -32.5h180v-209h-233z" />
    <glyph glyph-name="bar" unicode="|" horiz-adv-x="1405" 
d="M553 -934v4039h299v-4039h-299z" />
    <glyph glyph-name="braceright" unicode="}" horiz-adv-x="1696" 
d="M242 -381v209.001h180c54 0 96.833 10.833 128.5 32.5s55.5 51.5 71.5 89.5s26.167 83 30.5 135s6.5 108.333 6.5 169v680c0 53.333 5.33301 102.166 16 146.499s27 84.333 49 120s49.5 66.834 82.5 93.501s71.5 48.667 115.5 66c-44 18.667 -82.5 41.5 -115.5 68.5
s-60.5 58.5 -82.5 94.5s-38.333 76.667 -49 122s-16 95 -16 149v676c0 60.667 -2.16699 116.5 -6.5 167.5s-14.5 95 -30.5 132s-39.833 66 -71.5 87s-74.5 31.5 -128.5 31.5h-180v217h233c110.667 0 202.167 -9.5 274.5 -28.5s129.666 -51.167 171.999 -96.5
s72 -105.5 89 -180.5s25.5 -168.5 25.5 -280.5v-725c0 -60.667 6 -112.5 18 -155.5s30.667 -78.167 56 -105.5s57.666 -47.333 96.999 -60s86.333 -19 141 -19h106v-184h-106c-54.667 0 -101.667 -6.33301 -141 -19s-71.666 -32.834 -96.999 -60.501s-44 -63 -56 -106
s-18 -94.5 -18 -154.5v-725c0 -112 -8.5 -205.5 -25.5 -280.5s-46.667 -135.167 -89 -180.5s-99.666 -77.5 -171.999 -96.5s-163.833 -28.5 -274.5 -28.5h-233z" />
    <glyph glyph-name="asciitilde" unicode="~" horiz-adv-x="1843" 
d="M1724 1487c0 -82 -12.9961 -155.832 -38.9961 -221.499s-61.5 -121.667 -106.5 -168s-97.833 -81.833 -158.5 -106.5s-125.667 -37 -195 -37c-46 0 -88.5 5.33301 -127.5 16s-75.833 23.834 -110.5 39.501s-67.334 32.667 -98.001 51l-89 51
c-28.667 15.667 -56.834 28.834 -84.501 39.501s-55.834 16 -84.501 16c-38 0 -71.667 -4.83301 -101 -14.5s-54 -23.334 -74 -41.001s-35.333 -38.834 -46 -63.501s-16.334 -51.667 -17.001 -81h-274c0 54.667 5.66699 105.667 17 153s27.5 90.666 48.5 129.999
s46.333 74.5 76 105.5s62.667 57.167 99 78.5s75.5 37.5 117.5 48.5s86.333 16.5 133 16.5c46 0 88.833 -5.33301 128.5 -16s77 -23.834 112 -39.501s68.167 -32.667 99.5 -51l91 -51c29.333 -15.667 58 -28.834 86 -39.501s56.333 -16 85 -16c38 0 71.833 4.66699 101.5 14
s54.5 22.833 74.5 40.5s35.333 38.834 46 63.501s16 52.334 16 83.001h274z" />
    <glyph glyph-name="uni00A0" unicode="&#xa0;" horiz-adv-x="1016" 
 />
    <glyph glyph-name="exclamdown" unicode="&#xa1;" horiz-adv-x="1356" 
d="M479 -864v807c0 47.333 1.16699 98.5 3.5 153.5s5.33301 111 9 168s7.66699 113.833 12 170.5s8.83301 110.834 13.5 162.501l13.5 144c4.33301 44.333 7.83301 82.5 10.5 114.5l41 430h188l41 -430l10 -114.5l13 -144c4.66699 -51.667 9.16699 -105.834 13.5 -162.501
s8.33301 -113.5 12 -170.5s6.66699 -113 9 -168s3.5 -106.167 3.5 -153.5v-807h-393zM451 1655v446h454v-446h-454z" />
    <glyph glyph-name="cent" unicode="&#xa2;" horiz-adv-x="2597" 
d="M1217 -131l0.00292969 458.998c-150 14 -283.167 49.333 -399.5 106s-214.333 133.5 -294 230.5s-140.334 214.333 -182.001 352s-62.5 294.5 -62.5 470.5c0 158 18.833 303.333 56.5 436s95.167 248.667 172.5 348s174.833 180.333 292.5 243s256.5 102.667 416.5 120
v463h327v-455c55.333 -3.33301 109.333 -8.33301 162 -15s102.667 -15.167 150 -25.5s91.333 -22.166 132 -35.5c40.667 -13.333 77 -27.666 109 -43v-315c-40 17.333 -85.5 33.333 -136.5 48s-106 27.167 -165 37.5s-121 18.5 -186 24.5s-131.833 9 -200.5 9
c-136 0 -252.5 -20.333 -349.5 -61s-176.333 -97.834 -238 -171.5c-61.667 -73.667 -106.834 -162.167 -135.501 -265.5s-43 -217.333 -43 -342c0 -94.667 8.16699 -181.5 24.5 -260.5s40 -150 71 -213s69.333 -118.167 115 -165.5s97.667 -86.833 156 -118.5
s122.666 -55.334 192.999 -71.001s146.166 -23.5 227.499 -23.5c73.333 0 141.833 2.33301 205.5 7s123.834 11.334 180.501 20.001s110.5 19.334 161.5 32.001s100.5 27 148.5 43v-307c-40 -14 -80.833 -27.167 -122.5 -39.5s-86 -23.166 -133 -32.499
s-97.333 -17.333 -151 -24s-112.167 -11.667 -175.5 -15v-450h-327z" />
    <glyph glyph-name="sterling" unicode="&#xa3;" horiz-adv-x="2597" 
d="M365 0v302.999h53c52 0 96.667 11.333 134 34s68 52.834 92 90.501s41.5 81 52.5 130s16.5 99.5 16.5 151.5v610h-320v299h320v627c0 88 10 168.167 30 240.5s48 137 84 194s79.167 106.5 129.5 148.5s105.833 76.833 166.5 104.5s125.5 48.334 194.5 62
c69 13.667 140.5 20.5 214.5 20.5c55.333 0 107 -2.16699 155 -6.5s92.333 -10.333 133 -18s77.667 -16.834 111 -27.5c33.333 -10.667 62.666 -22 87.999 -34v-303c-28.667 10 -59.5 19.167 -92.5 27.5s-68 15.666 -105 22c-37 6.33301 -75.667 11.166 -116 14.5
c-40.333 3.33301 -81.833 5 -124.5 5c-86 0 -160 -9.83301 -222 -29.5s-112.833 -50.167 -152.5 -91.5s-69 -93.666 -88 -157c-19 -63.333 -28.5 -138.666 -28.5 -226v-573h884v-299h-884v-651c0 -36 -3.16699 -72.167 -9.5 -108.5s-16.333 -70.5 -30 -102.5
s-31.167 -60.667 -52.5 -86s-46.666 -45.333 -75.999 -60h1405v-311h-1962z" />
    <glyph glyph-name="currency" unicode="&#xa4;" horiz-adv-x="2597" 
d="M1810 766c-72 -49.333 -151.5 -87 -238.5 -113s-178.167 -39 -273.5 -39c-96.667 0 -188.167 13 -274.5 39s-166.833 63.667 -241.5 113l-250 -270l-237 237l266 246c-49.333 72 -87.5 151.333 -114.5 238s-40.5 180.667 -40.5 282s13.5 195.166 40.5 281.499
s65.167 164.5 114.5 234.5l-266 250l237 238l250 -271c74.667 48 155.167 85.333 241.5 112s177.833 40 274.5 40c95.333 0 186.5 -13.333 273.5 -40s166.5 -64 238.5 -112l254 271l238 -238l-270 -250c49.333 -70 88.166 -148.167 116.5 -234.5
c28.333 -86.333 42.5 -180.166 42.5 -281.499s-14.167 -195.333 -42.5 -282s-67.166 -166 -116.5 -238l270 -246l-238 -237zM1298 901c84 0 161.333 15.333 232 46s131.667 73 183 127s91.333 117.333 120 190s43 151 43 235s-14.333 162.333 -43 235s-68.667 136 -120 190
s-112.333 96.333 -183 127s-148 46 -232 46s-161.167 -15.333 -231.5 -46s-131.166 -73 -182.499 -127s-91.333 -117.333 -120 -190s-43 -151 -43 -235s14.333 -162.333 43 -235s68.667 -136 120 -190s112.166 -96.333 182.499 -127s147.5 -46 231.5 -46z" />
    <glyph glyph-name="yen" unicode="&#xa5;" horiz-adv-x="2597" 
d="M1487 627l-0.00195312 -627h-377v627h-844v291h844v262l-119 221h-725v291h574l-668 1274h406l577 -1119c26.667 -53.333 52.667 -112.333 78 -177s47 -131.334 65 -200.001c18.667 68.667 40.834 134.834 66.501 198.501s52.834 123.167 81.501 178.5l573 1119h406
l-668 -1274h574v-291h-725l-119 -225v-258h844v-291h-844z" />
    <glyph glyph-name="brokenbar" unicode="&#xa6;" horiz-adv-x="1405" 
d="M553 -381v1356h299v-1356h-299zM553 1749v1356h299v-1356h-299z" />
    <glyph glyph-name="section" unicode="&#xa7;" horiz-adv-x="2597" 
d="M1364 2695c-169.333 0 -297.661 -25.3311 -384.994 -75.998s-131 -123.667 -131 -219c0 -53.333 10 -96.833 30 -130.5s49.167 -62.334 87.5 -86c38.333 -23.667 85.5 -45 141.5 -64l191 -63.5l435 -139c78.667 -25.333 153.167 -54.333 223.5 -87s132 -71.667 185 -117
s95 -98.5 126 -159.5s46.5 -132.5 46.5 -214.5c0 -54 -9.33301 -110 -28 -168s-44.667 -114.167 -78 -168.5s-73.333 -104.833 -120 -151.5s-98.334 -86 -155.001 -118c32 -24.667 60.167 -51.5 84.5 -80.5s44.833 -61.167 61.499 -96.5
c16.667 -35.333 29.334 -74.166 38.001 -116.499s13 -89.166 13 -140.499c0 -98 -20.833 -185.333 -62.5 -262s-102.334 -141.334 -182.001 -194.001s-177.334 -92.834 -293.001 -120.501s-247.834 -41.5 -396.501 -41.5c-72.667 0 -146.5 4.66699 -221.5 14
s-146.167 21.666 -213.5 36.999s-128.833 33.166 -184.5 53.499s-100.5 41.166 -134.5 62.499v320c36.667 -19.333 83 -39 139 -59s117.5 -38 184.5 -54s137.333 -29.167 211 -39.5s146.834 -15.5 219.501 -15.5c84 0 160 5.16699 228 15.5s126.167 27.166 174.5 50.499
s85.5 53.833 111.5 91.5s39 83.5 39 137.5c0 53.333 -10 96.833 -30 130.5s-49.333 62.334 -88 86.001s-85.834 45 -141.501 64l-191.5 63.5l-434 139c-78.667 26 -153.167 55.333 -223.5 88s-132 71.667 -185 117s-95 98.333 -126 159s-46.5 132 -46.5 214
c0 54 9.16699 109.833 27.5 167.5s44.166 113.334 77.499 167.001s73 103.667 119 150s96.667 85.5 152 117.5c-30.667 25.333 -57.834 52.833 -81.501 82.5s-43.667 62.334 -60 98c-16.333 35.667 -28.833 74.667 -37.5 117s-13 89.166 -13 140.5c0 92 18.833 176 56.5 252
s94 141.167 169 195.5s168.5 96.5 280.5 126.5s242.333 45 391 45c72.667 0 144.5 -4.5 215.5 -13.5s138 -21 201 -36s120.333 -32.5 172 -52.5s94.5 -40.667 128.5 -62v-320c-37.333 19.333 -82 38.833 -134 58.5s-109 37.334 -171 53c-62 15.667 -128 28.334 -198 38
c-70 9.66699 -141.333 14.5 -214 14.5zM1409 975.002l159.501 -54.0039c50.333 -17.333 98.166 -36.333 143.499 -57c38 26.667 71.167 56.334 99.5 89.001s51.666 66.667 69.999 102s32.166 71.166 41.499 107.499s14 72.166 14 107.499
c0 48.667 -8.66699 89.834 -26 123.501s-40.666 62.167 -69.999 85.5s-63 42.833 -101 58.5s-77.333 30.167 -118 43.5l-434 139l-162.5 53.5c-50.333 17 -97.166 34.833 -140.499 53.5c-38 -26 -71.167 -55.167 -99.5 -87.5s-51.833 -66.166 -70.5 -101.499
s-32.667 -71.166 -42 -107.499s-14 -71.5 -14 -105.5c0 -49.333 8.83301 -90.666 26.5 -123.999s41 -61.666 70 -84.999s62.5 -42.833 100.5 -58.5s77.667 -30.167 119 -43.5z" />
    <glyph glyph-name="dieresis" unicode="&#xa8;" 
d="M303 2503v409h393v-409h-393zM1098 2503v409h393v-409h-393z" />
    <glyph glyph-name="copyright" unicode="&#xa9;" horiz-adv-x="3547" 
d="M2253 721c-34 -15.333 -68.501 -28.834 -103.501 -40.501s-72.833 -21.5 -113.5 -29.5s-85.334 -14 -134.001 -18s-103.667 -6 -165 -6c-80 0 -153.667 8.83301 -221 26.5s-128.166 43.5 -182.499 77.5s-102 75.833 -143 125.5s-75.333 106.5 -103 170.5
s-48.5 134.833 -62.5 212.5s-21 161.5 -21 251.5c0 84 7.16699 163.333 21.5 238s35.833 143.334 64.5 206.001s64.167 119 106.5 169s91.333 92.333 147 127s118 61.334 187 80.001s144.5 28 226.5 28c51.333 0 99.833 -2.16699 145.5 -6.5s88.334 -10.833 128.001 -19.5
s76.334 -19 110 -31c33.667 -12 64.167 -25.667 91.5 -41v-271c-27.333 14.667 -57.333 27.5 -90 38.5s-68 20.333 -106 28s-78.5 13.5 -121.5 17.5s-88.5 6 -136.5 6c-70.667 0 -133.167 -12.833 -187.5 -38.5s-99.833 -62.667 -136.5 -111
s-64.334 -107.833 -83.001 -178.5s-28 -151 -28 -241c0 -108.667 9.83301 -200.5 29.5 -275.5s48.5 -135.833 86.5 -182.5s84.667 -80.334 140 -101.001s119 -31 191 -31c50 0 95.833 1.83301 137.5 5.5s80.834 9 117.501 16s71.834 16 105.5 27
c33.667 11 67.834 23.5 102.5 37.5v-266zM1774 3015c159.333 0 307 -17.166 443 -51.499s259.333 -83.666 370 -147.999s208.5 -142 293.5 -233s156.333 -193.333 214 -307s101.167 -237.167 130.5 -370.5s44 -274 44 -422s-14.667 -288.667 -44 -422
s-72.833 -256.833 -130.5 -370.5s-129 -216 -214 -307s-182.833 -168.667 -293.5 -233s-234 -113.666 -370 -147.999s-283.667 -51.5 -443 -51.5c-160 0 -308 17.167 -444 51.5s-259.333 83.666 -370 147.999s-208.334 142 -293.001 233s-155.834 193.333 -213.501 307
s-101.167 237.167 -130.5 370.5s-44 274 -44 422s14.667 288.667 44 422s72.833 256.833 130.5 370.499c57.667 113.667 128.834 216 213.501 307s182.334 168.667 293.001 233s234 113.666 370 147.999s284 51.5 444 51.5zM1774 2761c-126 0 -243.333 -14.833 -352 -44.5
s-207.667 -71.667 -297 -126s-168.5 -119.833 -237.5 -196.5s-127.167 -162.334 -174.5 -257c-47.333 -94.667 -83.166 -197.167 -107.499 -307.5s-36.5 -225.833 -36.5 -346.5s12.167 -236.167 36.5 -346.5s60.166 -212.833 107.499 -307.5s105.5 -180.334 174.5 -257.001
s148.167 -142.167 237.5 -196.5s188.166 -96.333 296.499 -126s225.833 -44.5 352.5 -44.5c126 0 243.333 14.833 352 44.5s207.5 71.667 296.5 126s168 119.833 237 196.5s127.167 162.334 174.5 257.001s83.166 197.167 107.5 307.5
c24.333 110.333 36.5 225.833 36.5 346.5s-12.167 236.167 -36.5 346.5s-60.166 212.833 -107.499 307.5s-105.5 180.334 -174.5 257c-69 76.667 -148 142.167 -237 196.5s-187.833 96.333 -296.5 126s-226 44.5 -352 44.5z" />
    <glyph glyph-name="ordfeminine" unicode="&#xaa;" horiz-adv-x="1970" 
d="M1389 1270l-25 139.002c-34.667 -28 -71.667 -53 -111 -75s-81 -40.833 -125 -56.5s-90.333 -27.667 -139 -36s-99.667 -12.5 -153 -12.5c-87.333 0 -166.333 11.167 -237 33.5s-131 54.166 -181 95.499s-88.5 91.5 -115.5 150.5s-40.5 125.5 -40.5 199.5
c0 60.667 9 116.167 27 166.5s44.667 95.666 80 135.999s79.166 75.333 131.499 105s112.5 54.5 180.5 74.5s144 34.833 228 44.5s175.667 14.5 275 14.5h85h91v102c0 67.333 -7.66699 124.833 -23 172.5s-39.666 86.667 -72.999 117s-76.166 52.5 -128.499 66.5
s-115.5 21 -189.5 21c-58 0 -114.167 -3.66699 -168.5 -11s-105.5 -17 -153.5 -29s-92.167 -25.333 -132.5 -40s-75.833 -29 -106.5 -43v246c36 18.667 76 36.334 120 53c44 16.667 91.167 31.334 141.5 44c50.333 12.667 103.5 22.834 159.5 30.5
c56 7.66699 113.667 11.5 173 11.5c101.333 0 193.666 -10.167 276.999 -30.5s154.833 -53.833 214.5 -100.5s106 -107.834 139 -183.5c33 -75.667 49.5 -168.834 49.5 -279.5v-1126h-270zM246 475.002v295h1446v-295h-1446zM1360 2023l-131.001 0.000976562
c-118 0 -218.667 -6.33301 -302 -19s-151.5 -31.834 -204.5 -57.501s-91.833 -57.667 -116.5 -96s-37 -83.166 -37 -134.499c0 -38.667 6.83301 -72.5 20.5 -101.5s34.334 -53.333 62.001 -73s62 -34.334 103 -44.001s88.5 -14.5 142.5 -14.5c44 0 86.167 2.5 126.5 7.5
s79.5 12.833 117.5 23.5s75 24 111 40s72 34.667 108 56v413z" />
    <glyph glyph-name="guillemotleft" unicode="&#xab;" horiz-adv-x="2384" 
d="M954 467l-675 762l675 762h340l-594 -762l594 -762h-340zM1765 467l-675 762l675 762h340l-594 -762l594 -762h-340z" />
    <glyph glyph-name="logicalnot" unicode="&#xac;" horiz-adv-x="2408" 
d="M1884 504v569h-1687v295h2015v-864h-328z" />
    <glyph glyph-name="uni00AD" unicode="&#xad;" horiz-adv-x="1491" 
d="M225 1044v369h1041v-369h-1041z" />
    <glyph glyph-name="registered" unicode="&#xae;" horiz-adv-x="2712" 
d="M2462 2056c0 -108 -13.333 -210 -40 -306s-64 -184.667 -112 -266s-105.833 -154.5 -173.5 -219.5s-142.5 -120.167 -224.5 -165.5s-170 -80.166 -264 -104.499s-191.333 -36.5 -292 -36.5s-198 12.167 -292 36.5s-182 59.166 -264 104.499s-156.833 100.5 -224.5 165.5
s-125.5 138.167 -173.5 219.5s-85.333 170 -112 266s-40 198 -40 306s13.333 210 40 306s64 184.667 112 266s105.833 154.5 173.5 219.5s142.5 120.167 224.5 165.5s169.833 80.166 263.5 104.5c93.667 24.333 191.167 36.5 292.5 36.5c100.667 0 198 -12.167 292 -36.5
s182 -59.166 264 -104.5c82 -45.333 156.833 -100.5 224.5 -165.5s125.5 -138.167 173.5 -219.5s85.333 -170 112 -266s40 -198 40 -306zM1356 1143c84 0 163.999 10.833 239.999 32.5s146.667 52.334 212 92.001s124.333 87.334 177 143.001
s97.667 117.334 135.001 185.001c37.333 67.667 66 140.334 86 218.001s30 158.5 30 242.5s-10 164.833 -30 242.5s-48.667 150.5 -86 218.5s-82.333 129.667 -135 185s-111.667 103 -177 143s-136 70.833 -212 92.5s-156 32.5 -240 32.5s-164.167 -10.833 -240.5 -32.5
s-147 -52.5 -212 -92.5s-124 -87.667 -177 -143s-98 -117 -135 -185s-65.667 -140.833 -86 -218.5s-30.5 -158.5 -30.5 -242.5s10.167 -164.833 30.5 -242.5s49 -150.334 86 -218.001s82 -129.334 135 -185.001s112 -103.334 177 -143.001s135.667 -70.334 212 -92.001
s156.5 -32.5 240.5 -32.5zM1659 1470l-241.999 381.001c-11.333 19.333 -22.333 34.666 -33 45.999s-21.834 20 -33.501 26s-24.334 9.83301 -38.001 11.5s-29.167 2.5 -46.5 2.5h-123v-467h-234v1192h447c67.333 0 129.333 -6.83301 186 -20.5s105.5 -34.667 146.5 -63
s73 -64.333 96 -108s34.5 -95.834 34.5 -156.5c0 -51.333 -6.83301 -95.833 -20.5 -133.5s-32.167 -69.667 -55.5 -96s-51.166 -47.5 -83.499 -63.5s-66.833 -27.333 -103.5 -34c16.667 -8.66699 32.5 -21 47.5 -37s30.833 -35.333 47.5 -58l266 -422h-258zM1327 2122
c40 0 75.667 3.50098 107 10.501s58 18.167 80 33.5s38.667 35.166 50 59.499s17 53.833 17 88.5c0 53.333 -19.5 94 -58.5 122s-101.5 42 -187.5 42h-192v-356h184z" />
    <glyph glyph-name="macron" unicode="&#xaf;" 
d="M344 2503v311h1106v-311h-1106z" />
    <glyph glyph-name="degree" unicode="&#xb0;" horiz-adv-x="1802" 
d="M1622 2302c0 -64.667 -8.33301 -126.667 -25 -186s-40.334 -114.5 -71.001 -165.5s-67.667 -97.167 -111 -138.5s-91.666 -76.666 -144.999 -105.999s-111.166 -52 -173.499 -68s-127.5 -24 -195.5 -24s-133.167 8 -195.5 24s-120.166 38.667 -173.499 68
s-101.666 64.666 -144.999 105.999s-80.333 87.5 -111 138.5s-54.334 106.167 -71.001 165.5s-25 121.333 -25 186s8.33301 126.667 25 186s40.334 114.5 71.001 165.5s67.667 97.167 111 138.5s91.666 76.666 144.999 106c53.333 29.333 111.166 52 173.499 68
s127.5 24 195.5 24s133.167 -8 195.5 -24s120.166 -38.667 173.499 -68s101.666 -64.666 144.999 -106c43.333 -41.333 80.333 -87.5 111 -138.5s54.334 -106.167 71.001 -165.5s25 -121.333 25 -186zM901 1888c65.333 0 123.5 11 174.5 33s94 51.833 129 89.5
s61.5 81.667 79.5 132s27 103.5 27 159.5c0 53.333 -9 104.833 -27 154.5s-44.5 93.834 -79.5 132.5c-35 38.667 -78 69.5 -129 92.5s-109.167 34.5 -174.5 34.5s-123.5 -11.5 -174.5 -34.5s-93.833 -53.833 -128.5 -92.5s-61 -82.834 -79 -132.5
c-18 -49.667 -27 -101.167 -27 -154.5c0 -56 9 -109.167 27 -159.5s44.333 -94.333 79 -132s77.5 -67.5 128.5 -89.5s109.167 -33 174.5 -33z" />
    <glyph glyph-name="plusminus" unicode="&#xb1;" horiz-adv-x="2408" 
d="M1368 1389v-766h-328v766h-823v294h823v750h328v-750h823v-294h-823zM217 0v295h1974v-295h-1974z" />
    <glyph glyph-name="twosuperior" unicode="&#xb2;" horiz-adv-x="1651" 
d="M205 1503l0.00195312 217l373 307c78.667 64.667 147 124 205 178s106 105 144 153s66.333 94 85 138s28 88.667 28 134c0 38 -6.33301 72.5 -19 103.5s-32.334 57.667 -59.001 80s-61 39.666 -103 52c-42 12.333 -92 18.5 -150 18.5c-45.333 0 -89.833 -3 -133.5 -9
s-85.5 -14 -125.5 -24s-77.5 -21.167 -112.5 -33.5s-66.833 -24.5 -95.5 -36.5v242c25.333 14 54.666 27.5 87.999 40.5s70.333 24.333 111 34s85 17.334 133 23c48 5.66699 99.667 8.5 155 8.5c74.667 0 141.667 -5.83301 201 -17.5s112 -28 158 -49
s85.333 -46.333 118 -76s59.5 -62.5 80.5 -98.5s36.5 -74.833 46.5 -116.5s15 -84.834 15 -129.5c0 -52 -7.5 -102.167 -22.5 -150.5s-35.667 -95.166 -62 -140.5c-26.333 -45.333 -57.833 -89.333 -94.5 -132s-76.5 -84.334 -119.5 -125
c-43 -40.667 -88.5 -80.5 -136.5 -119.5l-147 -114.5l-160 -119h811v-238h-1212z" />
    <glyph glyph-name="threesuperior" unicode="&#xb3;" horiz-adv-x="1651" 
d="M242 1810c27.333 -12 59.667 -23.5 97 -34.5s77.333 -20.667 120 -29s87 -14.833 133 -19.5s91.667 -7 137 -7c59.333 0 111.5 5.66699 156.5 17s82.667 27.333 113 48s53.166 45.667 68.499 75s23 62 23 98c0 38.667 -8 73.667 -24 105s-40.5 58 -73.5 80
s-74.333 39 -124 51s-108.5 18 -176.5 18h-184v246h184c52 0 100 4.16699 144 12.5s81.667 21.333 113 39s55.833 40.167 73.5 67.5s26.5 60 26.5 98c0 38.667 -8.5 71.5 -25.5 98.5s-40 49 -69 66s-62.833 29.333 -101.5 37s-80 11.5 -124 11.5s-87 -2.66699 -129 -8
s-82 -12.333 -120 -21s-73.667 -18.667 -107 -30s-63.333 -23.333 -90 -36v242c24.667 13.333 55 25.666 91 37c36 11.333 74.833 21.333 116.5 30s84.834 15.334 129.501 20c44.667 4.66699 88 7 130 7c98 0 184.833 -9.83301 260.5 -29.5s139 -47.834 190 -84.5
c51 -36.667 89.667 -81 116 -133s39.5 -110.333 39.5 -175c0 -44 -5.5 -84.167 -16.5 -120.5s-26.833 -69.5 -47.5 -99.5s-46 -56.833 -76 -80.5s-64 -44.834 -102 -63.5c47.333 -19.333 88.666 -42 123.999 -68s64.833 -55.333 88.5 -88s41.334 -69 53.001 -109
s17.5 -84 17.5 -132c0 -70 -14 -133.667 -42 -191s-69.167 -106.5 -123.5 -147.5s-121.5 -72.667 -201.5 -95s-172 -33.5 -276 -33.5c-55.333 0 -108.333 2 -159 6s-98 9.83301 -142 17.5s-83.833 17 -119.5 28s-66.167 23.833 -91.5 38.5v241z" />
    <glyph glyph-name="acute" unicode="&#xb4;" 
d="M455 2408l393 574h475l-545 -574h-323z" />
    <glyph glyph-name="mu" unicode="&#xb5;" horiz-adv-x="2507" 
d="M1110 -49c-76.667 0 -147.332 7 -211.999 21s-123.667 34.333 -177 61c8 -56 13.333 -116.667 16 -182s4 -133 4 -203v-582h-360v3035h360v-1413c0 -76.667 9.33301 -142.5 28 -197.5s46.5 -100 83.5 -135s82.833 -60.667 137.5 -77s118 -24.5 190 -24.5
c52 0 101.833 3.16699 149.5 9.5s93.834 16.166 138.501 29.499s88.5 30.333 131.5 51s86.167 45.334 129.5 74.001v1683h360v-1601c0 -35.333 2.33301 -66 7 -92s12.667 -47.667 24 -65s26.333 -30.333 45 -39s42.334 -13 71 -13c35.333 0 68.166 1.33301 98.5 4
c30.333 2.66699 63.166 8 98.499 16v-291c-41.333 -14 -85.5 -25 -132.5 -33s-98.5 -12 -154.5 -12c-41.333 0 -80.833 4.66699 -118.5 14s-72.5 23.333 -104.5 42s-60.833 42.167 -86.5 70.5s-46.5 61.5 -62.5 99.5c-43.333 -38 -89.333 -72.333 -138 -103
s-100.5 -57 -155.5 -79s-113.333 -38.833 -175 -50.5s-126.834 -17.5 -195.501 -17.5z" />
    <glyph glyph-name="paragraph" unicode="&#xb6;" horiz-adv-x="3170" 
d="M2208 -934v3502h-365v-3502h-454v2204h-5c-132 0 -250.5 10 -355.5 30s-197.5 48.167 -277.5 84.5s-148.333 80 -205 131s-103 108 -139 171s-62.333 130.833 -79 203.5s-25 148.667 -25 228s8.16699 155.333 24.5 228s42.5 140.334 78.5 203
c36 62.667 82.333 119.667 139 171s125.167 95.166 205.5 131.5c80.333 36.333 173.333 64.5 279 84.5s225.5 30 359.5 30h1273v-3900h-454z" />
    <glyph glyph-name="periodcentered" unicode="&#xb7;" horiz-adv-x="1397" 
d="M471 999v446h455v-446h-455z" />
    <glyph glyph-name="cedilla" unicode="&#xb8;" 
d="M573 -602c27.333 -6 55.499 -11.002 84.499 -15.002s65.167 -6 108.5 -6c23.333 0 47 2.33301 71 7s45.667 12.334 65 23.001s35 25 47 43s18 40.333 18 67c0 28.667 -8.5 53.834 -25.5 75.501s-39 40.5 -66 56.5s-57.667 29.167 -92 39.5s-68.833 18.5 -103.5 24.5
l197 328h217l-115 -238c38 -9.33301 73.167 -22.333 105.5 -39s60.333 -36.667 84 -60s42.334 -50 56.001 -80s20.5 -63 20.5 -99c0 -62.667 -12.667 -116.667 -38 -162s-59 -82.833 -101 -112.5s-90 -51.5 -144 -65.5s-109.667 -21 -167 -21
c-41.333 0 -80.333 2.83301 -117 8.5s-71.667 12.5 -105 20.5v205z" />
    <glyph glyph-name="onesuperior" unicode="&#xb9;" horiz-adv-x="1651" 
d="M324 1503v246h372v1081l-372 -73v245l483 103h188v-1356h373v-246h-1044z" />
    <glyph glyph-name="ordmasculine" unicode="&#xba;" horiz-adv-x="2220" 
d="M1110 1229c-98.667 0 -187.334 10.333 -266.001 31s-148 49.834 -208 87.501s-111.333 83 -154 136s-77.5 112.167 -104.5 177.5s-46.833 135.666 -59.5 210.999s-19 154.333 -19 237c0 124 15.5 239.667 46.5 347s79.5 200.5 145.5 279.5s150.167 141.167 252.5 186.5
s224.5 68 366.5 68c99.333 0 188.5 -10.333 267.5 -31s148.5 -49.834 208.5 -87.5c60 -37.667 111.167 -83 153.5 -136s77 -112.167 104 -177.5s46.667 -135.833 59 -211.5s18.5 -154.834 18.5 -237.5c0 -82.667 -6.83301 -161.667 -20.5 -237
s-34.5 -145.666 -62.5 -210.999s-63.833 -124.5 -107.5 -177.5s-95.5 -98.333 -155.5 -136s-128.667 -66.834 -206 -87.501s-163.666 -31 -258.999 -31zM1110 1483c93.333 0 171.833 15.333 235.5 46s115.167 73.667 154.5 129s67.5 121.333 84.5 198s25.5 161 25.5 253
s-8.5 176.833 -25.5 254.5s-45.167 144.667 -84.5 201s-90.833 100.333 -154.5 132s-142.167 47.5 -235.5 47.5c-92 0 -170 -15.833 -234 -47.5s-116 -75.667 -156 -132s-69 -123.333 -87 -201s-27 -162.5 -27 -254.5s9 -176.333 27 -253s47 -142.667 87 -198
s92 -98.333 156 -129s142 -46 234 -46zM279 475v295h1663v-295h-1663z" />
    <glyph glyph-name="guillemotright" unicode="&#xbb;" horiz-adv-x="2384" 
d="M279 467l593 762l-593 762h339l676 -762l-676 -762h-339zM1090 467l593 762l-593 762h339l676 -762l-676 -762h-339z" />
    <glyph glyph-name="onequarter" unicode="&#xbc;" horiz-adv-x="3928" 
d="M979 0l1663 2966h307l-1658 -2966h-312zM324 1364v246h372v1081l-372 -73v245l483 103h188v-1356h373v-246h-1044zM3223 0v324h-844v196l852 1082h279v-1049h287v-229h-287v-324h-287zM3223 971c0 51.333 0.333008 98.499 1 141.499s3 83.167 7 120.5
c-18 -32.667 -38.667 -67.167 -62 -103.5s-50.333 -74.166 -81 -113.499l-377 -463h512v418z" />
    <glyph glyph-name="onehalf" unicode="&#xbd;" horiz-adv-x="3928" 
d="M324 1364v246h372v1081l-372 -73v245l483 103h188v-1356h373v-246h-1044zM979 0l1663 2966h307l-1658 -2966h-312zM2482 0v217.001l373 307c78.667 64.667 147 124 205 178s106 105 144 153s66.333 94 85 138s28 88.667 28 134c0 38 -6.33301 72.5 -19 103.5
s-32.334 57.667 -59 80c-26.667 22.333 -61 39.666 -103 51.999s-92 18.5 -150 18.5c-45.333 0 -89.833 -3 -133.5 -9s-85.5 -14 -125.5 -24s-77.5 -21.167 -112.5 -33.5s-66.833 -24.5 -95.5 -36.5v242c25.333 14 54.666 27.5 88 40.5c33.333 13 70.333 24.333 111 34
s85 17.334 133 23.001s99.667 8.5 155 8.5c74.667 0 141.667 -5.83301 201 -17.5s112 -28 158 -49s85.333 -46.333 118 -76s59.5 -62.5 80.5 -98.5s36.5 -74.833 46.5 -116.5s15 -84.834 15 -129.501c0 -52 -7.5 -102.167 -22.5 -150.5s-35.667 -95.166 -62 -140.499
s-57.833 -89.333 -94.5 -132s-76.5 -84.334 -119.5 -125.001s-88.5 -80.5 -136.5 -119.5l-147 -114.5l-160 -119h811v-238h-1212z" />
    <glyph glyph-name="threequarters" unicode="&#xbe;" horiz-adv-x="3928" 
d="M979 0l1663 2966h307l-1658 -2966h-312zM242 1671c27.333 -12 59.667 -23.5 97 -34.5s77.333 -20.667 120 -29s87 -14.833 133 -19.5s91.667 -7 137 -7c59.333 0 111.5 5.66699 156.5 17s82.667 27.333 113 48s53.166 45.667 68.499 75s23 62 23 98
c0 38.667 -8 73.667 -24 105s-40.5 58 -73.5 80s-74.333 39 -124 51s-108.5 18 -176.5 18h-184v246h184c52 0 100 4.16699 144 12.5s81.667 21.333 113 39s55.833 40.167 73.5 67.5s26.5 60 26.5 98c0 38.667 -8.5 71.5 -25.5 98.5s-40 49 -69 66s-62.833 29.333 -101.5 37
s-80 11.5 -124 11.5s-87 -2.66699 -129 -8s-82 -12.333 -120 -21s-73.667 -18.667 -107 -30s-63.333 -23.333 -90 -36v242c24.667 13.333 55 25.666 91 37c36 11.333 74.833 21.333 116.5 30s84.834 15.334 129.501 20c44.667 4.66699 88 7 130 7
c98 0 184.833 -9.83301 260.5 -29.5s139 -47.834 190 -84.5c51 -36.667 89.667 -81 116 -133s39.5 -110.333 39.5 -175c0 -44 -5.5 -84.167 -16.5 -120.5s-26.833 -69.5 -47.5 -99.5s-46 -56.833 -76 -80.5s-64 -44.834 -102 -63.5c47.333 -19.333 88.666 -42 123.999 -68
s64.833 -55.333 88.5 -88s41.334 -69 53.001 -109s17.5 -84 17.5 -132c0 -70 -14 -133.667 -42 -191s-69.167 -106.5 -123.5 -147.5s-121.5 -72.667 -201.5 -95s-172 -33.5 -276 -33.5c-55.333 0 -108.333 2 -159 6s-98 9.83301 -142 17.5s-83.833 17 -119.5 28
s-66.167 23.833 -91.5 38.5v241zM3223 0v324h-844v196l852 1082h279v-1049h287v-229h-287v-324h-287zM3223 971c0 51.333 0.333008 98.499 1 141.499s3 83.167 7 120.5c-18 -32.667 -38.667 -67.167 -62 -103.5s-50.333 -74.166 -81 -113.499l-377 -463h512v418z" />
    <glyph glyph-name="questiondown" unicode="&#xbf;" horiz-adv-x="2097" 
d="M1847 -737c-46 -28 -97.167 -52.8359 -153.5 -74.5029s-117.166 -40 -182.499 -55s-134.666 -26.5 -207.999 -34.5s-150 -12 -230 -12c-58.667 0 -119 4.83301 -181 14.5s-122.5 24.834 -181.5 45.501s-114.5 47.167 -166.5 79.5s-97.667 71.333 -137 117
s-70.5 98 -93.5 157s-34.5 125.833 -34.5 200.5c0 71.333 8 138.833 24 202.5s37.667 124 65 181s59.166 111 95.499 162s74.666 99.833 114.999 146.5s81.5 91.334 123.5 134.001l121 124l267 271l24 364h283l37 -459l-308 -344l-169.5 -186
c-55 -58.667 -103.833 -117 -146.5 -175s-77 -116.833 -103 -176.5s-39 -123.5 -39 -191.5c0 -55.333 12.167 -103.666 36.5 -144.999s57.666 -75.833 99.999 -103.5s91.833 -48.5 148.5 -62.5s117.334 -21 182.001 -21c68.667 0 135 4 199 12s125.667 19.5 185 34.5
s116.333 33 171 54s107 44.833 157 71.5v-331zM1036 1655v446h455v-446h-455z" />
    <glyph glyph-name="Agrave" unicode="&#xc0;" horiz-adv-x="2671" 
d="M2191 0l-254 758h-1224l-254 -758h-381l1052 2966h402l1061 -2966h-402zM1430 2269c-20.667 58 -40.332 119.167 -58.999 183.5s-33.334 131.5 -44.001 201.5c-12 -70 -28.167 -137.167 -48.5 -201.5l-57.5 -183.5l-402 -1188h1008zM1188 3162l-549 574h483l393 -574
h-327z" />
    <glyph glyph-name="Aacute" unicode="&#xc1;" horiz-adv-x="2671" 
d="M2191 0l-254 758h-1224l-254 -758h-381l1052 2966h402l1061 -2966h-402zM1430 2269c-20.667 58 -40.332 119.167 -58.999 183.5s-33.334 131.5 -44.001 201.5c-12 -70 -28.167 -137.167 -48.5 -201.5l-57.5 -183.5l-402 -1188h1008zM1160 3162l393 574h475l-545 -574
h-323z" />
    <glyph glyph-name="Acircumflex" unicode="&#xc2;" horiz-adv-x="2671" 
d="M2191 0l-254 758h-1224l-254 -758h-381l1052 2966h402l1061 -2966h-402zM1430 2269c-20.667 58 -40.332 119.167 -58.999 183.5s-33.334 131.5 -44.001 201.5c-12 -70 -28.167 -137.167 -48.5 -201.5l-57.5 -183.5l-402 -1188h1008zM1614 3162l-281 329l-281 -329h-327
l393 574h430l393 -574h-327z" />
    <glyph glyph-name="Atilde" unicode="&#xc3;" horiz-adv-x="2671" 
d="M2191 0l-254 758h-1224l-254 -758h-381l1052 2966h402l1061 -2966h-402zM1430 2269c-20.667 58 -40.332 119.167 -58.999 183.5s-33.334 131.5 -44.001 201.5c-12 -70 -28.167 -137.167 -48.5 -201.5l-57.5 -183.5l-402 -1188h1008zM2056 3683
c0 -78 -10.6641 -148.167 -31.9971 -210.5s-50.833 -115.166 -88.5 -158.5c-37.667 -43.333 -82.167 -76.666 -133.5 -100c-51.333 -23.333 -107.333 -35 -168 -35c-38 0 -74 5 -108 15s-66.167 22.667 -96.5 38s-59.333 31.833 -87 49.5l-80 49.5
c-25.667 15.333 -50.334 28 -74.001 38s-47.167 15 -70.5 15c-32 0 -58.667 -5.5 -80 -16.5s-39 -25.667 -53 -44s-24.667 -39.333 -32 -63s-12.333 -48.167 -15 -73.5h-250c0 78 10.167 148 30.5 210s49 114.833 86 158.5s81.167 77.167 132.5 100.5s107.666 35 168.999 35
c37.333 0 73 -5 107 -15s66.333 -22.667 97 -38s60 -31.833 88 -49.5l81 -49.5c26 -15.333 51.167 -28 75.5 -38s48.166 -15 71.499 -15c32 0 58.667 5.5 80 16.5s39 25.5 53 43.5s24.5 38.833 31.5 62.5s12.167 48.5 15.5 74.5h250z" />
    <glyph glyph-name="Adieresis" unicode="&#xc4;" horiz-adv-x="2671" 
d="M2191 0l-254 758h-1224l-254 -758h-381l1052 2966h402l1061 -2966h-402zM1430 2269c-20.667 58 -40.332 119.167 -58.999 183.5s-33.334 131.5 -44.001 201.5c-12 -70 -28.167 -137.167 -48.5 -201.5l-57.5 -183.5l-402 -1188h1008zM741.002 3257v409h393v-409h-393z
M1536 3257v409h393v-409h-393z" />
    <glyph glyph-name="Aring" unicode="&#xc5;" horiz-adv-x="2671" 
d="M2191 0l-254 758h-1224l-254 -758h-381l1052 2966h402l1061 -2966h-402zM1430 2269c-20.667 58 -40.332 119.167 -58.999 183.5s-33.334 131.5 -44.001 201.5c-12 -70 -28.167 -137.167 -48.5 -201.5l-57.5 -183.5l-402 -1188h1008zM1790 3580
c0 -61.333 -11.667 -118.5 -35 -171.5s-55.333 -99 -96 -138s-88.667 -69.5 -144 -91.5s-115.333 -33 -180 -33s-124.667 11 -180 33s-103.333 52.5 -144 91.5s-72.667 85 -96 138s-35 110.167 -35 171.5s11.667 118.5 35 171.5s55.333 99 96 138s88.667 69.5 144 91.5
s115.333 33 180 33s124.667 -11 180 -33s103.333 -52.5 144 -91.5s72.667 -85 96 -138s35 -110.167 35 -171.5zM1335 3355c32.667 0 62.834 6 90.501 18s51.5 28.167 71.5 48.5s35.5 44.166 46.5 71.5c11 27.333 16.5 56.333 16.5 87c0 30 -5.5 58.5 -16.5 85.5
s-26.5 51 -46.5 72s-43.833 37.667 -71.5 50s-57.834 18.5 -90.501 18.5s-62.834 -6.16699 -90.501 -18.5s-51.5 -29 -71.5 -50s-35.5 -45 -46.5 -72s-16.5 -55.5 -16.5 -85.5c0 -30.667 5.5 -59.667 16.5 -87s26.5 -51.166 46.5 -71.5c20 -20.333 43.833 -36.5 71.5 -48.5
s57.834 -18 90.501 -18z" />
    <glyph glyph-name="AE" unicode="&#xc6;" horiz-adv-x="3781" 
d="M1815 0v758h-1045l-311 -758h-381l1245 2966h2273v-312h-1405v-983h1200v-311h-1200v-1049h1405v-311h-1781zM1815 2654h-267l-647 -1573h914v1573z" />
    <glyph glyph-name="Ccedilla" unicode="&#xc7;" horiz-adv-x="2454" 
d="M1094 -602c26.667 -6 54.502 -11.0039 83.502 -15.0039s65.167 -6 108.5 -6c23.333 0 47 2.33301 71 7s45.667 12.334 65 23.001s35 25 47 43s18 40.333 18 67c0 28.667 -8.5 53.834 -25.5 75.501s-39 40.5 -66 56.5s-57.667 29.167 -92 39.5s-68.833 18.5 -103.5 24.5
l143 242c-115.333 8 -222.333 29.333 -321 64s-188.334 82 -269.001 142s-152 132.833 -214 218.5s-114.167 184 -156.5 295s-74.333 234.167 -96 369.5s-32.5 283 -32.5 443c0 150.667 10.833 293.167 32.5 427.5s54.5 258 98.5 371s99.333 214.667 166 305
s145 166.833 235 229.5s191.5 110.834 304.5 144.5c113 33.667 238.167 50.5 375.5 50.5c76.667 0 151.834 -3.83301 225.501 -11.5s143.5 -18.5 209.5 -32.5s127.167 -31.167 183.5 -51.5s105.5 -43.166 147.5 -68.5v-328c-43.333 22.667 -92.666 43.5 -147.999 62.5
s-115 35.5 -179 49.5s-131.667 24.833 -203 32.5s-144.333 11.5 -219 11.5c-98 0 -187 -12.167 -267 -36.5s-151.333 -60 -214 -107s-116.834 -104.667 -162.501 -173s-83.334 -146.666 -113.001 -234.999s-51.667 -186.166 -66 -293.499s-21.5 -223 -21.5 -347
c0 -139.333 9.16699 -266 27.5 -380s45 -215.667 80 -305s77.833 -166.833 128.5 -232.5s108.167 -120 172.5 -163s135 -75 212 -96s159.5 -31.5 247.5 -31.5c80 0 154.5 3 223.5 9s134.167 14.833 195.5 26.5s119.833 26.167 175.5 43.5s110.167 37.333 163.5 60v-320
c-30.667 -14 -62 -27.167 -94 -39.5s-65.167 -23.666 -99.5 -33.999s-70 -19.5 -107 -27.5s-76.167 -14.833 -117.5 -20.5s-85 -10.334 -131 -14.001s-95 -6.16699 -147 -7.5l-70 -152c38 -9.33301 73.167 -22.333 105.5 -39s60.5 -36.667 84.5 -60s42.667 -50 56 -80
s20 -63 20 -99c0 -62.667 -12.667 -116.667 -38 -162s-59 -82.833 -101 -112.5s-90 -51.5 -144 -65.5s-109.667 -21 -167 -21c-41.333 0 -80.333 2.83301 -117 8.5s-71.334 12.5 -104.001 20.5v205z" />
    <glyph glyph-name="Egrave" unicode="&#xc8;" horiz-adv-x="2380" 
d="M414 0v2966h1781v-312h-1404v-983h1200v-311h-1200v-1049h1404v-311h-1781zM1147 3162l-549 574h483l393 -574h-327z" />
    <glyph glyph-name="Eacute" unicode="&#xc9;" horiz-adv-x="2380" 
d="M414 0v2966h1781v-312h-1404v-983h1200v-311h-1200v-1049h1404v-311h-1781zM1119 3162l393 574h475l-545 -574h-323z" />
    <glyph glyph-name="Ecircumflex" unicode="&#xca;" horiz-adv-x="2380" 
d="M414 0v2966h1781v-312h-1404v-983h1200v-311h-1200v-1049h1404v-311h-1781zM1573 3162l-281 329l-281 -329h-327l393 574h430l393 -574h-327z" />
    <glyph glyph-name="Edieresis" unicode="&#xcb;" horiz-adv-x="2380" 
d="M414 0v2966h1781v-312h-1404v-983h1200v-311h-1200v-1049h1404v-311h-1781zM700 3257v409h393v-409h-393zM1495 3257v409h393v-409h-393z" />
    <glyph glyph-name="Igrave" unicode="&#xcc;" horiz-adv-x="1671" 
d="M270 0v291h377v2384h-377v291h1131v-291h-377v-2384h377v-291h-1131zM690 3162l-549 574h483l393 -574h-327z" />
    <glyph glyph-name="Iacute" unicode="&#xcd;" horiz-adv-x="1671" 
d="M270 0v291h377v2384h-377v291h1131v-291h-377v-2384h377v-291h-1131zM660 3162l393 574h475l-545 -574h-323z" />
    <glyph glyph-name="Icircumflex" unicode="&#xce;" horiz-adv-x="1671" 
d="M270 0v291h377v2384h-377v291h1131v-291h-377v-2384h377v-291h-1131zM1116 3162l-281 329l-281 -329h-327l393 574h430l393 -574h-327z" />
    <glyph glyph-name="Idieresis" unicode="&#xcf;" horiz-adv-x="1671" 
d="M270 0v291h377v2384h-377v291h1131v-291h-377v-2384h377v-291h-1131zM243 3257v409h393v-409h-393zM1038 3257v409h393v-409h-393z" />
    <glyph glyph-name="Eth" unicode="&#xd0;" horiz-adv-x="2908" 
d="M455 0v1323h-279v295h279v1348h909c162 0 305.833 -17 431.5 -51s235.667 -82.333 330 -145s174.166 -138.334 239.5 -227c65.333 -88.667 118.166 -187.834 158.5 -297.5c40.333 -109.667 69.5 -228.334 87.5 -356.001s27 -261.834 27 -402.501
c0 -141.333 -9.16699 -276.166 -27.5 -404.499s-48.166 -247.666 -89.5 -357.999c-41.333 -110.333 -95.5 -210 -162.5 -299s-148.667 -165 -245 -228s-208.833 -111.667 -337.5 -146s-275.667 -51.5 -441 -51.5h-880zM1307 303c112.667 0 214.167 11.5 304.5 34.5
s170.333 57 240 102s129.5 100.833 179.5 167.5s91.167 143.5 123.5 230.5s56.166 184 71.5 291c15.333 107 23 223.833 23 350.5s-7.33301 244 -22 352s-37.834 205.833 -69.5 293.5c-31.667 87.667 -72.167 165 -121.5 232s-109 123.167 -179 168.5
s-150.5 79.5 -241.5 102.5s-193.833 34.5 -308.5 34.5h-476v-1044h664v-295h-664v-1020h476z" />
    <glyph glyph-name="Ntilde" unicode="&#xd1;" horiz-adv-x="3043" 
d="M2232 0l-1228 1995c-41.333 66 -84 140.167 -128 222.5s-83.333 167.833 -118 256.5c4 -41.333 7.5 -83.5 10.5 -126.5s5.5 -85.333 7.5 -127s3.5 -81.667 4.5 -120s1.5 -73.5 1.5 -105.5v-1995h-368v2966h401l1229 -1995l60 -104.5l62.5 -115.5
c21 -40 41.5 -81.167 61.5 -123.5l58 -127.5c-4 40 -7.66699 81 -11 123s-6 83.5 -8 124.5s-3.5 80.5 -4.5 118.5s-1.5 73 -1.5 105v1995h369v-2966h-398zM2220 3683c0 -78 -10.6641 -148.167 -31.9971 -210.5s-50.833 -115.166 -88.5 -158.5
c-37.667 -43.333 -82.167 -76.666 -133.5 -100c-51.333 -23.333 -107.333 -35 -168 -35c-38 0 -74 5 -108 15s-66.167 22.667 -96.5 38s-59.333 31.833 -87 49.5l-80 49.5c-25.667 15.333 -50.334 28 -74.001 38s-47.167 15 -70.5 15c-32 0 -58.667 -5.5 -80 -16.5
s-39 -25.667 -53 -44s-24.667 -39.333 -32 -63s-12.333 -48.167 -15 -73.5h-250c0 78 10.167 148 30.5 210s49 114.833 86 158.5s81.167 77.167 132.5 100.5s107.666 35 168.999 35c37.333 0 73 -5 107 -15s66.333 -22.667 97 -38s60 -31.833 88 -49.5l81 -49.5
c26 -15.333 51.167 -28 75.5 -38s48.166 -15 71.499 -15c32 0 58.667 5.5 80 16.5s39 25.5 53 43.5s24.5 38.833 31.5 62.5s12.167 48.5 15.5 74.5h250z" />
    <glyph glyph-name="Ograve" unicode="&#xd2;" horiz-adv-x="2920" 
d="M1454 -49c-147.333 0 -278.999 17.3311 -394.999 51.998s-218 84.167 -306 148.5s-162.833 142.166 -224.5 233.499s-112 193.5 -151 306.5s-67.333 235.833 -85 368.5s-26.5 272.334 -26.5 419.001c0 147.333 9 287.5 27 420.5s46.5 256.5 85.5 370.5
s89.667 216.833 152 308.5s137.833 169.834 226.5 234.5c88.667 64.667 191.334 114.5 308.001 149.5s249 52.5 397 52.5c147.333 0 279.166 -17.333 395.499 -52s218.666 -84.167 306.999 -148.5s163.5 -142.166 225.5 -233.5c62 -91.333 112.5 -193.666 151.5 -307
c39 -113.333 67.5 -236.166 85.5 -368.499s27 -271.833 27 -418.5c0 -147.333 -9 -287.666 -27 -420.999s-46.833 -256.833 -86.5 -370.5s-90.667 -216.5 -153 -308.5s-138 -170.167 -227 -234.5s-192 -114 -309 -149s-249.5 -52.5 -397.5 -52.5zM1462 269.998
c98.667 0 186.834 13.667 264.501 41s146 66.333 205 117s109.333 112 151 184s75.834 153 102.5 243c26.667 90 46 187.833 58 293.5s18 217.167 18 334.5s-6 228.666 -18 333.999s-31.333 203 -58 293s-60.834 171 -102.501 243s-92 133.333 -151 184
s-127.5 89.667 -205.5 117s-166 41 -264 41c-99.333 0 -188 -13.667 -266 -41s-146.667 -66.333 -206 -117s-110 -112 -152 -184s-76.333 -153 -103 -243s-46 -187.667 -58 -293s-18 -216.666 -18 -333.999s6 -228.833 18 -334.5s31.333 -203.5 58 -293.5s61 -171 103 -243
s92.667 -133.333 152 -184s128 -89.667 206 -117s166.667 -41 266 -41zM1311 3162l-549 574h483l393 -574h-327z" />
    <glyph glyph-name="Oacute" unicode="&#xd3;" horiz-adv-x="2920" 
d="M1454 -49c-147.333 0 -278.999 17.3311 -394.999 51.998s-218 84.167 -306 148.5s-162.833 142.166 -224.5 233.499s-112 193.5 -151 306.5s-67.333 235.833 -85 368.5s-26.5 272.334 -26.5 419.001c0 147.333 9 287.5 27 420.5s46.5 256.5 85.5 370.5
s89.667 216.833 152 308.5s137.833 169.834 226.5 234.5c88.667 64.667 191.334 114.5 308.001 149.5s249 52.5 397 52.5c147.333 0 279.166 -17.333 395.499 -52s218.666 -84.167 306.999 -148.5s163.5 -142.166 225.5 -233.5c62 -91.333 112.5 -193.666 151.5 -307
c39 -113.333 67.5 -236.166 85.5 -368.499s27 -271.833 27 -418.5c0 -147.333 -9 -287.666 -27 -420.999s-46.833 -256.833 -86.5 -370.5s-90.667 -216.5 -153 -308.5s-138 -170.167 -227 -234.5s-192 -114 -309 -149s-249.5 -52.5 -397.5 -52.5zM1462 269.998
c98.667 0 186.834 13.667 264.501 41s146 66.333 205 117s109.333 112 151 184s75.834 153 102.5 243c26.667 90 46 187.833 58 293.5s18 217.167 18 334.5s-6 228.666 -18 333.999s-31.333 203 -58 293s-60.834 171 -102.501 243s-92 133.333 -151 184
s-127.5 89.667 -205.5 117s-166 41 -264 41c-99.333 0 -188 -13.667 -266 -41s-146.667 -66.333 -206 -117s-110 -112 -152 -184s-76.333 -153 -103 -243s-46 -187.667 -58 -293s-18 -216.666 -18 -333.999s6 -228.833 18 -334.5s31.333 -203.5 58 -293.5s61 -171 103 -243
s92.667 -133.333 152 -184s128 -89.667 206 -117s166.667 -41 266 -41zM1282 3162l393 574h475l-545 -574h-323z" />
    <glyph glyph-name="Ocircumflex" unicode="&#xd4;" horiz-adv-x="2920" 
d="M1454 -49c-147.333 0 -278.999 17.3311 -394.999 51.998s-218 84.167 -306 148.5s-162.833 142.166 -224.5 233.499s-112 193.5 -151 306.5s-67.333 235.833 -85 368.5s-26.5 272.334 -26.5 419.001c0 147.333 9 287.5 27 420.5s46.5 256.5 85.5 370.5
s89.667 216.833 152 308.5s137.833 169.834 226.5 234.5c88.667 64.667 191.334 114.5 308.001 149.5s249 52.5 397 52.5c147.333 0 279.166 -17.333 395.499 -52s218.666 -84.167 306.999 -148.5s163.5 -142.166 225.5 -233.5c62 -91.333 112.5 -193.666 151.5 -307
c39 -113.333 67.5 -236.166 85.5 -368.499s27 -271.833 27 -418.5c0 -147.333 -9 -287.666 -27 -420.999s-46.833 -256.833 -86.5 -370.5s-90.667 -216.5 -153 -308.5s-138 -170.167 -227 -234.5s-192 -114 -309 -149s-249.5 -52.5 -397.5 -52.5zM1462 269.998
c98.667 0 186.834 13.667 264.501 41s146 66.333 205 117s109.333 112 151 184s75.834 153 102.5 243c26.667 90 46 187.833 58 293.5s18 217.167 18 334.5s-6 228.666 -18 333.999s-31.333 203 -58 293s-60.834 171 -102.501 243s-92 133.333 -151 184
s-127.5 89.667 -205.5 117s-166 41 -264 41c-99.333 0 -188 -13.667 -266 -41s-146.667 -66.333 -206 -117s-110 -112 -152 -184s-76.333 -153 -103 -243s-46 -187.667 -58 -293s-18 -216.666 -18 -333.999s6 -228.833 18 -334.5s31.333 -203.5 58 -293.5s61 -171 103 -243
s92.667 -133.333 152 -184s128 -89.667 206 -117s166.667 -41 266 -41zM1737 3162l-281 329l-281 -329h-327l393 574h430l393 -574h-327z" />
    <glyph glyph-name="Otilde" unicode="&#xd5;" horiz-adv-x="2920" 
d="M1454 -49c-147.333 0 -278.999 17.3311 -394.999 51.998s-218 84.167 -306 148.5s-162.833 142.166 -224.5 233.499s-112 193.5 -151 306.5s-67.333 235.833 -85 368.5s-26.5 272.334 -26.5 419.001c0 147.333 9 287.5 27 420.5s46.5 256.5 85.5 370.5
s89.667 216.833 152 308.5s137.833 169.834 226.5 234.5c88.667 64.667 191.334 114.5 308.001 149.5s249 52.5 397 52.5c147.333 0 279.166 -17.333 395.499 -52s218.666 -84.167 306.999 -148.5s163.5 -142.166 225.5 -233.5c62 -91.333 112.5 -193.666 151.5 -307
c39 -113.333 67.5 -236.166 85.5 -368.499s27 -271.833 27 -418.5c0 -147.333 -9 -287.666 -27 -420.999s-46.833 -256.833 -86.5 -370.5s-90.667 -216.5 -153 -308.5s-138 -170.167 -227 -234.5s-192 -114 -309 -149s-249.5 -52.5 -397.5 -52.5zM1462 269.998
c98.667 0 186.834 13.667 264.501 41s146 66.333 205 117s109.333 112 151 184s75.834 153 102.5 243c26.667 90 46 187.833 58 293.5s18 217.167 18 334.5s-6 228.666 -18 333.999s-31.333 203 -58 293s-60.834 171 -102.501 243s-92 133.333 -151 184
s-127.5 89.667 -205.5 117s-166 41 -264 41c-99.333 0 -188 -13.667 -266 -41s-146.667 -66.333 -206 -117s-110 -112 -152 -184s-76.333 -153 -103 -243s-46 -187.667 -58 -293s-18 -216.666 -18 -333.999s6 -228.833 18 -334.5s31.333 -203.5 58 -293.5s61 -171 103 -243
s92.667 -133.333 152 -184s128 -89.667 206 -117s166.667 -41 266 -41zM2179 3683c0 -78 -10.6641 -148.167 -31.9971 -210.5s-50.833 -115.166 -88.5 -158.5c-37.667 -43.333 -82.167 -76.666 -133.5 -100c-51.333 -23.333 -107.333 -35 -168 -35c-38 0 -74 5 -108 15
s-66.167 22.667 -96.5 38s-59.333 31.833 -87 49.5l-80 49.5c-25.667 15.333 -50.334 28 -74.001 38s-47.167 15 -70.5 15c-32 0 -58.667 -5.5 -80 -16.5s-39 -25.667 -53 -44s-24.667 -39.333 -32 -63s-12.333 -48.167 -15 -73.5h-250c0 78 10.167 148 30.5 210
s49 114.833 86 158.5s81.167 77.167 132.5 100.5s107.666 35 168.999 35c37.333 0 73 -5 107 -15s66.333 -22.667 97 -38s60 -31.833 88 -49.5l81 -49.5c26 -15.333 51.167 -28 75.5 -38s48.166 -15 71.499 -15c32 0 58.667 5.5 80 16.5s39 25.5 53 43.5
s24.5 38.833 31.5 62.5s12.167 48.5 15.5 74.5h250z" />
    <glyph glyph-name="Odieresis" unicode="&#xd6;" horiz-adv-x="2920" 
d="M1454 -49c-147.333 0 -278.999 17.3311 -394.999 51.998s-218 84.167 -306 148.5s-162.833 142.166 -224.5 233.499s-112 193.5 -151 306.5s-67.333 235.833 -85 368.5s-26.5 272.334 -26.5 419.001c0 147.333 9 287.5 27 420.5s46.5 256.5 85.5 370.5
s89.667 216.833 152 308.5s137.833 169.834 226.5 234.5c88.667 64.667 191.334 114.5 308.001 149.5s249 52.5 397 52.5c147.333 0 279.166 -17.333 395.499 -52s218.666 -84.167 306.999 -148.5s163.5 -142.166 225.5 -233.5c62 -91.333 112.5 -193.666 151.5 -307
c39 -113.333 67.5 -236.166 85.5 -368.499s27 -271.833 27 -418.5c0 -147.333 -9 -287.666 -27 -420.999s-46.833 -256.833 -86.5 -370.5s-90.667 -216.5 -153 -308.5s-138 -170.167 -227 -234.5s-192 -114 -309 -149s-249.5 -52.5 -397.5 -52.5zM1462 269.998
c98.667 0 186.834 13.667 264.501 41s146 66.333 205 117s109.333 112 151 184s75.834 153 102.5 243c26.667 90 46 187.833 58 293.5s18 217.167 18 334.5s-6 228.666 -18 333.999s-31.333 203 -58 293s-60.834 171 -102.501 243s-92 133.333 -151 184
s-127.5 89.667 -205.5 117s-166 41 -264 41c-99.333 0 -188 -13.667 -266 -41s-146.667 -66.333 -206 -117s-110 -112 -152 -184s-76.333 -153 -103 -243s-46 -187.667 -58 -293s-18 -216.666 -18 -333.999s6 -228.833 18 -334.5s31.333 -203.5 58 -293.5s61 -171 103 -243
s92.667 -133.333 152 -184s128 -89.667 206 -117s166.667 -41 266 -41zM864.001 3257v409h393v-409h-393zM1659 3257v409h393v-409h-393z" />
    <glyph glyph-name="multiply" unicode="&#xd7;" horiz-adv-x="2408" 
d="M1204 1016l-672 -672l-213 213l672 672l-672 672l213 213l672 -672l672 672l213 -213l-672 -672l672 -672l-213 -213z" />
    <glyph glyph-name="Oslash" unicode="&#xd8;" horiz-adv-x="2920" 
d="M287 0l250 372.996c-48 67.333 -89.167 141.833 -123.5 223.5s-62.5 169.334 -84.5 263.001s-38 192.334 -48 296.001s-15 211.5 -15 323.5c0 147.333 9 287.5 27 420.5s46.5 256.5 85.5 370.5s89.667 216.833 152 308.5s137.833 169.834 226.5 234.5
c88.667 64.667 191.334 114.5 308.001 149.5s249 52.5 397 52.5c147.333 0 279.666 -17.833 396.999 -53.5s220 -86.167 308 -151.5l102 156h365l-250 -377c48 -68 89 -142.667 123 -224s62 -168.5 84 -261.5s38 -191.167 48 -294.5s15 -210.666 15 -321.999
c0 -147.333 -9 -287.666 -27 -420.999s-46.833 -256.833 -86.5 -370.5s-90.667 -216.5 -153 -308.5s-138 -170.167 -227 -234.5s-192 -114 -309 -149s-249.5 -52.5 -397.5 -52.5c-147.333 0 -278.833 16.833 -394.5 50.5s-217.5 82.167 -305.5 145.5l-99 -147h-368z
M1962 2507c-61.333 59.333 -133.332 105.499 -215.999 138.499s-177.334 49.5 -284.001 49.5c-99.333 0 -188 -13.667 -266 -41s-146.667 -66.333 -206 -117s-110 -112 -152 -184s-76.333 -153 -103 -243s-46 -187.667 -58 -293s-18 -216.666 -18 -333.999
c0 -146.667 9 -283 27 -409s48.667 -239.667 92 -341zM958.001 454.995c61.333 -59.333 133.498 -105.002 216.498 -137.002s178.833 -48 287.5 -48c98.667 0 186.834 13.667 264.501 41s146 66.333 205 117s109.333 112 151 184s75.834 153 102.501 243
s46 187.833 58 293.5s18 217.167 18 334.5c0 146.667 -9.5 282.334 -28.5 407.001s-49.167 237.334 -90.5 338.001z" />
    <glyph glyph-name="Ugrave" unicode="&#xd9;" horiz-adv-x="2822" 
d="M2089 2966h377v-2073c0 -106 -9 -202.833 -27 -290.5s-45.667 -166.334 -83 -236.001s-84.666 -130.5 -142 -182.5c-57.333 -52 -125.166 -95.333 -203.5 -130c-78.333 -34.667 -167.5 -60.5 -267.5 -77.5s-211.333 -25.5 -334 -25.5s-234 8.5 -334 25.5
s-189 42.833 -267 77.5s-145.333 78 -202 130s-103.5 112.833 -140.5 182.5s-64.5 148.334 -82.5 236.001s-27 184.5 -27 290.5v2073h377v-1999c0 -118 13.167 -220.667 39.5 -308s67 -159.833 122 -217.5s125 -100.667 210 -129s186.5 -42.5 304.5 -42.5
c118.667 0 220.834 14.167 306.501 42.5s156.167 71.333 211.5 129s96.166 130.167 122.499 217.5s39.5 190 39.5 308v1999zM1262 3162l-549 574h483l393 -574h-327z" />
    <glyph glyph-name="Uacute" unicode="&#xda;" horiz-adv-x="2822" 
d="M2089 2966h377v-2073c0 -106 -9 -202.833 -27 -290.5s-45.667 -166.334 -83 -236.001s-84.666 -130.5 -142 -182.5c-57.333 -52 -125.166 -95.333 -203.5 -130c-78.333 -34.667 -167.5 -60.5 -267.5 -77.5s-211.333 -25.5 -334 -25.5s-234 8.5 -334 25.5
s-189 42.833 -267 77.5s-145.333 78 -202 130s-103.5 112.833 -140.5 182.5s-64.5 148.334 -82.5 236.001s-27 184.5 -27 290.5v2073h377v-1999c0 -118 13.167 -220.667 39.5 -308s67 -159.833 122 -217.5s125 -100.667 210 -129s186.5 -42.5 304.5 -42.5
c118.667 0 220.834 14.167 306.501 42.5s156.167 71.333 211.5 129s96.166 130.167 122.499 217.5s39.5 190 39.5 308v1999zM1233 3162l393 574h475l-545 -574h-323z" />
    <glyph glyph-name="Ucircumflex" unicode="&#xdb;" horiz-adv-x="2822" 
d="M2089 2966h377v-2073c0 -106 -9 -202.833 -27 -290.5s-45.667 -166.334 -83 -236.001s-84.666 -130.5 -142 -182.5c-57.333 -52 -125.166 -95.333 -203.5 -130c-78.333 -34.667 -167.5 -60.5 -267.5 -77.5s-211.333 -25.5 -334 -25.5s-234 8.5 -334 25.5
s-189 42.833 -267 77.5s-145.333 78 -202 130s-103.5 112.833 -140.5 182.5s-64.5 148.334 -82.5 236.001s-27 184.5 -27 290.5v2073h377v-1999c0 -118 13.167 -220.667 39.5 -308s67 -159.833 122 -217.5s125 -100.667 210 -129s186.5 -42.5 304.5 -42.5
c118.667 0 220.834 14.167 306.501 42.5s156.167 71.333 211.5 129s96.166 130.167 122.499 217.5s39.5 190 39.5 308v1999zM1688 3162l-281 329l-281 -329h-327l393 574h430l393 -574h-327z" />
    <glyph glyph-name="Udieresis" unicode="&#xdc;" horiz-adv-x="2822" 
d="M2089 2966h377v-2073c0 -106 -9 -202.833 -27 -290.5s-45.667 -166.334 -83 -236.001s-84.666 -130.5 -142 -182.5c-57.333 -52 -125.166 -95.333 -203.5 -130c-78.333 -34.667 -167.5 -60.5 -267.5 -77.5s-211.333 -25.5 -334 -25.5s-234 8.5 -334 25.5
s-189 42.833 -267 77.5s-145.333 78 -202 130s-103.5 112.833 -140.5 182.5s-64.5 148.334 -82.5 236.001s-27 184.5 -27 290.5v2073h377v-1999c0 -118 13.167 -220.667 39.5 -308s67 -159.833 122 -217.5s125 -100.667 210 -129s186.5 -42.5 304.5 -42.5
c118.667 0 220.834 14.167 306.501 42.5s156.167 71.333 211.5 129s96.166 130.167 122.499 217.5s39.5 190 39.5 308v1999zM815 3257v409h393v-409h-393zM1610 3257v409h393v-409h-393z" />
    <glyph glyph-name="Yacute" unicode="&#xdd;" horiz-adv-x="2433" 
d="M1028 0l-0.00390625 1167l-979 1799h406l594 -1119c14.667 -28.667 29.334 -59 44.001 -91s28.834 -65 42.501 -99l40 -104c13 -35.333 25.167 -71 36.5 -107c11.333 36 23.833 71.667 37.5 107s27.834 70 42.501 104s29.834 67 45.501 99l46.5 91l594 1119h406
l-979 -1803v-1163h-377zM1041 3162l393 574h475l-545 -574h-323z" />
    <glyph glyph-name="Thorn" unicode="&#xde;" horiz-adv-x="2441" 
d="M414 0l0.00292969 2966h377v-500h565c106.667 0 204.167 -9.33301 292.5 -28s167.666 -46.167 237.999 -82.5s131.666 -81 183.999 -134s96 -113.667 131 -182s61.167 -144 78.5 -227s26 -172.5 26 -268.5c0 -145.333 -18.5 -275 -55.5 -389s-95.5 -210.5 -175.5 -289.5
s-183.333 -139.167 -310 -180.5s-279.334 -62 -458.001 -62h-516v-623h-377zM1274 922c116.667 0 215.833 13.999 297.5 41.999s148 68.5 199 121.5s88.167 118.167 111.5 195.5s35 165 35 263c0 92 -11.667 176.333 -35 253s-59.833 142.334 -109.5 197.001
s-113.167 97.167 -190.5 127.5s-170.333 45.5 -279 45.5h-512v-1245h483z" />
    <glyph glyph-name="germandbls" unicode="&#xdf;" horiz-adv-x="2544" 
d="M1032 389c34 -16 71.9971 -31.8379 113.997 -47.5049s86.667 -29.667 134 -42s96.5 -22.333 147.5 -30s102.167 -11.5 153.5 -11.5c80.667 0 150.334 12.333 209.001 37s106.667 56.5 144 95.5s65 83 83 132s27 97.5 27 145.5c0 37.333 -4.83301 72.333 -14.5 105
s-23.334 63.5 -41.001 92.5s-39.5 56.5 -65.5 82.5s-55.333 51 -88 75s-68.667 47.5 -108 70.5s-81 46.167 -125 69.5l-570 299v316l250 110c69.333 30.667 129.333 61.167 180 91.5s93.334 60.666 128.001 90.999s62.667 61 84 92s37.833 62.5 49.5 94.5
s19.5 64.667 23.5 98s6 67.666 6 103c0 54 -9.83301 104.667 -29.5 152s-49.334 88.5 -89.001 123.5s-89.5 62.667 -149.5 83s-130.333 30.5 -211 30.5c-82 0 -155.833 -11.5 -221.5 -34.5s-121.667 -57.833 -168 -104.5s-81.833 -105.5 -106.5 -176.5
s-37 -154.5 -37 -250.5v-2281h-360v2335c0 94.667 11 180.667 33 258s52.833 146.333 92.5 207s87.167 113.334 142.5 158c55.333 44.667 116.333 81.5 183 110.5s138 50.5 214 64.5s154.667 21 236 21c90.667 0 174.167 -8.16699 250.5 -24.5s145.333 -39.333 207 -69
s115.834 -65.167 162.501 -106.5s85.667 -87.166 117 -137.499s55 -104.5 71 -162.5s24 -118 24 -180c0 -93.333 -13.667 -179.5 -41 -258.5s-68.333 -151.5 -123 -217.5s-123 -125.833 -205 -179.5s-177.667 -101.5 -287 -143.5l-135 -53l393 -164
c72.667 -30 140.334 -61.167 203.001 -93.5s119.334 -67 170.001 -104s95.667 -76.333 135 -118s72.333 -86.667 99 -135s46.834 -100.666 60.5 -156.999c13.667 -56.333 20.5 -117.166 20.5 -182.499c0 -60 -7.33301 -119.5 -22 -178.5s-36.834 -115 -66.5 -168
c-29.667 -53 -66.834 -102.167 -111.501 -147.5s-97.167 -84.5 -157.5 -117.5s-128.666 -58.833 -204.999 -77.5s-160.5 -28 -252.5 -28c-58 0 -113.5 3.83301 -166.5 11.5s-103 17.834 -150 30.501s-90.667 27.334 -131 44.001s-76.833 34.334 -109.5 53.001v299z" />
    <glyph glyph-name="agrave" unicode="&#xe0;" horiz-adv-x="2232" 
d="M1561 0l-24.999 168.004c-42 -32.667 -86.667 -62.334 -134 -89.001s-97.333 -49.5 -150 -68.5s-108.167 -33.667 -166.5 -44s-119.833 -15.5 -184.5 -15.5c-102 0 -194.833 13.833 -278.5 41.5s-155.334 67.167 -215.001 118.5s-105.667 113.666 -138 186.999
s-48.5 155.666 -48.5 246.999c0 75.333 10.667 144.333 32 207s53 118.667 95 168s94 92.333 156 129s133.667 67 215 91s172.166 42 272.499 54s209.5 18 327.5 18h79.5h68.5h61v144c0 86 -9.33301 159.5 -28 220.5s-47.834 111 -87.501 150s-90.667 67.5 -153 85.5
s-136.833 27 -223.5 27c-69.333 0 -136.166 -4.83301 -200.499 -14.5s-125 -22 -182 -37s-109.5 -31.833 -157.5 -50.5s-90.333 -36.667 -127 -54v291c42.667 23.333 90.5 45.666 143.5 66.999s109.5 40 169.5 56s123.167 28.833 189.5 38.5s134.833 14.5 205.5 14.5
c120.667 0 230.834 -12.667 330.501 -38s185.167 -66.833 256.5 -124.5s126.5 -133.5 165.5 -227.5s58.5 -209.667 58.5 -347v-1413h-327zM1528 946.004h-156c-139.333 0 -258.333 -8.16699 -357 -24.5s-179.5 -40.833 -242.5 -73.5s-109.167 -73.667 -138.5 -123
s-44 -106.666 -44 -171.999c0 -49.333 8.16699 -92.833 24.5 -130.5s40.666 -69.334 72.999 -95.001s72.833 -45 121.5 -58s105.334 -19.5 170.001 -19.5c52 0 102 3.33301 150 10s94.5 17 139.5 31s89 31.5 132 52.5s85.5 45.833 127.5 74.5v528zM952.001 2408l-549 574
h483l393 -574h-327z" />
    <glyph glyph-name="aacute" unicode="&#xe1;" horiz-adv-x="2232" 
d="M1561 0l-24.999 168.004c-42 -32.667 -86.667 -62.334 -134 -89.001s-97.333 -49.5 -150 -68.5s-108.167 -33.667 -166.5 -44s-119.833 -15.5 -184.5 -15.5c-102 0 -194.833 13.833 -278.5 41.5s-155.334 67.167 -215.001 118.5s-105.667 113.666 -138 186.999
s-48.5 155.666 -48.5 246.999c0 75.333 10.667 144.333 32 207s53 118.667 95 168s94 92.333 156 129s133.667 67 215 91s172.166 42 272.499 54s209.5 18 327.5 18h79.5h68.5h61v144c0 86 -9.33301 159.5 -28 220.5s-47.834 111 -87.501 150s-90.667 67.5 -153 85.5
s-136.833 27 -223.5 27c-69.333 0 -136.166 -4.83301 -200.499 -14.5s-125 -22 -182 -37s-109.5 -31.833 -157.5 -50.5s-90.333 -36.667 -127 -54v291c42.667 23.333 90.5 45.666 143.5 66.999s109.5 40 169.5 56s123.167 28.833 189.5 38.5s134.833 14.5 205.5 14.5
c120.667 0 230.834 -12.667 330.501 -38s185.167 -66.833 256.5 -124.5s126.5 -133.5 165.5 -227.5s58.5 -209.667 58.5 -347v-1413h-327zM1528 946.004h-156c-139.333 0 -258.333 -8.16699 -357 -24.5s-179.5 -40.833 -242.5 -73.5s-109.167 -73.667 -138.5 -123
s-44 -106.666 -44 -171.999c0 -49.333 8.16699 -92.833 24.5 -130.5s40.666 -69.334 72.999 -95.001s72.833 -45 121.5 -58s105.334 -19.5 170.001 -19.5c52 0 102 3.33301 150 10s94.5 17 139.5 31s89 31.5 132 52.5s85.5 45.833 127.5 74.5v528zM922.001 2408l393 574h475
l-545 -574h-323z" />
    <glyph glyph-name="acircumflex" unicode="&#xe2;" horiz-adv-x="2232" 
d="M1561 0l-24.999 168.004c-42 -32.667 -86.667 -62.334 -134 -89.001s-97.333 -49.5 -150 -68.5s-108.167 -33.667 -166.5 -44s-119.833 -15.5 -184.5 -15.5c-102 0 -194.833 13.833 -278.5 41.5s-155.334 67.167 -215.001 118.5s-105.667 113.666 -138 186.999
s-48.5 155.666 -48.5 246.999c0 75.333 10.667 144.333 32 207s53 118.667 95 168s94 92.333 156 129s133.667 67 215 91s172.166 42 272.499 54s209.5 18 327.5 18h79.5h68.5h61v144c0 86 -9.33301 159.5 -28 220.5s-47.834 111 -87.501 150s-90.667 67.5 -153 85.5
s-136.833 27 -223.5 27c-69.333 0 -136.166 -4.83301 -200.499 -14.5s-125 -22 -182 -37s-109.5 -31.833 -157.5 -50.5s-90.333 -36.667 -127 -54v291c42.667 23.333 90.5 45.666 143.5 66.999s109.5 40 169.5 56s123.167 28.833 189.5 38.5s134.833 14.5 205.5 14.5
c120.667 0 230.834 -12.667 330.501 -38s185.167 -66.833 256.5 -124.5s126.5 -133.5 165.5 -227.5s58.5 -209.667 58.5 -347v-1413h-327zM1528 946.004h-156c-139.333 0 -258.333 -8.16699 -357 -24.5s-179.5 -40.833 -242.5 -73.5s-109.167 -73.667 -138.5 -123
s-44 -106.666 -44 -171.999c0 -49.333 8.16699 -92.833 24.5 -130.5s40.666 -69.334 72.999 -95.001s72.833 -45 121.5 -58s105.334 -19.5 170.001 -19.5c52 0 102 3.33301 150 10s94.5 17 139.5 31s89 31.5 132 52.5s85.5 45.833 127.5 74.5v528zM1377 2408l-281 329
l-281 -329h-327l393 574h430l393 -574h-327z" />
    <glyph glyph-name="atilde" unicode="&#xe3;" horiz-adv-x="2232" 
d="M1561 0l-24.999 168.004c-42 -32.667 -86.667 -62.334 -134 -89.001s-97.333 -49.5 -150 -68.5s-108.167 -33.667 -166.5 -44s-119.833 -15.5 -184.5 -15.5c-102 0 -194.833 13.833 -278.5 41.5s-155.334 67.167 -215.001 118.5s-105.667 113.666 -138 186.999
s-48.5 155.666 -48.5 246.999c0 75.333 10.667 144.333 32 207s53 118.667 95 168s94 92.333 156 129s133.667 67 215 91s172.166 42 272.499 54s209.5 18 327.5 18h79.5h68.5h61v144c0 86 -9.33301 159.5 -28 220.5s-47.834 111 -87.501 150s-90.667 67.5 -153 85.5
s-136.833 27 -223.5 27c-69.333 0 -136.166 -4.83301 -200.499 -14.5s-125 -22 -182 -37s-109.5 -31.833 -157.5 -50.5s-90.333 -36.667 -127 -54v291c42.667 23.333 90.5 45.666 143.5 66.999s109.5 40 169.5 56s123.167 28.833 189.5 38.5s134.833 14.5 205.5 14.5
c120.667 0 230.834 -12.667 330.501 -38s185.167 -66.833 256.5 -124.5s126.5 -133.5 165.5 -227.5s58.5 -209.667 58.5 -347v-1413h-327zM1528 946.004h-156c-139.333 0 -258.333 -8.16699 -357 -24.5s-179.5 -40.833 -242.5 -73.5s-109.167 -73.667 -138.5 -123
s-44 -106.666 -44 -171.999c0 -49.333 8.16699 -92.833 24.5 -130.5s40.666 -69.334 72.999 -95.001s72.833 -45 121.5 -58s105.334 -19.5 170.001 -19.5c52 0 102 3.33301 150 10s94.5 17 139.5 31s89 31.5 132 52.5s85.5 45.833 127.5 74.5v528zM1819 2929
c0 -78 -10.6641 -148.167 -31.9971 -210.5s-50.833 -115.166 -88.5 -158.5c-37.667 -43.333 -82.167 -76.666 -133.5 -100c-51.333 -23.333 -107.333 -35 -168 -35c-38 0 -74 5 -108 15s-66.167 22.667 -96.5 38s-59.333 31.833 -87 49.5l-80 49.5
c-25.667 15.333 -50.334 28 -74.001 38s-47.167 15 -70.5 15c-32 0 -58.667 -5.5 -80 -16.5s-39 -25.667 -53 -44s-24.667 -39.333 -32 -63s-12.333 -48.167 -15 -73.5h-250c0 78 10.167 148 30.5 210s49 114.833 86 158.5s81.167 77.167 132.5 100.5s107.666 35 168.999 35
c37.333 0 73 -5 107 -15s66.333 -22.667 97 -38s60 -31.833 88 -49.5l81 -49.5c26 -15.333 51.167 -28 75.5 -38s48.166 -15 71.499 -15c32 0 58.667 5.5 80 16.5s39 25.5 53 43.5s24.5 38.833 31.5 62.5s12.167 48.5 15.5 74.5h250z" />
    <glyph glyph-name="adieresis" unicode="&#xe4;" horiz-adv-x="2232" 
d="M1561 0l-24.999 168.004c-42 -32.667 -86.667 -62.334 -134 -89.001s-97.333 -49.5 -150 -68.5s-108.167 -33.667 -166.5 -44s-119.833 -15.5 -184.5 -15.5c-102 0 -194.833 13.833 -278.5 41.5s-155.334 67.167 -215.001 118.5s-105.667 113.666 -138 186.999
s-48.5 155.666 -48.5 246.999c0 75.333 10.667 144.333 32 207s53 118.667 95 168s94 92.333 156 129s133.667 67 215 91s172.166 42 272.499 54s209.5 18 327.5 18h79.5h68.5h61v144c0 86 -9.33301 159.5 -28 220.5s-47.834 111 -87.501 150s-90.667 67.5 -153 85.5
s-136.833 27 -223.5 27c-69.333 0 -136.166 -4.83301 -200.499 -14.5s-125 -22 -182 -37s-109.5 -31.833 -157.5 -50.5s-90.333 -36.667 -127 -54v291c42.667 23.333 90.5 45.666 143.5 66.999s109.5 40 169.5 56s123.167 28.833 189.5 38.5s134.833 14.5 205.5 14.5
c120.667 0 230.834 -12.667 330.501 -38s185.167 -66.833 256.5 -124.5s126.5 -133.5 165.5 -227.5s58.5 -209.667 58.5 -347v-1413h-327zM1528 946.004h-156c-139.333 0 -258.333 -8.16699 -357 -24.5s-179.5 -40.833 -242.5 -73.5s-109.167 -73.667 -138.5 -123
s-44 -106.666 -44 -171.999c0 -49.333 8.16699 -92.833 24.5 -130.5s40.666 -69.334 72.999 -95.001s72.833 -45 121.5 -58s105.334 -19.5 170.001 -19.5c52 0 102 3.33301 150 10s94.5 17 139.5 31s89 31.5 132 52.5s85.5 45.833 127.5 74.5v528zM504.001 2503v409h393
v-409h-393zM1299 2503v409h393v-409h-393z" />
    <glyph glyph-name="aring" unicode="&#xe5;" horiz-adv-x="2232" 
d="M1561 0l-24.999 168.004c-42 -32.667 -86.667 -62.334 -134 -89.001s-97.333 -49.5 -150 -68.5s-108.167 -33.667 -166.5 -44s-119.833 -15.5 -184.5 -15.5c-102 0 -194.833 13.833 -278.5 41.5s-155.334 67.167 -215.001 118.5s-105.667 113.666 -138 186.999
s-48.5 155.666 -48.5 246.999c0 75.333 10.667 144.333 32 207s53 118.667 95 168s94 92.333 156 129s133.667 67 215 91s172.166 42 272.499 54s209.5 18 327.5 18h79.5h68.5h61v144c0 86 -9.33301 159.5 -28 220.5s-47.834 111 -87.501 150s-90.667 67.5 -153 85.5
s-136.833 27 -223.5 27c-69.333 0 -136.166 -4.83301 -200.499 -14.5s-125 -22 -182 -37s-109.5 -31.833 -157.5 -50.5s-90.333 -36.667 -127 -54v291c42.667 23.333 90.5 45.666 143.5 66.999s109.5 40 169.5 56s123.167 28.833 189.5 38.5s134.833 14.5 205.5 14.5
c120.667 0 230.834 -12.667 330.501 -38s185.167 -66.833 256.5 -124.5s126.5 -133.5 165.5 -227.5s58.5 -209.667 58.5 -347v-1413h-327zM1528 946.004h-156c-139.333 0 -258.333 -8.16699 -357 -24.5s-179.5 -40.833 -242.5 -73.5s-109.167 -73.667 -138.5 -123
s-44 -106.666 -44 -171.999c0 -49.333 8.16699 -92.833 24.5 -130.5s40.666 -69.334 72.999 -95.001s72.833 -45 121.5 -58s105.334 -19.5 170.001 -19.5c52 0 102 3.33301 150 10s94.5 17 139.5 31s89 31.5 132 52.5s85.5 45.833 127.5 74.5v528zM1553 2826
c0 -61.333 -11.667 -118.5 -35 -171.5s-55.333 -99 -96 -138s-88.667 -69.5 -144 -91.5s-115.333 -33 -180 -33s-124.667 11 -180 33s-103.333 52.5 -144 91.5s-72.667 85 -96 138s-35 110.167 -35 171.5s11.667 118.5 35 171.5s55.333 99 96 138s88.667 69.5 144 91.5
s115.333 33 180 33s124.667 -11 180 -33s103.333 -52.5 144 -91.5s72.667 -85 96 -138s35 -110.167 35 -171.5zM1098 2601c32.667 0 62.834 6 90.501 18s51.5 28.167 71.5 48.5s35.5 44.166 46.5 71.5c11 27.333 16.5 56.333 16.5 87c0 30 -5.5 58.5 -16.5 85.5
s-26.5 51 -46.5 72s-43.833 37.667 -71.5 50s-57.834 18.5 -90.501 18.5s-62.834 -6.16699 -90.501 -18.5s-51.5 -29 -71.5 -50s-35.5 -45 -46.5 -72s-16.5 -55.5 -16.5 -85.5c0 -30.667 5.5 -59.667 16.5 -87s26.5 -51.166 46.5 -71.5c20 -20.333 43.833 -36.5 71.5 -48.5
s57.834 -18 90.501 -18z" />
    <glyph glyph-name="ae" unicode="&#xe6;" horiz-adv-x="3510" 
d="M3174 102c-40.667 -21.333 -85.998 -41.334 -135.998 -60.001s-104.667 -34.667 -164 -48s-124 -23.833 -194 -31.5s-145.333 -11.5 -226 -11.5c-82 0 -158.667 6.83301 -230 20.5s-137.166 33.834 -197.499 60.501s-115.333 60 -165 100s-93.834 86 -132.501 138
c-43.333 -46 -93.333 -88.5 -150 -127.5s-118.834 -72.667 -186.501 -101s-140 -50.5 -217 -66.5s-157.5 -24 -241.5 -24c-110.667 0 -210 13.833 -298 41.5s-162.833 67.167 -224.5 118.5s-108.834 113.666 -141.501 186.999s-49 155.666 -49 246.999
c0 75.333 10.667 144.333 32 207s53 118.667 95 168s94 92.333 156 129s133.667 67 215 91s172.166 42 272.499 54s209.5 18 327.5 18h98h111v144c0 86 -9.33301 159.5 -28 220.5s-47.834 111 -87.501 150s-90.667 67.5 -153 85.5s-136.833 27 -223.5 27
c-69.333 0 -136.166 -4.83301 -200.499 -14.5s-125 -22 -182 -37s-109.5 -31.833 -157.5 -50.5s-90.333 -36.667 -127 -54v291c42.667 23.333 90.5 45.666 143.5 66.999s109.5 40 169.5 56s123.167 28.833 189.5 38.5s134.833 14.5 205.5 14.5c78 0 151.667 -6.5 221 -19.5
s133.166 -32.5 191.499 -58.5s110.5 -58.667 156.5 -98s84.333 -85.666 115 -138.999c32.667 48 70.334 91.5 113.001 130.5s90.334 72.167 143.001 99.5s110.5 48.333 173.5 63s131.5 22 205.5 22c98.667 0 189.167 -11.833 271.5 -35.5s156.333 -57.167 222 -100.5
s123 -95.5 172 -156.5s89.667 -128.833 122 -203.5s56.666 -155.5 73 -242.5c16.333 -87 24.5 -177.833 24.5 -272.5c0 -13.333 -0.166992 -27.166 -0.5 -41.499s-1 -28.166 -2 -41.499s-2 -25.666 -3 -36.999l-2.5 -28h-1397c4 -116.667 19 -219.834 45 -309.501
s64.333 -165 115 -226s113.834 -107.167 189.5 -138.5c75.667 -31.333 165.167 -47 268.5 -47c78 0 150 4 216 12s127 18.167 183 30.5s107.167 26.333 153.5 42s88.833 31.167 127.5 46.5v-299zM1372 945.999c-139.333 0 -258.334 -8.16699 -357.001 -24.5
s-179.5 -40.833 -242.5 -73.5s-109.167 -73.667 -138.5 -123s-44 -106.666 -44 -171.999c0 -49.333 8.16699 -92.833 24.5 -130.5s40.666 -69.334 72.999 -95.001s72.833 -45 121.5 -58s105.334 -19.5 170.001 -19.5c51.333 0 101.333 3.5 150 10.5
s95.834 17.5 141.501 31.5s90 31.5 133 52.5s84.5 45.5 124.5 73.5v256.5v271.5h-156zM2912 1270c-4 88.667 -18.332 169.334 -42.999 242.001s-58.834 134.834 -102.501 186.501s-96.667 91.5 -159 119.5s-132.833 42 -211.5 42s-149.167 -14 -211.5 -42
s-115.5 -67.833 -159.5 -119.5s-78.667 -113.834 -104 -186.501s-40.333 -153.334 -45 -242.001h1036z" />
    <glyph glyph-name="ccedilla" unicode="&#xe7;" horiz-adv-x="1942" 
d="M745 -602c27.333 -6 55.501 -11.0029 84.501 -15.0029s65.167 -6 108.5 -6c23.333 0 47 2.33301 71 7s45.667 12.334 65 23.001s35 25 47 43s18 40.333 18 67c0 28.667 -8.5 53.834 -25.5 75.501s-39 40.5 -66 56.5s-57.667 29.167 -92 39.5s-68.833 18.5 -103.5 24.5
l147 246c-122.667 15.333 -231.334 50.5 -326.001 105.5s-174.167 129.167 -238.5 222.5s-113.166 205.666 -146.499 336.999s-50 281 -50 449c0 106 8.66699 206.167 26 300.5s43.333 181.333 78 261s77.834 151.334 129.501 215.001s112 117.834 181 162.501
s146.667 78.834 233 102.5c86.333 23.667 181.5 35.5 285.5 35.5c55.333 0 109.666 -2.66699 162.999 -8s103.666 -13.166 150.999 -23.499s91.333 -22.833 132 -37.5s76.334 -31 107.001 -49v-312c-32 15.333 -68.333 30 -109 44s-84.5 26.167 -131.5 36.5
s-96.5 18.666 -148.5 24.999s-105 9.5 -159 9.5c-96 0 -179.5 -17.5 -250.5 -52.5s-129.833 -85.167 -176.5 -150.5s-81.5 -145.166 -104.5 -239.499s-34.5 -200.833 -34.5 -319.5c0 -137.333 12.5 -256.333 37.5 -357s61.333 -184 109 -250s106 -115.167 175 -147.5
s147.5 -48.5 235.5 -48.5c72 0 136.667 3.83301 194 11.5s109.5 17.5 156.5 29.5s90 25.5 129 40.5s75.833 30.167 110.5 45.5v-299c-28.667 -17.333 -62.334 -34 -101.001 -50s-81 -30.333 -127 -43s-95 -23.5 -147 -32.5s-105.667 -14.833 -161 -17.5l-70 -152
c38 -9.33301 73.167 -22.333 105.5 -39s60.5 -36.667 84.5 -60s42.667 -50 56 -80s20 -63 20 -99c0 -41.333 -5.83301 -79.166 -17.5 -113.499s-27.834 -64.833 -48.501 -91.5s-45.167 -49.834 -73.5 -69.501s-59.166 -35.834 -92.499 -48.501s-68.5 -22.167 -105.5 -28.5
s-74.5 -9.5 -112.5 -9.5c-41.333 0 -80.333 2.83301 -117 8.5s-71.667 12.5 -105 20.5v205z" />
    <glyph glyph-name="egrave" unicode="&#xe8;" horiz-adv-x="2236" 
d="M1901 102c-41.333 -21.333 -86.8311 -41.3379 -136.498 -60.0049s-104.334 -34.667 -164.001 -48s-124.5 -23.833 -194.5 -31.5s-145.333 -11.5 -226 -11.5c-104.667 0 -200.5 11.333 -287.5 34s-165.5 55.834 -235.5 99.501s-131.167 97.334 -183.5 161.001
s-96 136.834 -131 219.501s-61.167 174.167 -78.5 274.5s-26 208.833 -26 325.5c0 104 7.83301 203 23.5 297s39.5 181.167 71.5 261.5s72.333 153 121 218s105.667 120.333 171 166s139.333 80.834 222 105.5c82.667 24.667 174.334 37 275.001 37
c98.667 0 189.167 -11.833 271.5 -35.5s156.333 -57.167 222 -100.5s123 -95.5 172 -156.5s89.667 -128.833 122 -203.5s56.666 -155.5 72.999 -242.5s24.5 -177.833 24.5 -272.5c0 -13.333 -0.166992 -27.166 -0.5 -41.499s-1 -28.166 -2 -41.499s-2 -25.666 -3 -36.999
l-2.5 -28h-1397c4 -116.667 19 -219.834 45 -309.501s64.333 -165 115 -226s114 -107.167 190 -138.5s165.667 -47 269 -47c78 0 149.833 4 215.5 12s126.5 18.167 182.5 30.5s107.167 26.333 153.5 42s89.166 31.167 128.499 46.5v-299zM1638 1270
c-4 88.667 -18.333 169.334 -43 242.001s-58.834 134.834 -102.501 186.501s-96.667 91.5 -159 119.5s-132.833 42 -211.5 42s-149 -14 -211 -42s-115 -67.833 -159 -119.5s-78.667 -113.834 -104 -186.501s-40.666 -153.334 -45.999 -242.001h1036zM993.002 2408l-549 574
h483l393 -574h-327z" />
    <glyph glyph-name="eacute" unicode="&#xe9;" horiz-adv-x="2236" 
d="M1901 102c-41.333 -21.333 -86.8311 -41.3379 -136.498 -60.0049s-104.334 -34.667 -164.001 -48s-124.5 -23.833 -194.5 -31.5s-145.333 -11.5 -226 -11.5c-104.667 0 -200.5 11.333 -287.5 34s-165.5 55.834 -235.5 99.501s-131.167 97.334 -183.5 161.001
s-96 136.834 -131 219.501s-61.167 174.167 -78.5 274.5s-26 208.833 -26 325.5c0 104 7.83301 203 23.5 297s39.5 181.167 71.5 261.5s72.333 153 121 218s105.667 120.333 171 166s139.333 80.834 222 105.5c82.667 24.667 174.334 37 275.001 37
c98.667 0 189.167 -11.833 271.5 -35.5s156.333 -57.167 222 -100.5s123 -95.5 172 -156.5s89.667 -128.833 122 -203.5s56.666 -155.5 72.999 -242.5s24.5 -177.833 24.5 -272.5c0 -13.333 -0.166992 -27.166 -0.5 -41.499s-1 -28.166 -2 -41.499s-2 -25.666 -3 -36.999
l-2.5 -28h-1397c4 -116.667 19 -219.834 45 -309.501s64.333 -165 115 -226s114 -107.167 190 -138.5s165.667 -47 269 -47c78 0 149.833 4 215.5 12s126.5 18.167 182.5 30.5s107.167 26.333 153.5 42s89.166 31.167 128.499 46.5v-299zM1638 1270
c-4 88.667 -18.333 169.334 -43 242.001s-58.834 134.834 -102.501 186.501s-96.667 91.5 -159 119.5s-132.833 42 -211.5 42s-149 -14 -211 -42s-115 -67.833 -159 -119.5s-78.667 -113.834 -104 -186.501s-40.666 -153.334 -45.999 -242.001h1036zM963.002 2408l393 574
h475l-545 -574h-323z" />
    <glyph glyph-name="ecircumflex" unicode="&#xea;" horiz-adv-x="2236" 
d="M1901 102c-41.333 -21.333 -86.8311 -41.3379 -136.498 -60.0049s-104.334 -34.667 -164.001 -48s-124.5 -23.833 -194.5 -31.5s-145.333 -11.5 -226 -11.5c-104.667 0 -200.5 11.333 -287.5 34s-165.5 55.834 -235.5 99.501s-131.167 97.334 -183.5 161.001
s-96 136.834 -131 219.501s-61.167 174.167 -78.5 274.5s-26 208.833 -26 325.5c0 104 7.83301 203 23.5 297s39.5 181.167 71.5 261.5s72.333 153 121 218s105.667 120.333 171 166s139.333 80.834 222 105.5c82.667 24.667 174.334 37 275.001 37
c98.667 0 189.167 -11.833 271.5 -35.5s156.333 -57.167 222 -100.5s123 -95.5 172 -156.5s89.667 -128.833 122 -203.5s56.666 -155.5 72.999 -242.5s24.5 -177.833 24.5 -272.5c0 -13.333 -0.166992 -27.166 -0.5 -41.499s-1 -28.166 -2 -41.499s-2 -25.666 -3 -36.999
l-2.5 -28h-1397c4 -116.667 19 -219.834 45 -309.501s64.333 -165 115 -226s114 -107.167 190 -138.5s165.667 -47 269 -47c78 0 149.833 4 215.5 12s126.5 18.167 182.5 30.5s107.167 26.333 153.5 42s89.166 31.167 128.499 46.5v-299zM1638 1270
c-4 88.667 -18.333 169.334 -43 242.001s-58.834 134.834 -102.501 186.501s-96.667 91.5 -159 119.5s-132.833 42 -211.5 42s-149 -14 -211 -42s-115 -67.833 -159 -119.5s-78.667 -113.834 -104 -186.501s-40.666 -153.334 -45.999 -242.001h1036zM1418 2408l-281 329
l-281 -329h-327l393 574h430l393 -574h-327z" />
    <glyph glyph-name="edieresis" unicode="&#xeb;" horiz-adv-x="2236" 
d="M1901 102c-41.333 -21.333 -86.8311 -41.3379 -136.498 -60.0049s-104.334 -34.667 -164.001 -48s-124.5 -23.833 -194.5 -31.5s-145.333 -11.5 -226 -11.5c-104.667 0 -200.5 11.333 -287.5 34s-165.5 55.834 -235.5 99.501s-131.167 97.334 -183.5 161.001
s-96 136.834 -131 219.501s-61.167 174.167 -78.5 274.5s-26 208.833 -26 325.5c0 104 7.83301 203 23.5 297s39.5 181.167 71.5 261.5s72.333 153 121 218s105.667 120.333 171 166s139.333 80.834 222 105.5c82.667 24.667 174.334 37 275.001 37
c98.667 0 189.167 -11.833 271.5 -35.5s156.333 -57.167 222 -100.5s123 -95.5 172 -156.5s89.667 -128.833 122 -203.5s56.666 -155.5 72.999 -242.5s24.5 -177.833 24.5 -272.5c0 -13.333 -0.166992 -27.166 -0.5 -41.499s-1 -28.166 -2 -41.499s-2 -25.666 -3 -36.999
l-2.5 -28h-1397c4 -116.667 19 -219.834 45 -309.501s64.333 -165 115 -226s114 -107.167 190 -138.5s165.667 -47 269 -47c78 0 149.833 4 215.5 12s126.5 18.167 182.5 30.5s107.167 26.333 153.5 42s89.166 31.167 128.499 46.5v-299zM1638 1270
c-4 88.667 -18.333 169.334 -43 242.001s-58.834 134.834 -102.501 186.501s-96.667 91.5 -159 119.5s-132.833 42 -211.5 42s-149 -14 -211 -42s-115 -67.833 -159 -119.5s-78.667 -113.834 -104 -186.501s-40.666 -153.334 -45.999 -242.001h1036zM545.002 2503v409h393
v-409h-393zM1340 2503v409h393v-409h-393z" />
    <glyph glyph-name="igrave" unicode="&#xec;" horiz-adv-x="1122" 
d="M381 0v2101h360v-2101h-360zM415 2408l-549 574h483l393 -574h-327z" />
    <glyph glyph-name="iacute" unicode="&#xed;" horiz-adv-x="1122" 
d="M381 0v2101h360v-2101h-360zM386 2408l393 574h475l-545 -574h-323z" />
    <glyph glyph-name="icircumflex" unicode="&#xee;" horiz-adv-x="1122" 
d="M381 0v2101h360v-2101h-360zM841 2408l-281 329l-281 -329h-327l393 574h430l393 -574h-327z" />
    <glyph glyph-name="idieresis" unicode="&#xef;" horiz-adv-x="1122" 
d="M381 0v2101h360v-2101h-360zM-32 2503v409h393v-409h-393zM763 2503v409h393v-409h-393z" />
    <glyph glyph-name="eth" unicode="&#xf0;" horiz-adv-x="2408" 
d="M1475 2535c98 -97.333 189.501 -204.666 274.501 -321.999s158.667 -242.5 221 -375.5s111.333 -272.833 146.999 -419.5c35.667 -146.667 53.5 -298.334 53.5 -455.001c0 -94 -8.33301 -184.333 -25 -271s-42.167 -167.5 -76.5 -242.5s-77.666 -143.167 -129.999 -204.5
s-114.333 -113.833 -186 -157.5s-153.167 -77.334 -244.5 -101.001s-193 -35.5 -305 -35.5c-116 0 -220.333 11.833 -313 35.5s-174.834 57.334 -246.501 101.001s-133.167 96.167 -184.5 157.5s-93.5 129.5 -126.5 204.5s-57.167 155.667 -72.5 242s-23 176.833 -23 271.5
s9 185.5 27 272.5s44.167 168.167 78.5 243.5s76.833 143.666 127.5 204.999s108.667 113.833 174 157.5s138 77.334 218 101.001s166.333 35.5 259 35.5c52 0 101.167 -3 147.5 -9s90.333 -15.167 132 -27.5s81 -27.666 118 -45.999s72.5 -39.833 106.5 -64.5
c-60 107.333 -127.333 207.666 -202 300.999s-153.334 181.333 -236.001 264l-516 -250v254l332 160c-66.667 56 -131.834 106.167 -195.501 150.5s-124.167 82.833 -181.5 115.5l168 180c40.667 -17.333 81.834 -36.666 123.501 -58
c41.667 -21.333 83.334 -44.833 125.001 -70.5s83.167 -53.334 124.5 -83c41.333 -29.667 82 -61.5 122 -95.5l590 287v-254zM1204 254c107.333 0 198.666 16.666 273.999 49.999s136.666 80.833 183.999 142.5s81.833 136.167 103.5 223.5s32.5 185 32.5 293
c0 108.667 -10.833 207.167 -32.5 295.5s-56.167 164 -103.5 227s-108.666 111.667 -183.999 146s-166.666 51.5 -273.999 51.5c-106.667 0 -197.5 -17.167 -272.5 -51.5s-136.333 -83 -184 -146s-82.5 -138.667 -104.5 -227s-33 -186.833 -33 -295.5
c0 -72 4.83301 -139.5 14.5 -202.5s24.667 -120.667 45 -173s46.333 -99.166 78 -140.499s69.5 -76.333 113.5 -105s94.333 -50.5 151 -65.5s120.667 -22.5 192 -22.5z" />
    <glyph glyph-name="ntilde" unicode="&#xf1;" horiz-adv-x="2470" 
d="M1765 0v1413c0 76.667 -9.5 142.167 -28.5 196.5s-47 98.833 -84 133.5s-82.833 60 -137.5 76s-117.334 24 -188.001 24c-56 0 -109.667 -3.83301 -161 -11.5s-100.833 -19.5 -148.5 -35.5s-94.334 -36.333 -140.001 -61s-91.167 -54 -136.5 -88v-1647h-360v2101h328
l24 -192c42.667 36.667 88.5 69.834 137.5 99.501s101 55 156 76s113.333 37.167 175 48.5s126.834 17 195.501 17c80 0 153.5 -6.5 220.5 -19.5s127.5 -32.167 181.5 -57.5s101.333 -57 142 -95s74.834 -82.333 102.501 -133s48.334 -107.167 62 -169.5
c13.667 -62.333 20.5 -130.833 20.5 -205.5v-1470h-361zM1974 2929c0 -78 -10.6641 -148.168 -31.9971 -210.501s-50.833 -115.166 -88.5 -158.5c-37.667 -43.333 -82.167 -76.666 -133.5 -99.999s-107.333 -35 -168 -35c-38 0 -74 5 -108 15s-66.167 22.667 -96.5 38
s-59.333 31.833 -87 49.5l-80 49.5c-25.667 15.333 -50.334 28 -74.001 38s-47.167 15 -70.5 15c-32 0 -58.667 -5.5 -80 -16.5s-39 -25.667 -53 -44s-24.667 -39.333 -32 -63s-12.333 -48.167 -15 -73.5h-250c0 78 10.167 148 30.5 210s49 114.833 86 158.5
s81.167 77.167 132.5 100.5s107.666 35 168.999 35c37.333 0 73 -5 107 -15s66.333 -22.667 97 -38s60 -31.833 88 -49.5l81 -49.5c26 -15.333 51.167 -28 75.5 -38s48.166 -15 71.499 -15c32 0 58.667 5.5 80 16.5s39 25.5 53 43.5s24.5 38.833 31.5 62.5
s12.167 48.5 15.5 74.5h250z" />
    <glyph glyph-name="ograve" unicode="&#xf2;" horiz-adv-x="2384" 
d="M1192 -49c-118 0 -223.835 12.833 -317.502 38.5s-176.167 62.167 -247.5 109.5s-132.5 104.166 -183.5 170.499s-92.667 140.166 -125 221.499s-56 169 -71 263s-22.5 192.333 -22.5 295s8.16699 201.334 24.5 296.001s41.5 182.667 75.5 264s77 155.333 129 222
s113.833 123.667 185.5 171s153.334 83.833 245.001 109.5s194.167 38.5 307.5 38.5c118.667 0 225 -12.833 319 -38.5s176.833 -62.167 248.5 -109.5s132.834 -104.333 183.501 -171s92 -140.667 124 -222s55.333 -169.333 70 -264s22 -193.334 22 -296.001
s-8 -201 -24 -295s-40.833 -181.667 -74.5 -263s-76.5 -155.166 -128.5 -221.499s-113.833 -123.166 -185.5 -170.499s-153.5 -83.833 -245.5 -109.5s-195 -38.5 -309 -38.5zM1192 254c110.667 0 203.834 19.5 279.501 58.5s136.834 93.667 183.501 164
s80.167 154.166 100.5 251.499s30.5 204.333 30.5 321c0 118 -10.167 226.333 -30.5 325s-53.833 183.667 -100.5 255s-107.834 126.833 -183.501 166.5s-168.834 59.5 -279.501 59.5c-109.333 0 -201.833 -19.833 -277.5 -59.5s-137 -95.167 -184 -166.5
s-80.833 -156.333 -101.5 -255s-31 -207 -31 -325c0 -116.667 10.333 -223.667 31 -321s54.5 -181.166 101.5 -251.499s108.333 -125 184 -164s168.167 -58.5 277.5 -58.5zM1041 2408l-549 574h483l393 -574h-327z" />
    <glyph glyph-name="oacute" unicode="&#xf3;" horiz-adv-x="2384" 
d="M1192 -49c-118 0 -223.835 12.833 -317.502 38.5s-176.167 62.167 -247.5 109.5s-132.5 104.166 -183.5 170.499s-92.667 140.166 -125 221.499s-56 169 -71 263s-22.5 192.333 -22.5 295s8.16699 201.334 24.5 296.001s41.5 182.667 75.5 264s77 155.333 129 222
s113.833 123.667 185.5 171s153.334 83.833 245.001 109.5s194.167 38.5 307.5 38.5c118.667 0 225 -12.833 319 -38.5s176.833 -62.167 248.5 -109.5s132.834 -104.333 183.501 -171s92 -140.667 124 -222s55.333 -169.333 70 -264s22 -193.334 22 -296.001
s-8 -201 -24 -295s-40.833 -181.667 -74.5 -263s-76.5 -155.166 -128.5 -221.499s-113.833 -123.166 -185.5 -170.499s-153.5 -83.833 -245.5 -109.5s-195 -38.5 -309 -38.5zM1192 254c110.667 0 203.834 19.5 279.501 58.5s136.834 93.667 183.501 164
s80.167 154.166 100.5 251.499s30.5 204.333 30.5 321c0 118 -10.167 226.333 -30.5 325s-53.833 183.667 -100.5 255s-107.834 126.833 -183.501 166.5s-168.834 59.5 -279.501 59.5c-109.333 0 -201.833 -19.833 -277.5 -59.5s-137 -95.167 -184 -166.5
s-80.833 -156.333 -101.5 -255s-31 -207 -31 -325c0 -116.667 10.333 -223.667 31 -321s54.5 -181.166 101.5 -251.499s108.333 -125 184 -164s168.167 -58.5 277.5 -58.5zM1012 2408l393 574h475l-545 -574h-323z" />
    <glyph glyph-name="ocircumflex" unicode="&#xf4;" horiz-adv-x="2384" 
d="M1192 -49c-118 0 -223.835 12.833 -317.502 38.5s-176.167 62.167 -247.5 109.5s-132.5 104.166 -183.5 170.499s-92.667 140.166 -125 221.499s-56 169 -71 263s-22.5 192.333 -22.5 295s8.16699 201.334 24.5 296.001s41.5 182.667 75.5 264s77 155.333 129 222
s113.833 123.667 185.5 171s153.334 83.833 245.001 109.5s194.167 38.5 307.5 38.5c118.667 0 225 -12.833 319 -38.5s176.833 -62.167 248.5 -109.5s132.834 -104.333 183.501 -171s92 -140.667 124 -222s55.333 -169.333 70 -264s22 -193.334 22 -296.001
s-8 -201 -24 -295s-40.833 -181.667 -74.5 -263s-76.5 -155.166 -128.5 -221.499s-113.833 -123.166 -185.5 -170.499s-153.5 -83.833 -245.5 -109.5s-195 -38.5 -309 -38.5zM1192 254c110.667 0 203.834 19.5 279.501 58.5s136.834 93.667 183.501 164
s80.167 154.166 100.5 251.499s30.5 204.333 30.5 321c0 118 -10.167 226.333 -30.5 325s-53.833 183.667 -100.5 255s-107.834 126.833 -183.501 166.5s-168.834 59.5 -279.501 59.5c-109.333 0 -201.833 -19.833 -277.5 -59.5s-137 -95.167 -184 -166.5
s-80.833 -156.333 -101.5 -255s-31 -207 -31 -325c0 -116.667 10.333 -223.667 31 -321s54.5 -181.166 101.5 -251.499s108.333 -125 184 -164s168.167 -58.5 277.5 -58.5zM1467 2408l-281 329l-281 -329h-327l393 574h430l393 -574h-327z" />
    <glyph glyph-name="otilde" unicode="&#xf5;" horiz-adv-x="2384" 
d="M1192 -49c-118 0 -223.835 12.833 -317.502 38.5s-176.167 62.167 -247.5 109.5s-132.5 104.166 -183.5 170.499s-92.667 140.166 -125 221.499s-56 169 -71 263s-22.5 192.333 -22.5 295s8.16699 201.334 24.5 296.001s41.5 182.667 75.5 264s77 155.333 129 222
s113.833 123.667 185.5 171s153.334 83.833 245.001 109.5s194.167 38.5 307.5 38.5c118.667 0 225 -12.833 319 -38.5s176.833 -62.167 248.5 -109.5s132.834 -104.333 183.501 -171s92 -140.667 124 -222s55.333 -169.333 70 -264s22 -193.334 22 -296.001
s-8 -201 -24 -295s-40.833 -181.667 -74.5 -263s-76.5 -155.166 -128.5 -221.499s-113.833 -123.166 -185.5 -170.499s-153.5 -83.833 -245.5 -109.5s-195 -38.5 -309 -38.5zM1192 254c110.667 0 203.834 19.5 279.501 58.5s136.834 93.667 183.501 164
s80.167 154.166 100.5 251.499s30.5 204.333 30.5 321c0 118 -10.167 226.333 -30.5 325s-53.833 183.667 -100.5 255s-107.834 126.833 -183.501 166.5s-168.834 59.5 -279.501 59.5c-109.333 0 -201.833 -19.833 -277.5 -59.5s-137 -95.167 -184 -166.5
s-80.833 -156.333 -101.5 -255s-31 -207 -31 -325c0 -116.667 10.333 -223.667 31 -321s54.5 -181.166 101.5 -251.499s108.333 -125 184 -164s168.167 -58.5 277.5 -58.5zM1909 2929c0 -78 -10.6641 -148.167 -31.9971 -210.5s-50.833 -115.166 -88.5 -158.5
c-37.667 -43.333 -82.167 -76.666 -133.5 -100c-51.333 -23.333 -107.333 -35 -168 -35c-38 0 -74 5 -108 15s-66.167 22.667 -96.5 38s-59.333 31.833 -87 49.5l-80 49.5c-25.667 15.333 -50.334 28 -74.001 38s-47.167 15 -70.5 15c-32 0 -58.667 -5.5 -80 -16.5
s-39 -25.667 -53 -44s-24.667 -39.333 -32 -63s-12.333 -48.167 -15 -73.5h-250c0 78 10.167 148 30.5 210s49 114.833 86 158.5s81.167 77.167 132.5 100.5s107.666 35 168.999 35c37.333 0 73 -5 107 -15s66.333 -22.667 97 -38s60 -31.833 88 -49.5l81 -49.5
c26 -15.333 51.167 -28 75.5 -38s48.166 -15 71.499 -15c32 0 58.667 5.5 80 16.5s39 25.5 53 43.5s24.5 38.833 31.5 62.5s12.167 48.5 15.5 74.5h250z" />
    <glyph glyph-name="odieresis" unicode="&#xf6;" horiz-adv-x="2384" 
d="M1192 -49c-118 0 -223.835 12.833 -317.502 38.5s-176.167 62.167 -247.5 109.5s-132.5 104.166 -183.5 170.499s-92.667 140.166 -125 221.499s-56 169 -71 263s-22.5 192.333 -22.5 295s8.16699 201.334 24.5 296.001s41.5 182.667 75.5 264s77 155.333 129 222
s113.833 123.667 185.5 171s153.334 83.833 245.001 109.5s194.167 38.5 307.5 38.5c118.667 0 225 -12.833 319 -38.5s176.833 -62.167 248.5 -109.5s132.834 -104.333 183.501 -171s92 -140.667 124 -222s55.333 -169.333 70 -264s22 -193.334 22 -296.001
s-8 -201 -24 -295s-40.833 -181.667 -74.5 -263s-76.5 -155.166 -128.5 -221.499s-113.833 -123.166 -185.5 -170.499s-153.5 -83.833 -245.5 -109.5s-195 -38.5 -309 -38.5zM1192 254c110.667 0 203.834 19.5 279.501 58.5s136.834 93.667 183.501 164
s80.167 154.166 100.5 251.499s30.5 204.333 30.5 321c0 118 -10.167 226.333 -30.5 325s-53.833 183.667 -100.5 255s-107.834 126.833 -183.501 166.5s-168.834 59.5 -279.501 59.5c-109.333 0 -201.833 -19.833 -277.5 -59.5s-137 -95.167 -184 -166.5
s-80.833 -156.333 -101.5 -255s-31 -207 -31 -325c0 -116.667 10.333 -223.667 31 -321s54.5 -181.166 101.5 -251.499s108.333 -125 184 -164s168.167 -58.5 277.5 -58.5zM593.998 2503v409h393v-409h-393zM1389 2503v409h393v-409h-393z" />
    <glyph glyph-name="divide" unicode="&#xf7;" horiz-adv-x="2408" 
d="M197 1073v295h2015v-295h-2015zM975 1769v447h455v-447h-455zM975 209v446h455v-446h-455z" />
    <glyph glyph-name="oslash" unicode="&#xf8;" horiz-adv-x="2384" 
d="M181 -41l248.999 323.997c-36 48.667 -66.833 102 -92.5 160s-46.667 119.5 -63 184.5s-28.5 132.833 -36.5 203.5s-12 143.334 -12 218.001c0 102.667 8.16699 201.334 24.5 296.001s41.333 182.667 75 264s76.5 155.333 128.5 222s113.833 123.667 185.5 171
s153.334 83.833 245.001 109.5s194.167 38.5 307.5 38.5c118.667 0 225.334 -13 320.001 -39s178 -63.333 250 -112l110 143h332l-254 -323c36.667 -49.333 68.167 -103 94.5 -161s48 -119.5 65 -184.5s29.5 -133 37.5 -204s12 -144.5 12 -220.5
c0 -102.667 -8 -201 -24 -295s-40.833 -181.667 -74.5 -263s-76.5 -155.166 -128.5 -221.499s-113.833 -123.166 -185.5 -170.499s-153.5 -83.833 -245.5 -109.5s-195 -38.5 -309 -38.5c-118.667 0 -225.334 12.667 -320.001 38s-177.667 61.666 -249 108.999l-107 -139
h-335zM827.999 364.997c45.333 -35.333 97.8311 -62.666 157.498 -81.999s128.5 -29 206.5 -29c110.667 0 203.834 19.5 279.501 58.5s136.834 93.667 183.501 164s80.167 154.166 100.5 251.499s30.5 204.333 30.5 321c0 88.667 -6 171.167 -18 247.5
s-30.667 146.5 -56 210.5zM1557 1737c-45.333 39.333 -97.832 68.832 -157.499 88.499s-128.834 29.5 -207.501 29.5c-109.333 0 -201.833 -19.833 -277.5 -59.5s-137 -95.167 -184 -166.5s-80.833 -156.333 -101.5 -255s-31 -207 -31 -325
c0 -89.333 5.5 -172.166 16.5 -248.499s28.833 -146.5 53.5 -210.5z" />
    <glyph glyph-name="ugrave" unicode="&#xf9;" horiz-adv-x="2433" 
d="M1724 0l-23.998 168.001c-42 -32.667 -86.333 -62.334 -133 -89.001s-96 -49.5 -148 -68.5s-106.833 -33.667 -164.5 -44s-118.167 -15.5 -181.5 -15.5c-80 0 -153.5 6.5 -220.5 19.5s-127.5 32.167 -181.5 57.5s-101.333 57 -142 95s-74.834 82.333 -102.501 133
s-48.334 107.167 -62.001 169.5s-20.5 130.833 -20.5 205.5v1470h361v-1413c0 -76.667 9.33301 -142.5 28 -197.5s46.5 -100 83.5 -135s82.667 -60.667 137 -77s117.5 -24.5 189.5 -24.5c52 0 101.833 3.16699 149.5 9.5s94 16.166 139 29.499s88.833 30.333 131.5 51
s85.667 45.334 129 74.001v1683h360v-2101h-328zM1049 2408l-549 574h483l393 -574h-327z" />
    <glyph glyph-name="uacute" unicode="&#xfa;" horiz-adv-x="2433" 
d="M1724 0l-23.998 168.001c-42 -32.667 -86.333 -62.334 -133 -89.001s-96 -49.5 -148 -68.5s-106.833 -33.667 -164.5 -44s-118.167 -15.5 -181.5 -15.5c-80 0 -153.5 6.5 -220.5 19.5s-127.5 32.167 -181.5 57.5s-101.333 57 -142 95s-74.834 82.333 -102.501 133
s-48.334 107.167 -62.001 169.5s-20.5 130.833 -20.5 205.5v1470h361v-1413c0 -76.667 9.33301 -142.5 28 -197.5s46.5 -100 83.5 -135s82.667 -60.667 137 -77s117.5 -24.5 189.5 -24.5c52 0 101.833 3.16699 149.5 9.5s94 16.166 139 29.499s88.833 30.333 131.5 51
s85.667 45.334 129 74.001v1683h360v-2101h-328zM1020 2408l393 574h475l-545 -574h-323z" />
    <glyph glyph-name="ucircumflex" unicode="&#xfb;" horiz-adv-x="2433" 
d="M1724 0l-23.998 168.001c-42 -32.667 -86.333 -62.334 -133 -89.001s-96 -49.5 -148 -68.5s-106.833 -33.667 -164.5 -44s-118.167 -15.5 -181.5 -15.5c-80 0 -153.5 6.5 -220.5 19.5s-127.5 32.167 -181.5 57.5s-101.333 57 -142 95s-74.834 82.333 -102.501 133
s-48.334 107.167 -62.001 169.5s-20.5 130.833 -20.5 205.5v1470h361v-1413c0 -76.667 9.33301 -142.5 28 -197.5s46.5 -100 83.5 -135s82.667 -60.667 137 -77s117.5 -24.5 189.5 -24.5c52 0 101.833 3.16699 149.5 9.5s94 16.166 139 29.499s88.833 30.333 131.5 51
s85.667 45.334 129 74.001v1683h360v-2101h-328zM1475 2408l-281 329l-281 -329h-327l393 574h430l393 -574h-327z" />
    <glyph glyph-name="udieresis" unicode="&#xfc;" horiz-adv-x="2433" 
d="M1724 0l-23.998 168.001c-42 -32.667 -86.333 -62.334 -133 -89.001s-96 -49.5 -148 -68.5s-106.833 -33.667 -164.5 -44s-118.167 -15.5 -181.5 -15.5c-80 0 -153.5 6.5 -220.5 19.5s-127.5 32.167 -181.5 57.5s-101.333 57 -142 95s-74.834 82.333 -102.501 133
s-48.334 107.167 -62.001 169.5s-20.5 130.833 -20.5 205.5v1470h361v-1413c0 -76.667 9.33301 -142.5 28 -197.5s46.5 -100 83.5 -135s82.667 -60.667 137 -77s117.5 -24.5 189.5 -24.5c52 0 101.833 3.16699 149.5 9.5s94 16.166 139 29.499s88.833 30.333 131.5 51
s85.667 45.334 129 74.001v1683h360v-2101h-328zM602.002 2503v409h393v-409h-393zM1397 2503v409h393v-409h-393z" />
    <glyph glyph-name="yacute" unicode="&#xfd;" horiz-adv-x="1995" 
d="M4 -647c16.667 -2 36.167 -3.83398 58.5 -5.50098s47.833 -2.5 76.5 -2.5c52.667 0 102.167 3.66699 148.5 11s89.833 19.666 130.5 36.999s79 40.333 115 69s70 64.5 102 107.5s62.167 93.833 90.5 152.5s55.5 126.667 81.5 204l12 45l-774 2130h385l488 -1478l44 -153
c15.333 -54 29.333 -111 42 -171c10 60 23.333 116.833 40 170.5s33.334 103.167 50.001 148.5l487 1483h373l-807 -2224c-36.667 -101.333 -74.334 -192.666 -113.001 -273.999s-79.667 -153 -123 -215s-90 -115.167 -140 -159.5s-104.833 -80.666 -164.5 -108.999
s-125 -49.166 -196 -62.499s-149.167 -20 -234.5 -20c-14 0 -28.833 0.5 -44.5 1.5s-31 2.5 -46 4.5s-29.5 4.16699 -43.5 6.5s-26.667 5.16602 -38 8.49902v295zM824 2408l393 574h475l-545 -574h-323z" />
    <glyph glyph-name="thorn" unicode="&#xfe;" horiz-adv-x="2470" 
d="M381 -934l-0.00195312 4039h360v-1180c42 34 86.667 64.833 134 92.5s97.5 51.334 150.5 71.001s109 34.834 168 45.5c59 10.667 121.167 16 186.5 16c136 0 257 -21.833 363 -65.5s195.167 -110 267.5 -199s127.333 -200.667 165 -335s56.5 -292.166 56.5 -473.499
c0 -123.333 -9.83301 -236.833 -29.5 -340.5s-48 -197.167 -85 -280.5s-82.167 -156.5 -135.5 -219.5s-113.666 -115.667 -180.999 -158s-141.166 -74.166 -221.499 -95.499s-165.833 -32 -256.5 -32c-61.333 0 -119 3.5 -173 10.5s-105 17.5 -153 31.5
s-93.167 31.5 -135.5 52.5s-82.5 45.5 -120.5 73.5v-1053h-360zM740.998 392.997c40.667 -25.333 81.999 -46.667 123.999 -64s85.167 -31.333 129.5 -42s90.333 -18.167 138 -22.5s97.5 -6.5 149.5 -6.5c95.333 0 179 17.167 251 51.5s132.333 85 181 152
s85.167 149.667 109.5 248s36.5 211.5 36.5 339.5c0 128.667 -11.333 242.5 -34 341.5s-57.334 182 -104.001 249s-105.167 117.667 -175.5 152s-153.166 51.5 -248.499 51.5c-54 0 -105.667 -3.33301 -155 -10s-96.666 -17 -141.999 -31s-89.5 -31.833 -132.5 -53.5
s-85.5 -47.5 -127.5 -77.5v-1278z" />
    <glyph glyph-name="ydieresis" unicode="&#xff;" horiz-adv-x="1995" 
d="M4 -647c16.667 -2 36.167 -3.83398 58.5 -5.50098s47.833 -2.5 76.5 -2.5c52.667 0 102.167 3.66699 148.5 11s89.833 19.666 130.5 36.999s79 40.333 115 69s70 64.5 102 107.5s62.167 93.833 90.5 152.5s55.5 126.667 81.5 204l12 45l-774 2130h385l488 -1478l44 -153
c15.333 -54 29.333 -111 42 -171c10 60 23.333 116.833 40 170.5s33.334 103.167 50.001 148.5l487 1483h373l-807 -2224c-36.667 -101.333 -74.334 -192.666 -113.001 -273.999s-79.667 -153 -123 -215s-90 -115.167 -140 -159.5s-104.833 -80.666 -164.5 -108.999
s-125 -49.166 -196 -62.499s-149.167 -20 -234.5 -20c-14 0 -28.833 0.5 -44.5 1.5s-31 2.5 -46 4.5s-29.5 4.16699 -43.5 6.5s-26.667 5.16602 -38 8.49902v295zM405 2503v409h393v-409h-393zM1200 2503v409h393v-409h-393z" />
    <glyph glyph-name="Amacron" unicode="&#x100;" horiz-adv-x="2671" 
d="M2191 0l-254 758h-1224l-254 -758h-381l1052 2966h402l1061 -2966h-402zM1430 2269c-20.667 58 -40.332 119.167 -58.999 183.5s-33.334 131.5 -44.001 201.5c-12 -70 -28.167 -137.167 -48.5 -201.5l-57.5 -183.5l-402 -1188h1008zM782.002 3257v311h1106v-311h-1106z
" />
    <glyph glyph-name="amacron" unicode="&#x101;" horiz-adv-x="2232" 
d="M1561 0l-24.999 168.004c-42 -32.667 -86.667 -62.334 -134 -89.001s-97.333 -49.5 -150 -68.5s-108.167 -33.667 -166.5 -44s-119.833 -15.5 -184.5 -15.5c-102 0 -194.833 13.833 -278.5 41.5s-155.334 67.167 -215.001 118.5s-105.667 113.666 -138 186.999
s-48.5 155.666 -48.5 246.999c0 75.333 10.667 144.333 32 207s53 118.667 95 168s94 92.333 156 129s133.667 67 215 91s172.166 42 272.499 54s209.5 18 327.5 18h79.5h68.5h61v144c0 86 -9.33301 159.5 -28 220.5s-47.834 111 -87.501 150s-90.667 67.5 -153 85.5
s-136.833 27 -223.5 27c-69.333 0 -136.166 -4.83301 -200.499 -14.5s-125 -22 -182 -37s-109.5 -31.833 -157.5 -50.5s-90.333 -36.667 -127 -54v291c42.667 23.333 90.5 45.666 143.5 66.999s109.5 40 169.5 56s123.167 28.833 189.5 38.5s134.833 14.5 205.5 14.5
c120.667 0 230.834 -12.667 330.501 -38s185.167 -66.833 256.5 -124.5s126.5 -133.5 165.5 -227.5s58.5 -209.667 58.5 -347v-1413h-327zM1528 946.004h-156c-139.333 0 -258.333 -8.16699 -357 -24.5s-179.5 -40.833 -242.5 -73.5s-109.167 -73.667 -138.5 -123
s-44 -106.666 -44 -171.999c0 -49.333 8.16699 -92.833 24.5 -130.5s40.666 -69.334 72.999 -95.001s72.833 -45 121.5 -58s105.334 -19.5 170.001 -19.5c52 0 102 3.33301 150 10s94.5 17 139.5 31s89 31.5 132 52.5s85.5 45.833 127.5 74.5v528zM545.001 2503v311h1106
v-311h-1106z" />
    <glyph glyph-name="Abreve" unicode="&#x102;" horiz-adv-x="2671" 
d="M2191 0l-254 758h-1224l-254 -758h-381l1052 2966h402l1061 -2966h-402zM1430 2269c-20.667 58 -40.332 119.167 -58.999 183.5s-33.334 131.5 -44.001 201.5c-12 -70 -28.167 -137.167 -48.5 -201.5l-57.5 -183.5l-402 -1188h1008zM1941 3736
c-2 -88.667 -17.8291 -169.167 -47.4961 -241.5s-70.834 -134.333 -123.501 -186s-115.834 -91.667 -189.501 -120s-155.5 -42.5 -245.5 -42.5c-91.333 0 -173.833 14.167 -247.5 42.5s-136.834 68.333 -189.501 120s-93.5 113.667 -122.5 186s-44.5 152.833 -46.5 241.5
h274c5.33301 -49.333 17 -93 35 -131s41.333 -70 70 -96s62.167 -45.833 100.5 -59.5s80.5 -20.5 126.5 -20.5c44.667 0 86.167 6.83301 124.5 20.5s72 33.5 101 59.5s52.667 58 71 96s30.166 81.667 35.499 131h274z" />
    <glyph glyph-name="abreve" unicode="&#x103;" horiz-adv-x="2232" 
d="M1561 0l-24.999 168.004c-42 -32.667 -86.667 -62.334 -134 -89.001s-97.333 -49.5 -150 -68.5s-108.167 -33.667 -166.5 -44s-119.833 -15.5 -184.5 -15.5c-102 0 -194.833 13.833 -278.5 41.5s-155.334 67.167 -215.001 118.5s-105.667 113.666 -138 186.999
s-48.5 155.666 -48.5 246.999c0 75.333 10.667 144.333 32 207s53 118.667 95 168s94 92.333 156 129s133.667 67 215 91s172.166 42 272.499 54s209.5 18 327.5 18h79.5h68.5h61v144c0 86 -9.33301 159.5 -28 220.5s-47.834 111 -87.501 150s-90.667 67.5 -153 85.5
s-136.833 27 -223.5 27c-69.333 0 -136.166 -4.83301 -200.499 -14.5s-125 -22 -182 -37s-109.5 -31.833 -157.5 -50.5s-90.333 -36.667 -127 -54v291c42.667 23.333 90.5 45.666 143.5 66.999s109.5 40 169.5 56s123.167 28.833 189.5 38.5s134.833 14.5 205.5 14.5
c120.667 0 230.834 -12.667 330.501 -38s185.167 -66.833 256.5 -124.5s126.5 -133.5 165.5 -227.5s58.5 -209.667 58.5 -347v-1413h-327zM1528 946.004h-156c-139.333 0 -258.333 -8.16699 -357 -24.5s-179.5 -40.833 -242.5 -73.5s-109.167 -73.667 -138.5 -123
s-44 -106.666 -44 -171.999c0 -49.333 8.16699 -92.833 24.5 -130.5s40.666 -69.334 72.999 -95.001s72.833 -45 121.5 -58s105.334 -19.5 170.001 -19.5c52 0 102 3.33301 150 10s94.5 17 139.5 31s89 31.5 132 52.5s85.5 45.833 127.5 74.5v528zM1704 2982
c-2 -88.667 -17.8291 -169.167 -47.4961 -241.5s-70.834 -134.333 -123.501 -186s-115.834 -91.667 -189.501 -120s-155.5 -42.5 -245.5 -42.5c-91.333 0 -173.833 14.167 -247.5 42.5s-136.834 68.333 -189.501 120s-93.5 113.667 -122.5 186s-44.5 152.833 -46.5 241.5
h274c5.33301 -49.333 17 -93 35 -131s41.333 -70 70 -96s62.167 -45.833 100.5 -59.5s80.5 -20.5 126.5 -20.5c44.667 0 86.167 6.83301 124.5 20.5s72 33.5 101 59.5s52.667 58 71 96s30.166 81.667 35.499 131h274z" />
    <glyph glyph-name="Aogonek" unicode="&#x104;" horiz-adv-x="2671" 
d="M2576 -811c-32.667 -8 -67.832 -14.1631 -105.498 -18.4961c-37.667 -4.33301 -76.167 -6.5 -115.5 -6.5c-84 0 -155.833 10.667 -215.5 32s-108.334 49.166 -146.001 83.499s-65.334 73.666 -83.001 117.999s-26.5 89.5 -26.5 135.5
c0 49.333 8.16699 95.666 24.5 138.999s38.333 84.166 66 122.499s60.167 74.5 97.5 108.5s77 66.333 119 97l-254 758h-1224l-254 -758h-381l1052 2966h402l1061 -2966h-156c-36.667 -36.667 -70.334 -72.5 -101 -107.5c-30.667 -35 -57 -69.333 -79 -103
s-39.167 -66.667 -51.5 -99s-18.5 -64.5 -18.5 -96.5c0 -67.333 21.333 -117.5 64 -150.5s102 -49.5 178 -49.5c15.333 0 29.666 0.5 43 1.5c13.333 1 26 2.16699 38 3.5s23.5 3 34.5 5l31.5 6v-221zM1430 2269c-20.667 58 -40.332 119.167 -58.999 183.5
s-33.334 131.5 -44.001 201.5c-12 -70 -28.167 -137.167 -48.5 -201.5l-57.5 -183.5l-402 -1188h1008z" />
    <glyph glyph-name="aogonek" unicode="&#x105;" horiz-adv-x="2232" 
d="M1946 -811c-33.333 -8 -68.8311 -14.1592 -106.498 -18.4922s-76.167 -6.5 -115.5 -6.5c-84 0 -155.667 10.667 -215 32s-108 49.166 -146 83.499s-65.833 73.666 -83.5 117.999s-26.5 89.5 -26.5 135.5c0 49.333 8.16699 95.666 24.5 138.999s38.5 84.166 66.5 122.499
s60.667 74.5 98 108.5s77 66.333 119 97l-25 168c-42 -32.667 -86.667 -62.334 -134 -89.001s-97.333 -49.5 -150 -68.5s-108.167 -33.667 -166.5 -44s-119.833 -15.5 -184.5 -15.5c-102 0 -194.833 13.833 -278.5 41.5s-155.334 67.167 -215.001 118.5
s-105.667 113.666 -138 186.999s-48.5 155.666 -48.5 246.999c0 75.333 10.667 144.333 32 207s53 118.667 95 168s94 92.333 156 129s133.667 67 215 91s172.166 42 272.499 54s209.5 18 327.5 18h79.5h68.5h61v144c0 86 -9.33301 159.5 -28 220.5s-47.834 111 -87.501 150
s-90.667 67.5 -153 85.5s-136.833 27 -223.5 27c-69.333 0 -136.166 -4.83301 -200.499 -14.5s-125 -22 -182 -37s-109.5 -31.833 -157.5 -50.5s-90.333 -36.667 -127 -54v291c42.667 23.333 90.5 45.666 143.5 66.999s109.5 40 169.5 56s123.167 28.833 189.5 38.5
s134.833 14.5 205.5 14.5c120.667 0 230.834 -12.667 330.501 -38s185.167 -66.833 256.5 -124.5s126.5 -133.5 165.5 -227.5s58.5 -209.667 58.5 -347v-1413h-82c-36.667 -36.667 -70.334 -72.5 -101.001 -107.5s-57 -69.333 -79 -103s-39.167 -66.667 -51.5 -99
s-18.5 -64.5 -18.5 -96.5c0 -67.333 21.5 -117.5 64.5 -150.5s102.167 -49.5 177.5 -49.5c15.333 0 29.833 0.5 43.5 1.5s26.5 2.16699 38.5 3.5s23.5 3 34.5 5l31.5 6v-221zM1528 946.008h-156c-139.333 0 -258.333 -8.16699 -357 -24.5s-179.5 -40.833 -242.5 -73.5
s-109.167 -73.667 -138.5 -123s-44 -106.666 -44 -171.999c0 -49.333 8.16699 -92.833 24.5 -130.5s40.666 -69.334 72.999 -95.001s72.833 -45 121.5 -58s105.334 -19.5 170.001 -19.5c52 0 102 3.33301 150 10s94.5 17 139.5 31s89 31.5 132 52.5s85.5 45.833 127.5 74.5
v528z" />
    <glyph glyph-name="Cacute" unicode="&#x106;" horiz-adv-x="2454" 
d="M2265 98c-51.333 -23.333 -104.5 -44.1689 -159.5 -62.502s-115 -33.833 -180 -46.5s-136 -22.167 -213 -28.5s-163.167 -9.5 -258.5 -9.5c-127.333 0 -245.166 14.667 -353.499 44s-207 72.833 -296 130.5s-167.667 129.5 -236 215.5s-125.833 185.833 -172.5 299.5
s-82 241.167 -106 382.5s-36 296 -36 464c0 150.667 10.833 293.167 32.5 427.5s54.5 258 98.5 371s99.333 214.667 166 305s145 166.833 235 229.5s191.5 110.834 304.5 144.5c113 33.667 238.167 50.5 375.5 50.5c76.667 0 151.834 -3.83301 225.501 -11.5
s143.5 -18.5 209.5 -32.5s127.167 -31.167 183.5 -51.5s105.5 -43.166 147.5 -68.5v-328c-43.333 22.667 -92.666 43.5 -148 62.5c-55.333 19 -115 35.5 -179 49.5s-131.667 24.833 -203 32.5s-144.333 11.5 -219 11.5c-98 0 -187 -12.167 -267 -36.5
s-151.333 -60 -214 -107s-116.834 -104.667 -162.501 -173s-83.334 -146.666 -113.001 -234.999s-51.667 -186.166 -66 -293.499s-21.5 -223 -21.5 -347c0 -139.333 9.16699 -266 27.5 -380s45 -215.667 80 -305s77.833 -166.833 128.5 -232.5s108.167 -120 172.5 -163
s135 -75 212 -96s159.5 -31.5 247.5 -31.5c80 0 154.5 3 223.5 9s134.167 14.833 195.5 26.5s119.833 26.167 175.5 43.5s110.167 37.333 163.5 60v-320zM1299 3162l393 574h475l-545 -574h-323z" />
    <glyph glyph-name="cacute" unicode="&#x107;" horiz-adv-x="1942" 
d="M1757 98c-32 -19.333 -70 -38.0029 -114 -56.0029s-92.333 -33.667 -145 -47s-108.667 -24 -168 -32s-120.333 -12 -183 -12c-146.667 0 -276.5 24 -389.5 72s-208 119.333 -285 214s-135.333 211.834 -175 351.501s-59.5 301.167 -59.5 484.5
c0 106 8.66699 206.167 26 300.5s43.333 181.333 78 261s77.834 151.334 129.501 215.001s112 117.834 181 162.501s146.667 78.834 233 102.5c86.333 23.667 181.5 35.5 285.5 35.5c55.333 0 109.666 -2.66699 162.999 -8s103.666 -13.166 150.999 -23.5
c47.333 -10.333 91.333 -22.833 132 -37.5s76.334 -31 107.001 -49v-312c-32 15.333 -68.333 30 -109 44s-84.5 26.167 -131.5 36.5s-96.5 18.666 -148.5 24.999s-105 9.5 -159 9.5c-96 0 -179.5 -17.5 -250.5 -52.5s-129.833 -85.167 -176.5 -150.5
s-81.5 -145.166 -104.5 -239.499s-34.5 -200.833 -34.5 -319.5c0 -137.333 12.5 -256.333 37.5 -357s61.333 -184 109 -250s106 -115.167 175 -147.5s147.5 -48.5 235.5 -48.5c72 0 136.667 3.83301 194 11.5s109.5 17.5 156.5 29.5s90 25.5 129 40.5
s75.833 30.167 110.5 45.5v-299zM955 2408l393 574h475l-545 -574h-323z" />
    <glyph glyph-name="Ccircumflex" unicode="&#x108;" horiz-adv-x="2454" 
d="M2265 98c-51.333 -23.333 -104.5 -44.1689 -159.5 -62.502s-115 -33.833 -180 -46.5s-136 -22.167 -213 -28.5s-163.167 -9.5 -258.5 -9.5c-127.333 0 -245.166 14.667 -353.499 44s-207 72.833 -296 130.5s-167.667 129.5 -236 215.5s-125.833 185.833 -172.5 299.5
s-82 241.167 -106 382.5s-36 296 -36 464c0 150.667 10.833 293.167 32.5 427.5s54.5 258 98.5 371s99.333 214.667 166 305s145 166.833 235 229.5s191.5 110.834 304.5 144.5c113 33.667 238.167 50.5 375.5 50.5c76.667 0 151.834 -3.83301 225.501 -11.5
s143.5 -18.5 209.5 -32.5s127.167 -31.167 183.5 -51.5s105.5 -43.166 147.5 -68.5v-328c-43.333 22.667 -92.666 43.5 -148 62.5c-55.333 19 -115 35.5 -179 49.5s-131.667 24.833 -203 32.5s-144.333 11.5 -219 11.5c-98 0 -187 -12.167 -267 -36.5
s-151.333 -60 -214 -107s-116.834 -104.667 -162.501 -173s-83.334 -146.666 -113.001 -234.999s-51.667 -186.166 -66 -293.499s-21.5 -223 -21.5 -347c0 -139.333 9.16699 -266 27.5 -380s45 -215.667 80 -305s77.833 -166.833 128.5 -232.5s108.167 -120 172.5 -163
s135 -75 212 -96s159.5 -31.5 247.5 -31.5c80 0 154.5 3 223.5 9s134.167 14.833 195.5 26.5s119.833 26.167 175.5 43.5s110.167 37.333 163.5 60v-320zM1754 3162l-281 329l-281 -329h-327l393 574h430l393 -574h-327z" />
    <glyph glyph-name="ccircumflex" unicode="&#x109;" horiz-adv-x="1942" 
d="M1757 98c-32 -19.333 -70 -38.0029 -114 -56.0029s-92.333 -33.667 -145 -47s-108.667 -24 -168 -32s-120.333 -12 -183 -12c-146.667 0 -276.5 24 -389.5 72s-208 119.333 -285 214s-135.333 211.834 -175 351.501s-59.5 301.167 -59.5 484.5
c0 106 8.66699 206.167 26 300.5s43.333 181.333 78 261s77.834 151.334 129.501 215.001s112 117.834 181 162.501s146.667 78.834 233 102.5c86.333 23.667 181.5 35.5 285.5 35.5c55.333 0 109.666 -2.66699 162.999 -8s103.666 -13.166 150.999 -23.5
c47.333 -10.333 91.333 -22.833 132 -37.5s76.334 -31 107.001 -49v-312c-32 15.333 -68.333 30 -109 44s-84.5 26.167 -131.5 36.5s-96.5 18.666 -148.5 24.999s-105 9.5 -159 9.5c-96 0 -179.5 -17.5 -250.5 -52.5s-129.833 -85.167 -176.5 -150.5
s-81.5 -145.166 -104.5 -239.499s-34.5 -200.833 -34.5 -319.5c0 -137.333 12.5 -256.333 37.5 -357s61.333 -184 109 -250s106 -115.167 175 -147.5s147.5 -48.5 235.5 -48.5c72 0 136.667 3.83301 194 11.5s109.5 17.5 156.5 29.5s90 25.5 129 40.5
s75.833 30.167 110.5 45.5v-299zM1409 2408l-281 329l-281 -329h-327l393 574h430l393 -574h-327z" />
    <glyph glyph-name="Cdotaccent" unicode="&#x10a;" horiz-adv-x="2454" 
d="M2265 98c-51.333 -23.333 -104.5 -44.1689 -159.5 -62.502s-115 -33.833 -180 -46.5s-136 -22.167 -213 -28.5s-163.167 -9.5 -258.5 -9.5c-127.333 0 -245.166 14.667 -353.499 44s-207 72.833 -296 130.5s-167.667 129.5 -236 215.5s-125.833 185.833 -172.5 299.5
s-82 241.167 -106 382.5s-36 296 -36 464c0 150.667 10.833 293.167 32.5 427.5s54.5 258 98.5 371s99.333 214.667 166 305s145 166.833 235 229.5s191.5 110.834 304.5 144.5c113 33.667 238.167 50.5 375.5 50.5c76.667 0 151.834 -3.83301 225.501 -11.5
s143.5 -18.5 209.5 -32.5s127.167 -31.167 183.5 -51.5s105.5 -43.166 147.5 -68.5v-328c-43.333 22.667 -92.666 43.5 -148 62.5c-55.333 19 -115 35.5 -179 49.5s-131.667 24.833 -203 32.5s-144.333 11.5 -219 11.5c-98 0 -187 -12.167 -267 -36.5
s-151.333 -60 -214 -107s-116.834 -104.667 -162.501 -173s-83.334 -146.666 -113.001 -234.999s-51.667 -186.166 -66 -293.499s-21.5 -223 -21.5 -347c0 -139.333 9.16699 -266 27.5 -380s45 -215.667 80 -305s77.833 -166.833 128.5 -232.5s108.167 -120 172.5 -163
s135 -75 212 -96s159.5 -31.5 247.5 -31.5c80 0 154.5 3 223.5 9s134.167 14.833 195.5 26.5s119.833 26.167 175.5 43.5s110.167 37.333 163.5 60v-320zM1246 3257v446h454v-446h-454z" />
    <glyph glyph-name="cdotaccent" unicode="&#x10b;" horiz-adv-x="1942" 
d="M1757 98c-32 -19.333 -70 -38.0029 -114 -56.0029s-92.333 -33.667 -145 -47s-108.667 -24 -168 -32s-120.333 -12 -183 -12c-146.667 0 -276.5 24 -389.5 72s-208 119.333 -285 214s-135.333 211.834 -175 351.501s-59.5 301.167 -59.5 484.5
c0 106 8.66699 206.167 26 300.5s43.333 181.333 78 261s77.834 151.334 129.501 215.001s112 117.834 181 162.501s146.667 78.834 233 102.5c86.333 23.667 181.5 35.5 285.5 35.5c55.333 0 109.666 -2.66699 162.999 -8s103.666 -13.166 150.999 -23.5
c47.333 -10.333 91.333 -22.833 132 -37.5s76.334 -31 107.001 -49v-312c-32 15.333 -68.333 30 -109 44s-84.5 26.167 -131.5 36.5s-96.5 18.666 -148.5 24.999s-105 9.5 -159 9.5c-96 0 -179.5 -17.5 -250.5 -52.5s-129.833 -85.167 -176.5 -150.5
s-81.5 -145.166 -104.5 -239.499s-34.5 -200.833 -34.5 -319.5c0 -137.333 12.5 -256.333 37.5 -357s61.333 -184 109 -250s106 -115.167 175 -147.5s147.5 -48.5 235.5 -48.5c72 0 136.667 3.83301 194 11.5s109.5 17.5 156.5 29.5s90 25.5 129 40.5
s75.833 30.167 110.5 45.5v-299zM901 2503v446h454v-446h-454z" />
    <glyph glyph-name="Ccaron" unicode="&#x10c;" horiz-adv-x="2454" 
d="M2265 98c-51.333 -23.333 -104.5 -44.1689 -159.5 -62.502s-115 -33.833 -180 -46.5s-136 -22.167 -213 -28.5s-163.167 -9.5 -258.5 -9.5c-127.333 0 -245.166 14.667 -353.499 44s-207 72.833 -296 130.5s-167.667 129.5 -236 215.5s-125.833 185.833 -172.5 299.5
s-82 241.167 -106 382.5s-36 296 -36 464c0 150.667 10.833 293.167 32.5 427.5s54.5 258 98.5 371s99.333 214.667 166 305s145 166.833 235 229.5s191.5 110.834 304.5 144.5c113 33.667 238.167 50.5 375.5 50.5c76.667 0 151.834 -3.83301 225.501 -11.5
s143.5 -18.5 209.5 -32.5s127.167 -31.167 183.5 -51.5s105.5 -43.166 147.5 -68.5v-328c-43.333 22.667 -92.666 43.5 -148 62.5c-55.333 19 -115 35.5 -179 49.5s-131.667 24.833 -203 32.5s-144.333 11.5 -219 11.5c-98 0 -187 -12.167 -267 -36.5
s-151.333 -60 -214 -107s-116.834 -104.667 -162.501 -173s-83.334 -146.666 -113.001 -234.999s-51.667 -186.166 -66 -293.499s-21.5 -223 -21.5 -347c0 -139.333 9.16699 -266 27.5 -380s45 -215.667 80 -305s77.833 -166.833 128.5 -232.5s108.167 -120 172.5 -163
s135 -75 212 -96s159.5 -31.5 247.5 -31.5c80 0 154.5 3 223.5 9s134.167 14.833 195.5 26.5s119.833 26.167 175.5 43.5s110.167 37.333 163.5 60v-320zM1258 3162l-393 574h327l281 -329l281 329h327l-393 -574h-430z" />
    <glyph glyph-name="ccaron" unicode="&#x10d;" horiz-adv-x="1942" 
d="M1757 98c-32 -19.333 -70 -38.0029 -114 -56.0029s-92.333 -33.667 -145 -47s-108.667 -24 -168 -32s-120.333 -12 -183 -12c-146.667 0 -276.5 24 -389.5 72s-208 119.333 -285 214s-135.333 211.834 -175 351.501s-59.5 301.167 -59.5 484.5
c0 106 8.66699 206.167 26 300.5s43.333 181.333 78 261s77.834 151.334 129.501 215.001s112 117.834 181 162.501s146.667 78.834 233 102.5c86.333 23.667 181.5 35.5 285.5 35.5c55.333 0 109.666 -2.66699 162.999 -8s103.666 -13.166 150.999 -23.5
c47.333 -10.333 91.333 -22.833 132 -37.5s76.334 -31 107.001 -49v-312c-32 15.333 -68.333 30 -109 44s-84.5 26.167 -131.5 36.5s-96.5 18.666 -148.5 24.999s-105 9.5 -159 9.5c-96 0 -179.5 -17.5 -250.5 -52.5s-129.833 -85.167 -176.5 -150.5
s-81.5 -145.166 -104.5 -239.499s-34.5 -200.833 -34.5 -319.5c0 -137.333 12.5 -256.333 37.5 -357s61.333 -184 109 -250s106 -115.167 175 -147.5s147.5 -48.5 235.5 -48.5c72 0 136.667 3.83301 194 11.5s109.5 17.5 156.5 29.5s90 25.5 129 40.5
s75.833 30.167 110.5 45.5v-299zM913 2408l-393 574h327l281 -329l281 329h327l-393 -574h-430z" />
    <glyph glyph-name="Dcaron" unicode="&#x10e;" horiz-adv-x="2867" 
d="M414 0v2966h909c162 0 305.833 -17 431.5 -51s235.667 -82.333 330 -145s174.166 -138.334 239.5 -227c65.333 -88.667 118.166 -187.834 158.5 -297.5c40.333 -109.667 69.5 -228.334 87.5 -356.001s27 -261.834 27 -402.501
c0 -141.333 -9.16699 -276.166 -27.5 -404.499s-48.166 -247.666 -89.5 -357.999c-41.333 -110.333 -95.5 -210 -162.5 -299s-148.667 -165 -245 -228s-208.833 -111.667 -337.5 -146s-275.667 -51.5 -441 -51.5h-880zM1266 303c112.667 0 214.167 11.5 304.5 34.5
s170.333 57 240 102s129.667 100.833 180 167.5s91.5 143.5 123.5 230.5s55.667 184 71 291s23 223.833 23 350.5s-7.33301 244 -22 352s-37.834 205.833 -69.5 293.5c-31.667 87.667 -72.167 165 -121.5 232s-109 123.167 -179 168.5s-150.5 79.5 -241.5 102.5
s-193.833 34.5 -308.5 34.5h-475v-2359h475zM1147 3162l-393 574h327l281 -329l281 329h327l-393 -574h-430z" />
    <glyph glyph-name="dcaron" unicode="&#x10f;" horiz-adv-x="2470" 
d="M1769 0l-32 180.001c-42 -34.667 -86.833 -66.167 -134.5 -94.5s-98.334 -52.5 -152.001 -72.5s-110.167 -35.333 -169.5 -46s-121.666 -16 -186.999 -16c-136 0 -257.167 22.167 -363.5 66.5s-196 111.166 -269 200.499s-128.5 201.333 -166.5 336s-57 292.667 -57 474
c0 185.333 21.833 348 65.5 488s105.167 257 184.5 351s175 164.667 287 212s236 71 372 71c60.667 0 117.667 -4 171 -12s104 -19.667 152 -35s93.333 -34.166 136 -56.5c42.667 -22.333 83.667 -47.833 123 -76.5v1135h360v-3105h-320zM1729 1683
c-41.333 26.667 -83.002 49.668 -125.002 69.001s-85.333 35.166 -130 47.499s-90.667 21.333 -138 27s-96.666 8.5 -147.999 8.5c-95.333 0 -179 -17 -251 -51s-132.333 -84.167 -181 -150.5s-85.167 -148.833 -109.5 -247.5s-36.5 -212.667 -36.5 -342
c0 -128 11.333 -241.333 34 -340s57.334 -181.667 104.001 -249s105 -118.333 175 -153s152.667 -52 248 -52c53.333 0 104.333 3.33301 153 10s95.667 17 141 31s89.833 31.5 133.5 52.5s87.167 45.833 130.5 74.5v1265zM2294 2253l123 438l-103 414h242
c34 0 65.667 -5 95 -15s54.833 -24.5 76.5 -43.5s38.834 -42.167 51.5 -69.5c12.667 -27.333 19 -58.333 19 -93c0 -39.333 -4 -76 -12 -110s-19 -67.833 -33 -101.5s-30.833 -68.667 -50.5 -105l-64.5 -118.5l-106 -196h-238z" />
    <glyph glyph-name="Dcroat" unicode="&#x110;" horiz-adv-x="2908" 
d="M455 0v1323h-279v295h279v1348h909c162 0 305.833 -17 431.5 -51s235.667 -82.333 330 -145s174.166 -138.334 239.5 -227c65.333 -88.667 118.166 -187.834 158.5 -297.5c40.333 -109.667 69.5 -228.334 87.5 -356.001s27 -261.834 27 -402.501
c0 -141.333 -9.16699 -276.166 -27.5 -404.499s-48.166 -247.666 -89.5 -357.999c-41.333 -110.333 -95.5 -210 -162.5 -299s-148.667 -165 -245 -228s-208.833 -111.667 -337.5 -146s-275.667 -51.5 -441 -51.5h-880zM1307 303c112.667 0 214.167 11.5 304.5 34.5
s170.333 57 240 102s129.5 100.833 179.5 167.5s91.167 143.5 123.5 230.5s56.166 184 71.5 291c15.333 107 23 223.833 23 350.5s-7.33301 244 -22 352s-37.834 205.833 -69.5 293.5c-31.667 87.667 -72.167 165 -121.5 232s-109 123.167 -179 168.5
s-150.5 79.5 -241.5 102.5s-193.833 34.5 -308.5 34.5h-476v-1044h664v-295h-664v-1020h476z" />
    <glyph glyph-name="dcroat" unicode="&#x111;" horiz-adv-x="2470" 
d="M1769 0l-32 180.001c-42 -34.667 -86.833 -66.167 -134.5 -94.5s-98.334 -52.5 -152.001 -72.5s-110.167 -35.333 -169.5 -46s-121.666 -16 -186.999 -16c-136 0 -257.167 22.167 -363.5 66.5s-196 111.166 -269 200.499s-128.5 201.333 -166.5 336s-57 292.667 -57 474
c0 185.333 21.833 348 65.5 488s105.167 257 184.5 351s175 164.667 287 212s236 71 372 71c60.667 0 117.667 -4 171 -12s104 -19.667 152 -35s93.333 -34.166 136 -56.5c42.667 -22.333 83.667 -47.833 123 -76.5v508h-328v287h328v340h360v-340h246v-287h-246v-2478h-320
zM1729 1683c-41.333 26.667 -83.002 49.668 -125.002 69.001s-85.333 35.166 -130 47.499s-90.667 21.333 -138 27s-96.666 8.5 -147.999 8.5c-95.333 0 -179 -17 -251 -51s-132.333 -84.167 -181 -150.5s-85.167 -148.833 -109.5 -247.5s-36.5 -212.667 -36.5 -342
c0 -128 11.333 -241.333 34 -340s57.334 -181.667 104.001 -249s105 -118.333 175 -153s152.667 -52 248 -52c53.333 0 104.333 3.33301 153 10s95.667 17 141 31s89.833 31.5 133.5 52.5s87.167 45.833 130.5 74.5v1265z" />
    <glyph glyph-name="Emacron" unicode="&#x112;" horiz-adv-x="2380" 
d="M414 0v2966h1781v-312h-1404v-983h1200v-311h-1200v-1049h1404v-311h-1781zM741 3257v311h1106v-311h-1106z" />
    <glyph glyph-name="emacron" unicode="&#x113;" horiz-adv-x="2236" 
d="M1901 102c-41.333 -21.333 -86.8311 -41.3379 -136.498 -60.0049s-104.334 -34.667 -164.001 -48s-124.5 -23.833 -194.5 -31.5s-145.333 -11.5 -226 -11.5c-104.667 0 -200.5 11.333 -287.5 34s-165.5 55.834 -235.5 99.501s-131.167 97.334 -183.5 161.001
s-96 136.834 -131 219.501s-61.167 174.167 -78.5 274.5s-26 208.833 -26 325.5c0 104 7.83301 203 23.5 297s39.5 181.167 71.5 261.5s72.333 153 121 218s105.667 120.333 171 166s139.333 80.834 222 105.5c82.667 24.667 174.334 37 275.001 37
c98.667 0 189.167 -11.833 271.5 -35.5s156.333 -57.167 222 -100.5s123 -95.5 172 -156.5s89.667 -128.833 122 -203.5s56.666 -155.5 72.999 -242.5s24.5 -177.833 24.5 -272.5c0 -13.333 -0.166992 -27.166 -0.5 -41.499s-1 -28.166 -2 -41.499s-2 -25.666 -3 -36.999
l-2.5 -28h-1397c4 -116.667 19 -219.834 45 -309.501s64.333 -165 115 -226s114 -107.167 190 -138.5s165.667 -47 269 -47c78 0 149.833 4 215.5 12s126.5 18.167 182.5 30.5s107.167 26.333 153.5 42s89.166 31.167 128.499 46.5v-299zM1638 1270
c-4 88.667 -18.333 169.334 -43 242.001s-58.834 134.834 -102.501 186.501s-96.667 91.5 -159 119.5s-132.833 42 -211.5 42s-149 -14 -211 -42s-115 -67.833 -159 -119.5s-78.667 -113.834 -104 -186.501s-40.666 -153.334 -45.999 -242.001h1036zM586.002 2503v311h1106
v-311h-1106z" />
    <glyph glyph-name="Ebreve" unicode="&#x114;" horiz-adv-x="2380" 
d="M414 0v2966h1781v-312h-1404v-983h1200v-311h-1200v-1049h1404v-311h-1781zM1900 3736c-2 -88.667 -17.8291 -169.167 -47.4961 -241.5s-70.834 -134.333 -123.501 -186s-115.834 -91.667 -189.501 -120s-155.5 -42.5 -245.5 -42.5
c-91.333 0 -173.833 14.167 -247.5 42.5s-136.834 68.333 -189.501 120s-93.5 113.667 -122.5 186s-44.5 152.833 -46.5 241.5h274c5.33301 -49.333 17 -93 35 -131s41.333 -70 70 -96s62.167 -45.833 100.5 -59.5s80.5 -20.5 126.5 -20.5
c44.667 0 86.167 6.83301 124.5 20.5s72 33.5 101 59.5s52.667 58 71 96s30.166 81.667 35.499 131h274z" />
    <glyph glyph-name="ebreve" unicode="&#x115;" horiz-adv-x="2236" 
d="M1901 102c-41.333 -21.333 -86.8311 -41.3379 -136.498 -60.0049s-104.334 -34.667 -164.001 -48s-124.5 -23.833 -194.5 -31.5s-145.333 -11.5 -226 -11.5c-104.667 0 -200.5 11.333 -287.5 34s-165.5 55.834 -235.5 99.501s-131.167 97.334 -183.5 161.001
s-96 136.834 -131 219.501s-61.167 174.167 -78.5 274.5s-26 208.833 -26 325.5c0 104 7.83301 203 23.5 297s39.5 181.167 71.5 261.5s72.333 153 121 218s105.667 120.333 171 166s139.333 80.834 222 105.5c82.667 24.667 174.334 37 275.001 37
c98.667 0 189.167 -11.833 271.5 -35.5s156.333 -57.167 222 -100.5s123 -95.5 172 -156.5s89.667 -128.833 122 -203.5s56.666 -155.5 72.999 -242.5s24.5 -177.833 24.5 -272.5c0 -13.333 -0.166992 -27.166 -0.5 -41.499s-1 -28.166 -2 -41.499s-2 -25.666 -3 -36.999
l-2.5 -28h-1397c4 -116.667 19 -219.834 45 -309.501s64.333 -165 115 -226s114 -107.167 190 -138.5s165.667 -47 269 -47c78 0 149.833 4 215.5 12s126.5 18.167 182.5 30.5s107.167 26.333 153.5 42s89.166 31.167 128.499 46.5v-299zM1638 1270
c-4 88.667 -18.333 169.334 -43 242.001s-58.834 134.834 -102.501 186.501s-96.667 91.5 -159 119.5s-132.833 42 -211.5 42s-149 -14 -211 -42s-115 -67.833 -159 -119.5s-78.667 -113.834 -104 -186.501s-40.666 -153.334 -45.999 -242.001h1036zM1745 2982
c-2 -88.667 -17.8291 -169.167 -47.4961 -241.5s-70.834 -134.333 -123.501 -186s-115.834 -91.667 -189.501 -120s-155.5 -42.5 -245.5 -42.5c-91.333 0 -173.833 14.167 -247.5 42.5s-136.834 68.333 -189.501 120s-93.5 113.667 -122.5 186s-44.5 152.833 -46.5 241.5
h274c5.33301 -49.333 17 -93 35 -131s41.333 -70 70 -96s62.167 -45.833 100.5 -59.5s80.5 -20.5 126.5 -20.5c44.667 0 86.167 6.83301 124.5 20.5s72 33.5 101 59.5s52.667 58 71 96s30.166 81.667 35.499 131h274z" />
    <glyph glyph-name="Edotaccent" unicode="&#x116;" horiz-adv-x="2380" 
d="M414 0v2966h1781v-312h-1404v-983h1200v-311h-1200v-1049h1404v-311h-1781zM1065 3257v446h454v-446h-454z" />
    <glyph glyph-name="edotaccent" unicode="&#x117;" horiz-adv-x="2236" 
d="M1901 102c-41.333 -21.333 -86.8311 -41.3379 -136.498 -60.0049s-104.334 -34.667 -164.001 -48s-124.5 -23.833 -194.5 -31.5s-145.333 -11.5 -226 -11.5c-104.667 0 -200.5 11.333 -287.5 34s-165.5 55.834 -235.5 99.501s-131.167 97.334 -183.5 161.001
s-96 136.834 -131 219.501s-61.167 174.167 -78.5 274.5s-26 208.833 -26 325.5c0 104 7.83301 203 23.5 297s39.5 181.167 71.5 261.5s72.333 153 121 218s105.667 120.333 171 166s139.333 80.834 222 105.5c82.667 24.667 174.334 37 275.001 37
c98.667 0 189.167 -11.833 271.5 -35.5s156.333 -57.167 222 -100.5s123 -95.5 172 -156.5s89.667 -128.833 122 -203.5s56.666 -155.5 72.999 -242.5s24.5 -177.833 24.5 -272.5c0 -13.333 -0.166992 -27.166 -0.5 -41.499s-1 -28.166 -2 -41.499s-2 -25.666 -3 -36.999
l-2.5 -28h-1397c4 -116.667 19 -219.834 45 -309.501s64.333 -165 115 -226s114 -107.167 190 -138.5s165.667 -47 269 -47c78 0 149.833 4 215.5 12s126.5 18.167 182.5 30.5s107.167 26.333 153.5 42s89.166 31.167 128.499 46.5v-299zM1638 1270
c-4 88.667 -18.333 169.334 -43 242.001s-58.834 134.834 -102.501 186.501s-96.667 91.5 -159 119.5s-132.833 42 -211.5 42s-149 -14 -211 -42s-115 -67.833 -159 -119.5s-78.667 -113.834 -104 -186.501s-40.666 -153.334 -45.999 -242.001h1036zM910.002 2503v446h454
v-446h-454z" />
    <glyph glyph-name="Eogonek" unicode="&#x118;" horiz-adv-x="2380" 
d="M2204 -811c-33.333 -8 -68.832 -14.1631 -106.499 -18.4961s-76.167 -6.5 -115.5 -6.5c-84 0 -155.667 10.667 -215 32s-108 49.166 -146 83.499s-65.833 73.666 -83.5 117.999s-26.5 89.5 -26.5 135.5c0 49.333 8.16699 95.666 24.5 138.999s38.5 84.166 66.5 122.499
s60.667 74.5 98 108.5s77 66.333 119 97h-1405v2966h1781v-312h-1404v-983h1200v-311h-1200v-1049h1404v-311h-131c-36.667 -36.667 -70.334 -72.5 -101.001 -107.5s-57 -69.333 -79 -103s-39 -66.667 -51 -99s-18 -64.5 -18 -96.5c0 -67.333 21.333 -117.5 64 -150.5
s101.667 -49.5 177 -49.5c15.333 0 29.833 0.5 43.5 1.5s26.5 2.16699 38.5 3.5s23.5 3 34.5 5l31.5 6v-221z" />
    <glyph glyph-name="eogonek" unicode="&#x119;" horiz-adv-x="2236" 
d="M1901 -811c-32.667 -8 -67.832 -14.1689 -105.499 -18.502s-76.167 -6.5 -115.5 -6.5c-84 0 -155.833 10.667 -215.5 32s-108.334 49.166 -146.001 83.499s-65.334 73.666 -83.001 117.999s-26.5 89.5 -26.5 135.5c0 46.667 7.5 90.5 22.5 131.5s35.167 79.5 60.5 115.5
s55.166 70.167 89.499 102.5s71.166 63.166 110.499 92.499c-47.333 -8 -96.666 -14 -147.999 -18s-105.666 -6 -162.999 -6c-104.667 0 -200.5 11.333 -287.5 34s-165.5 55.834 -235.5 99.501s-131.167 97.334 -183.5 161.001s-96 136.834 -131 219.501
s-61.333 174.167 -79 274.5s-26.5 208.833 -26.5 325.5c0 104 7.83301 203 23.5 297s39.667 181.167 72 261.5s72.833 153 121.5 218s105.667 120.333 171 166s139.333 80.834 222 105.501s174.334 37 275.001 37c98.667 0 189.167 -11.833 271.5 -35.5
s156.333 -57.167 222 -100.5s123 -95.5 172 -156.5s89.667 -128.833 122 -203.5s56.666 -155.5 72.999 -242.5s24.5 -177.833 24.5 -272.5c0 -13.333 -0.166992 -27.166 -0.5 -41.499s-1 -28.166 -2 -41.499s-2 -25.666 -3 -36.999l-2.5 -28h-1397
c4 -116.667 19 -219.834 45 -309.501s64.333 -165 115 -226s113.834 -107.167 189.501 -138.5s165.167 -47 268.5 -47c78 0 150 4 216 12s127 18.167 183 30.5s107.167 26.333 153.5 42s88.833 31.167 127.5 46.5v-299c-60 -45.333 -114.167 -90.333 -162.5 -135
s-89.166 -88.5 -122.499 -131.5s-59 -84.833 -77 -125.5s-27 -79.334 -27 -116.001c0 -67.333 21.333 -117.5 64 -150.5s102 -49.5 178 -49.5c15.333 0 29.666 0.5 42.999 1.5s26 2.16699 38 3.5s23.5 3 34.5 5l31.5 6v-221zM1639 1270
c-4 88.667 -18.332 169.334 -42.999 242.001s-58.834 134.834 -102.501 186.501s-96.667 91.5 -159 119.5s-132.833 42 -211.5 42s-149.167 -14 -211.5 -42s-115.5 -67.833 -159.5 -119.5s-78.667 -113.834 -104 -186.501s-40.333 -153.334 -45 -242.001h1036z" />
    <glyph glyph-name="Ecaron" unicode="&#x11a;" horiz-adv-x="2380" 
d="M414 0v2966h1781v-312h-1404v-983h1200v-311h-1200v-1049h1404v-311h-1781zM1077 3162l-393 574h327l281 -329l281 329h327l-393 -574h-430z" />
    <glyph glyph-name="ecaron" unicode="&#x11b;" horiz-adv-x="2236" 
d="M1901 102c-41.333 -21.333 -86.8311 -41.3379 -136.498 -60.0049s-104.334 -34.667 -164.001 -48s-124.5 -23.833 -194.5 -31.5s-145.333 -11.5 -226 -11.5c-104.667 0 -200.5 11.333 -287.5 34s-165.5 55.834 -235.5 99.501s-131.167 97.334 -183.5 161.001
s-96 136.834 -131 219.501s-61.167 174.167 -78.5 274.5s-26 208.833 -26 325.5c0 104 7.83301 203 23.5 297s39.5 181.167 71.5 261.5s72.333 153 121 218s105.667 120.333 171 166s139.333 80.834 222 105.5c82.667 24.667 174.334 37 275.001 37
c98.667 0 189.167 -11.833 271.5 -35.5s156.333 -57.167 222 -100.5s123 -95.5 172 -156.5s89.667 -128.833 122 -203.5s56.666 -155.5 72.999 -242.5s24.5 -177.833 24.5 -272.5c0 -13.333 -0.166992 -27.166 -0.5 -41.499s-1 -28.166 -2 -41.499s-2 -25.666 -3 -36.999
l-2.5 -28h-1397c4 -116.667 19 -219.834 45 -309.501s64.333 -165 115 -226s114 -107.167 190 -138.5s165.667 -47 269 -47c78 0 149.833 4 215.5 12s126.5 18.167 182.5 30.5s107.167 26.333 153.5 42s89.166 31.167 128.499 46.5v-299zM1638 1270
c-4 88.667 -18.333 169.334 -43 242.001s-58.834 134.834 -102.501 186.501s-96.667 91.5 -159 119.5s-132.833 42 -211.5 42s-149 -14 -211 -42s-115 -67.833 -159 -119.5s-78.667 -113.834 -104 -186.501s-40.666 -153.334 -45.999 -242.001h1036zM922.002 2408l-393 574
h327l281 -329l281 329h327l-393 -574h-430z" />
    <glyph glyph-name="Gcircumflex" unicode="&#x11c;" horiz-adv-x="2839" 
d="M2191 1417h377.004v-1278c-41.333 -20.667 -85.166 -39.667 -131.5 -57c-46.333 -17.333 -94.833 -32.833 -145.5 -46.5s-103.834 -25.834 -159.501 -36.501s-114 -19.5 -175 -26.5s-124.833 -12.333 -191.5 -16s-136.334 -5.5 -209.001 -5.5
c-206.667 0 -390.834 31.167 -552.501 93.5s-298 157.333 -409 285s-195.5 288.334 -253.5 482.001s-87 421.5 -87 683.5c0 161.333 13.167 310.833 39.5 448.5s65.166 262.834 116.499 375.5c51.333 112.667 115.166 212.334 191.499 299
c76.333 86.667 164.833 159.334 265.5 218c100.667 58.667 213 103.167 337 133.5s259.333 45.5 406 45.5c51.333 0 102.166 -1.66699 152.499 -5s99.5 -8.33301 147.5 -15s94.333 -14.667 139 -24s87.167 -20 127.5 -32s78 -25.5 113 -40.5s66.5 -30.833 94.5 -47.5v-328
c-43.333 22.667 -92.833 43.5 -148.5 62.5s-116 35.5 -181 49.5s-133.667 24.833 -206 32.5s-146.5 11.5 -222.5 11.5c-162 0 -304.5 -23.833 -427.5 -71.5s-226 -120.334 -309 -218.001s-145.5 -220.667 -187.5 -369s-63 -323.5 -63 -525.5c0 -146 10.333 -277.5 31 -394.5
s50.5 -220.5 89.5 -310.5s86.333 -167.333 142 -232s118.667 -117.667 189 -159s147 -71.666 230 -90.999s171.167 -29 264.5 -29c58.667 0 115.334 1.5 170.001 4.5s107.334 7.66699 158.001 14s99.167 14.333 145.5 24s90.5 21.167 132.5 34.5v1061zM1848 3162l-281 329
l-281 -329h-327l393 574h430l393 -574h-327z" />
    <glyph glyph-name="gcircumflex" unicode="&#x11d;" horiz-adv-x="2470" 
d="M1729 176c-42 -34.667 -86.832 -65.833 -134.499 -93.5s-98.167 -51.334 -151.5 -71.001s-109.333 -34.667 -168 -45s-120.334 -15.5 -185.001 -15.5c-136 0 -257 22.167 -363 66.5s-195.167 111.166 -267.5 200.499s-127.333 201.333 -165 336s-56.5 292.667 -56.5 474
c0 185.333 21.833 348 65.5 488s105.167 257 184.5 351s175 164.667 287 212s236 71 372 71c62.667 0 121.667 -4.16699 177 -12.5s107.666 -20.666 156.999 -36.999s95.833 -36.5 139.5 -60.5s85.167 -51.333 124.5 -82l24 143h320v-2089
c0 -160.667 -22.333 -302.834 -67 -426.501s-109.834 -227.667 -195.501 -312s-190.667 -148.166 -315 -191.499s-266.5 -65 -426.5 -65c-69.333 0 -136.166 3 -200.499 9s-125.5 14.5 -183.5 25.5s-112.833 24.333 -164.5 40s-99.5 33.167 -143.5 52.5v315
c38.667 -15.333 81.334 -30.5 128.001 -45.5s97.167 -28.5 151.5 -40.5s112.5 -21.5 174.5 -28.5s127.667 -9.83301 197 -8.5c126.667 1.33301 233.667 15.5 321 42.5s158 68.833 212 125.5s92.833 128.834 116.5 216.501s35.5 193.167 35.5 316.5v139zM1729 1683
c-41.333 26.667 -83.002 49.668 -125.002 69.001s-85.333 35.166 -130 47.499s-90.667 21.333 -138 27s-96.666 8.5 -147.999 8.5c-95.333 0 -179 -17 -251 -51s-132.333 -84.167 -181 -150.5s-85.167 -148.833 -109.5 -247.5s-36.5 -212.667 -36.5 -342
c0 -128 11.333 -241.333 34 -340s57.334 -181.667 104.001 -249s105 -118.333 175 -153s152.667 -52 248 -52c53.333 0 104.333 3.33301 153 10s95.667 17 141 31s89.833 31.5 133.5 52.5s87.167 45.833 130.5 74.5v1265zM1471 2408l-281 329l-281 -329h-327l393 574h430
l393 -574h-327z" />
    <glyph glyph-name="Gbreve" unicode="&#x11e;" horiz-adv-x="2839" 
d="M2191 1417h377.004v-1278c-41.333 -20.667 -85.166 -39.667 -131.5 -57c-46.333 -17.333 -94.833 -32.833 -145.5 -46.5s-103.834 -25.834 -159.501 -36.501s-114 -19.5 -175 -26.5s-124.833 -12.333 -191.5 -16s-136.334 -5.5 -209.001 -5.5
c-206.667 0 -390.834 31.167 -552.501 93.5s-298 157.333 -409 285s-195.5 288.334 -253.5 482.001s-87 421.5 -87 683.5c0 161.333 13.167 310.833 39.5 448.5s65.166 262.834 116.499 375.5c51.333 112.667 115.166 212.334 191.499 299
c76.333 86.667 164.833 159.334 265.5 218c100.667 58.667 213 103.167 337 133.5s259.333 45.5 406 45.5c51.333 0 102.166 -1.66699 152.499 -5s99.5 -8.33301 147.5 -15s94.333 -14.667 139 -24s87.167 -20 127.5 -32s78 -25.5 113 -40.5s66.5 -30.833 94.5 -47.5v-328
c-43.333 22.667 -92.833 43.5 -148.5 62.5s-116 35.5 -181 49.5s-133.667 24.833 -206 32.5s-146.5 11.5 -222.5 11.5c-162 0 -304.5 -23.833 -427.5 -71.5s-226 -120.334 -309 -218.001s-145.5 -220.667 -187.5 -369s-63 -323.5 -63 -525.5c0 -146 10.333 -277.5 31 -394.5
s50.5 -220.5 89.5 -310.5s86.333 -167.333 142 -232s118.667 -117.667 189 -159s147 -71.666 230 -90.999s171.167 -29 264.5 -29c58.667 0 115.334 1.5 170.001 4.5s107.334 7.66699 158.001 14s99.167 14.333 145.5 24s90.5 21.167 132.5 34.5v1061zM2175 3736
c-2 -88.667 -17.8291 -169.167 -47.4961 -241.5s-70.834 -134.333 -123.501 -186s-115.834 -91.667 -189.501 -120s-155.5 -42.5 -245.5 -42.5c-91.333 0 -173.833 14.167 -247.5 42.5s-136.834 68.333 -189.501 120s-93.5 113.667 -122.5 186s-44.5 152.833 -46.5 241.5
h274c5.33301 -49.333 17 -93 35 -131s41.333 -70 70 -96s62.167 -45.833 100.5 -59.5s80.5 -20.5 126.5 -20.5c44.667 0 86.167 6.83301 124.5 20.5s72 33.5 101 59.5s52.667 58 71 96s30.166 81.667 35.499 131h274z" />
    <glyph glyph-name="gbreve" unicode="&#x11f;" horiz-adv-x="2470" 
d="M1729 176c-42 -34.667 -86.832 -65.833 -134.499 -93.5s-98.167 -51.334 -151.5 -71.001s-109.333 -34.667 -168 -45s-120.334 -15.5 -185.001 -15.5c-136 0 -257 22.167 -363 66.5s-195.167 111.166 -267.5 200.499s-127.333 201.333 -165 336s-56.5 292.667 -56.5 474
c0 185.333 21.833 348 65.5 488s105.167 257 184.5 351s175 164.667 287 212s236 71 372 71c62.667 0 121.667 -4.16699 177 -12.5s107.666 -20.666 156.999 -36.999s95.833 -36.5 139.5 -60.5s85.167 -51.333 124.5 -82l24 143h320v-2089
c0 -160.667 -22.333 -302.834 -67 -426.501s-109.834 -227.667 -195.501 -312s-190.667 -148.166 -315 -191.499s-266.5 -65 -426.5 -65c-69.333 0 -136.166 3 -200.499 9s-125.5 14.5 -183.5 25.5s-112.833 24.333 -164.5 40s-99.5 33.167 -143.5 52.5v315
c38.667 -15.333 81.334 -30.5 128.001 -45.5s97.167 -28.5 151.5 -40.5s112.5 -21.5 174.5 -28.5s127.667 -9.83301 197 -8.5c126.667 1.33301 233.667 15.5 321 42.5s158 68.833 212 125.5s92.833 128.834 116.5 216.501s35.5 193.167 35.5 316.5v139zM1729 1683
c-41.333 26.667 -83.002 49.668 -125.002 69.001s-85.333 35.166 -130 47.499s-90.667 21.333 -138 27s-96.666 8.5 -147.999 8.5c-95.333 0 -179 -17 -251 -51s-132.333 -84.167 -181 -150.5s-85.167 -148.833 -109.5 -247.5s-36.5 -212.667 -36.5 -342
c0 -128 11.333 -241.333 34 -340s57.334 -181.667 104.001 -249s105 -118.333 175 -153s152.667 -52 248 -52c53.333 0 104.333 3.33301 153 10s95.667 17 141 31s89.833 31.5 133.5 52.5s87.167 45.833 130.5 74.5v1265zM1798 2982
c-2 -88.667 -17.8291 -169.167 -47.4961 -241.5s-70.834 -134.333 -123.501 -186s-115.834 -91.667 -189.501 -120s-155.5 -42.5 -245.5 -42.5c-91.333 0 -173.833 14.167 -247.5 42.5s-136.834 68.333 -189.501 120s-93.5 113.667 -122.5 186s-44.5 152.833 -46.5 241.5
h274c5.33301 -49.333 17 -93 35 -131s41.333 -70 70 -96s62.167 -45.833 100.5 -59.5s80.5 -20.5 126.5 -20.5c44.667 0 86.167 6.83301 124.5 20.5s72 33.5 101 59.5s52.667 58 71 96s30.166 81.667 35.499 131h274z" />
    <glyph glyph-name="Gdotaccent" unicode="&#x120;" horiz-adv-x="2839" 
d="M2191 1417h377.004v-1278c-41.333 -20.667 -85.166 -39.667 -131.5 -57c-46.333 -17.333 -94.833 -32.833 -145.5 -46.5s-103.834 -25.834 -159.501 -36.501s-114 -19.5 -175 -26.5s-124.833 -12.333 -191.5 -16s-136.334 -5.5 -209.001 -5.5
c-206.667 0 -390.834 31.167 -552.501 93.5s-298 157.333 -409 285s-195.5 288.334 -253.5 482.001s-87 421.5 -87 683.5c0 161.333 13.167 310.833 39.5 448.5s65.166 262.834 116.499 375.5c51.333 112.667 115.166 212.334 191.499 299
c76.333 86.667 164.833 159.334 265.5 218c100.667 58.667 213 103.167 337 133.5s259.333 45.5 406 45.5c51.333 0 102.166 -1.66699 152.499 -5s99.5 -8.33301 147.5 -15s94.333 -14.667 139 -24s87.167 -20 127.5 -32s78 -25.5 113 -40.5s66.5 -30.833 94.5 -47.5v-328
c-43.333 22.667 -92.833 43.5 -148.5 62.5s-116 35.5 -181 49.5s-133.667 24.833 -206 32.5s-146.5 11.5 -222.5 11.5c-162 0 -304.5 -23.833 -427.5 -71.5s-226 -120.334 -309 -218.001s-145.5 -220.667 -187.5 -369s-63 -323.5 -63 -525.5c0 -146 10.333 -277.5 31 -394.5
s50.5 -220.5 89.5 -310.5s86.333 -167.333 142 -232s118.667 -117.667 189 -159s147 -71.666 230 -90.999s171.167 -29 264.5 -29c58.667 0 115.334 1.5 170.001 4.5s107.334 7.66699 158.001 14s99.167 14.333 145.5 24s90.5 21.167 132.5 34.5v1061zM1340 3257v446h454
v-446h-454z" />
    <glyph glyph-name="gdotaccent" unicode="&#x121;" horiz-adv-x="2470" 
d="M1729 176c-42 -34.667 -86.832 -65.833 -134.499 -93.5s-98.167 -51.334 -151.5 -71.001s-109.333 -34.667 -168 -45s-120.334 -15.5 -185.001 -15.5c-136 0 -257 22.167 -363 66.5s-195.167 111.166 -267.5 200.499s-127.333 201.333 -165 336s-56.5 292.667 -56.5 474
c0 185.333 21.833 348 65.5 488s105.167 257 184.5 351s175 164.667 287 212s236 71 372 71c62.667 0 121.667 -4.16699 177 -12.5s107.666 -20.666 156.999 -36.999s95.833 -36.5 139.5 -60.5s85.167 -51.333 124.5 -82l24 143h320v-2089
c0 -160.667 -22.333 -302.834 -67 -426.501s-109.834 -227.667 -195.501 -312s-190.667 -148.166 -315 -191.499s-266.5 -65 -426.5 -65c-69.333 0 -136.166 3 -200.499 9s-125.5 14.5 -183.5 25.5s-112.833 24.333 -164.5 40s-99.5 33.167 -143.5 52.5v315
c38.667 -15.333 81.334 -30.5 128.001 -45.5s97.167 -28.5 151.5 -40.5s112.5 -21.5 174.5 -28.5s127.667 -9.83301 197 -8.5c126.667 1.33301 233.667 15.5 321 42.5s158 68.833 212 125.5s92.833 128.834 116.5 216.501s35.5 193.167 35.5 316.5v139zM1729 1683
c-41.333 26.667 -83.002 49.668 -125.002 69.001s-85.333 35.166 -130 47.499s-90.667 21.333 -138 27s-96.666 8.5 -147.999 8.5c-95.333 0 -179 -17 -251 -51s-132.333 -84.167 -181 -150.5s-85.167 -148.833 -109.5 -247.5s-36.5 -212.667 -36.5 -342
c0 -128 11.333 -241.333 34 -340s57.334 -181.667 104.001 -249s105 -118.333 175 -153s152.667 -52 248 -52c53.333 0 104.333 3.33301 153 10s95.667 17 141 31s89.833 31.5 133.5 52.5s87.167 45.833 130.5 74.5v1265zM962.999 2503v446h454v-446h-454z" />
    <glyph glyph-name="Gcommaaccent" unicode="&#x122;" horiz-adv-x="2839" 
d="M2191 1417h377.004v-1278c-41.333 -20.667 -85.166 -39.667 -131.5 -57c-46.333 -17.333 -94.833 -32.833 -145.5 -46.5s-103.834 -25.834 -159.501 -36.501s-114 -19.5 -175 -26.5s-124.833 -12.333 -191.5 -16s-136.334 -5.5 -209.001 -5.5
c-206.667 0 -390.834 31.167 -552.501 93.5s-298 157.333 -409 285s-195.5 288.334 -253.5 482.001s-87 421.5 -87 683.5c0 161.333 13.167 310.833 39.5 448.5s65.166 262.834 116.499 375.5c51.333 112.667 115.166 212.334 191.499 299
c76.333 86.667 164.833 159.334 265.5 218c100.667 58.667 213 103.167 337 133.5s259.333 45.5 406 45.5c51.333 0 102.166 -1.66699 152.499 -5s99.5 -8.33301 147.5 -15s94.333 -14.667 139 -24s87.167 -20 127.5 -32s78 -25.5 113 -40.5s66.5 -30.833 94.5 -47.5v-328
c-43.333 22.667 -92.833 43.5 -148.5 62.5s-116 35.5 -181 49.5s-133.667 24.833 -206 32.5s-146.5 11.5 -222.5 11.5c-162 0 -304.5 -23.833 -427.5 -71.5s-226 -120.334 -309 -218.001s-145.5 -220.667 -187.5 -369s-63 -323.5 -63 -525.5c0 -146 10.333 -277.5 31 -394.5
s50.5 -220.5 89.5 -310.5s86.333 -167.333 142 -232s118.667 -117.667 189 -159s147 -71.666 230 -90.999s171.167 -29 264.5 -29c58.667 0 115.334 1.5 170.001 4.5s107.334 7.66699 158.001 14s99.167 14.333 145.5 24s90.5 21.167 132.5 34.5v1061zM1319 -954
l-148.002 143.002l275 291l-66 348h221c36.667 0 68.334 -4.83301 95.001 -14.5s48.334 -23.334 65.001 -41.001s29 -38.834 37 -63.501s12 -52 12 -82c0 -50 -9.5 -97.5 -28.5 -142.5s-44.167 -87.5 -75.5 -127.5s-67.5 -77.333 -108.5 -112s-83.5 -67 -127.5 -97z" />
    <glyph glyph-name="gcommaaccent" unicode="&#x123;" horiz-adv-x="2470" 
d="M1729 176c-42 -34.667 -86.832 -65.833 -134.499 -93.5s-98.167 -51.334 -151.5 -71.001s-109.333 -34.667 -168 -45s-120.334 -15.5 -185.001 -15.5c-136 0 -257 22.167 -363 66.5s-195.167 111.166 -267.5 200.499s-127.333 201.333 -165 336s-56.5 292.667 -56.5 474
c0 185.333 21.833 348 65.5 488s105.167 257 184.5 351s175 164.667 287 212s236 71 372 71c62.667 0 121.667 -4.16699 177 -12.5s107.666 -20.666 156.999 -36.999s95.833 -36.5 139.5 -60.5s85.167 -51.333 124.5 -82l24 143h320v-2089
c0 -160.667 -22.333 -302.834 -67 -426.501s-109.834 -227.667 -195.501 -312s-190.667 -148.166 -315 -191.499s-266.5 -65 -426.5 -65c-69.333 0 -136.166 3 -200.499 9s-125.5 14.5 -183.5 25.5s-112.833 24.333 -164.5 40s-99.5 33.167 -143.5 52.5v315
c38.667 -15.333 81.334 -30.5 128.001 -45.5s97.167 -28.5 151.5 -40.5s112.5 -21.5 174.5 -28.5s127.667 -9.83301 197 -8.5c126.667 1.33301 233.667 15.5 321 42.5s158 68.833 212 125.5s92.833 128.834 116.5 216.501s35.5 193.167 35.5 316.5v139zM1729 1683
c-41.333 26.667 -83.002 49.668 -125.002 69.001s-85.333 35.166 -130 47.499s-90.667 21.333 -138 27s-96.666 8.5 -147.999 8.5c-95.333 0 -179 -17 -251 -51s-132.333 -84.167 -181 -150.5s-85.167 -148.833 -109.5 -247.5s-36.5 -212.667 -36.5 -342
c0 -128 11.333 -241.333 34 -340s57.334 -181.667 104.001 -249s105 -118.333 175 -153s152.667 -52 248 -52c53.333 0 104.333 3.33301 153 10s95.667 17 141 31s89.833 31.5 133.5 52.5s87.167 45.833 130.5 74.5v1265zM1155 2408c-36.667 0 -68.167 4.83301 -94.5 14.5
s-48 23.334 -65 41c-17 17.667 -29.5 38.834 -37.5 63.5c-8 24.667 -12 52 -12 82c0 50 9.5 97.667 28.5 143s44.167 88 75.5 128s67.5 77.333 108.5 112s83.5 66.667 127.5 96l152 103l147 -144l-274 -290l65 -349h-221z" />
    <glyph glyph-name="Hcircumflex" unicode="&#x124;" horiz-adv-x="2982" 
d="M2191 0v1368h-1400v-1368h-377v2966h377v-1287h1400v1287h377v-2966h-377zM1749 3162l-281 329l-281 -329h-327l393 574h430l393 -574h-327z" />
    <glyph glyph-name="hcircumflex" unicode="&#x125;" horiz-adv-x="2470" 
d="M1765 0l0.00195312 1413c0 76.667 -9.5 142.167 -28.5 196.5s-47 98.833 -84 133.5s-82.833 60 -137.5 76s-117.334 24 -188.001 24c-56 0 -109.667 -3.83301 -161 -11.5s-100.833 -19.5 -148.5 -35.5s-94.334 -36 -140.001 -60s-91.167 -52.333 -136.5 -85v-1651h-360
v3105h360v-1192c42 36 87.167 68.5 135.5 97.5s99.666 53.833 153.999 74.5s112 36.667 173 48s125.5 17 193.5 17c80 0 153.5 -6.5 220.5 -19.5s127.5 -32.167 181.5 -57.5s101.333 -57 142 -95s74.834 -82.333 102.501 -133s48.334 -107.167 62 -169.5
c13.667 -62.333 20.5 -130.833 20.5 -205.5v-1470h-361zM841.002 3228l-281 329l-281 -329h-327l393 574h430l393 -574h-327z" />
    <glyph glyph-name="Hbar" unicode="&#x126;" horiz-adv-x="3047" 
d="M2224 0v1368h-1401v-1368h-377v2142h-262v295h262v529h377v-529h1401v529h377v-529h262v-295h-262v-2142h-377zM2224 2142h-1401v-463h1401v463z" />
    <glyph glyph-name="hbar" unicode="&#x127;" horiz-adv-x="2470" 
d="M1765 0l0.00195312 1413c0 76.667 -9.5 142.167 -28.5 196.5s-47 98.833 -84 133.5s-82.833 60 -137.5 76s-117.334 24 -188.001 24c-56 0 -109.667 -3.83301 -161 -11.5s-100.833 -19.5 -148.5 -35.5s-94.334 -36 -140.001 -60s-91.167 -52.333 -136.5 -85v-1651h-360
v2478h-246v287h246v340h360v-340h328v-287h-328v-565c42 36 87.167 68.5 135.5 97.5s99.666 53.833 153.999 74.5s112 36.667 173 48s125.5 17 193.5 17c80 0 153.5 -6.5 220.5 -19.5s127.5 -32.167 181.5 -57.5s101.333 -57 142 -95s74.834 -82.333 102.501 -133
s48.334 -107.167 62 -169.5c13.667 -62.333 20.5 -130.833 20.5 -205.5v-1470h-361z" />
    </font>
</defs>
</svg>
