<?xml version="1.0" standalone="no"?>
<!DOCTYPE svg PUBLIC "-//W3C//DTD SVG 1.1//EN" "http://www.w3.org/Graphics/SVG/1.1/DTD/svg11.dtd" >
<svg xmlns="http://www.w3.org/2000/svg">
<metadata>
This is a custom SVG webfont generated by Font Squirrel.
Copyright   : Designed by Paul van der Laan  Pieter van Rosmalen 2008 Produced by Bold Monday For exclusive use by AUDI AG and its affiliates only
Designer    : Paul van der Laan  Pieter van Rosmalen
Foundry     : Bold Monday
Foundry URL : httpwwwaudicom
</metadata>
<defs>
<font id="webfonteAFDEIdi" horiz-adv-x="3465" >
<font-face units-per-em="4096" ascent="3113" descent="-983" />
<missing-glyph horiz-adv-x="1397" />
<glyph unicode=" "  horiz-adv-x="1397" />
<glyph unicode="&#x09;" horiz-adv-x="1397" />
<glyph unicode="&#xa0;" horiz-adv-x="1397" />
<glyph unicode="!" horiz-adv-x="1675" d="M635 934l-62 385q-8 49 -16.5 116.5t-16.5 145.5t-15.5 163t-13 170.5t-8.5 167.5t-3 154v730h676v-730q0 -71 -4 -153.5t-10 -167.5t-14.5 -170l-17 -163t-17 -144.5t-15.5 -114.5l-58 -389h-405zM492 0v618h692v-618h-692z" />
<glyph unicode="&#x22;" horiz-adv-x="2322" d="M520 1806l-53 217l-35 142t-38 162.5t-30 167t-12 155.5v316h635v-316q0 -72 -12 -155.5t-30 -167t-38 -162.5l-35 -142l-53 -217h-299zM1503 1806l-53 217l-35 142t-38 162.5t-30 167t-12 155.5v316h635v-316q0 -72 -12 -155.5t-30 -167t-38 -162.5l-35 -142l-53 -217 h-299z" />
<glyph unicode="#" d="M1950 160l45 499h-672l-45 -499h-533l46 499h-459v426h495l70 758h-565v426h606l45 471h533l-46 -471h672l45 471h533l-45 -471h458v-426h-499l-70 -758h569v-426h-606l-45 -499h-532zM2101 1843h-671l-70 -758h672z" />
<glyph unicode="$" d="M1479 -381v393q-165 3 -316 17.5t-283 38t-242 54.5t-192 66v492q62 -22 139 -44.5t164 -42.5t182 -37t195.5 -29.5t203.5 -19.5t206 -7q218 0 377.5 20t263 62t153.5 108t50 158q0 48 -17.5 88t-55.5 75t-97.5 65.5t-144.5 59.5t-196 57.5t-251 59.5q-254 55 -462 128.5 t-357 176t-230.5 238.5t-81.5 318q0 163 66.5 299t193 240.5t311 174.5t421.5 101v417h499v-397q143 -5 272.5 -18.5t242.5 -34.5t209 -49t173 -62v-487q-97 32 -212.5 62t-246 52.5t-274 36t-295.5 13.5q-192 0 -330 -18.5t-226.5 -57.5t-130.5 -99.5t-42 -144.5 q0 -48 18.5 -89t57.5 -76t100.5 -66.5t147.5 -60.5t198 -57t252 -56q260 -53 468.5 -122.5t355 -170.5t225 -240.5t78.5 -331.5q0 -167 -64 -307t-193.5 -247.5t-325 -180t-458.5 -104.5v-414h-499z" />
<glyph unicode="%" horiz-adv-x="5173" d="M1274 1319q-226 0 -402 60t-297 171.5t-184 269.5t-63 355q0 192 65.5 349.5t188 270t297.5 174.5t395 62q226 0 402 -60t297 -171.5t184 -270t63 -354.5q0 -128 -29.5 -241t-85.5 -208.5t-138 -170.5t-187 -127.5t-232.5 -80.5t-273.5 -28zM1274 1724q104 0 178.5 36 t122 97.5t70 143.5t22.5 174t-22.5 174t-70 143.5t-122 97.5t-178.5 36q-105 0 -179.5 -36t-122 -97.5t-69.5 -143.5t-22 -174t22 -174t69.5 -143.5t122 -97.5t179.5 -36zM3899 -66q-226 0 -402 60t-297 171.5t-184 270t-63 355.5q0 192 65.5 349.5t188 270t298 174.5 t394.5 62q226 0 402.5 -60t297.5 -171.5t184 -270t63 -354.5q0 -192 -65.5 -350t-188 -270.5t-298 -174.5t-395.5 -62zM3899 340q105 0 179.5 36t122 97.5t70 143.5t22.5 174t-22.5 173.5t-70 143t-122 97.5t-179.5 36q-104 0 -178.5 -36t-122 -97.5t-70 -143t-22.5 -173.5 t22.5 -174t70 -143.5t122 -97.5t178.5 -36zM975 0l2584 2966h631l-2584 -2966h-631z" />
<glyph unicode="&#x26;" horiz-adv-x="4121" d="M3178 0l-360 270q-134 -83 -281.5 -146t-304.5 -105t-320 -63.5t-327 -21.5q-236 0 -430 32t-346.5 89t-264.5 136.5t-185.5 175t-109.5 203t-36 221.5q0 100 24.5 186t71 161t113 141t150.5 125t184.5 114t214.5 108l49 21l-49 41q-81 61 -150.5 132.5t-119.5 154 t-78.5 176.5t-28.5 200q0 122 35 220t99 173.5t155 129.5t203.5 89t243.5 51.5t276 16.5q221 0 406.5 -36.5t320 -117.5t209.5 -210.5t75 -315.5q0 -118 -51 -226t-134.5 -201t-191 -168.5t-221.5 -129.5l-94 -45l877 -668q66 80 118.5 172t88.5 195.5t55.5 217.5t19.5 239 v123h885v-484h-352q-25 -115 -64.5 -220.5t-91.5 -202t-116 -184t-138 -167.5l799 -602h-828zM1421 1339l-164 -77q-74 -36 -143 -78.5t-123 -94.5t-86.5 -114t-32.5 -135q0 -111 52 -192t149.5 -134t237.5 -78.5t315 -25.5q100 0 201 11.5t200 34t193 56t180 78.5z M1696 1966q97 46 161 92t102 92.5t53.5 93.5t15.5 95q0 57 -27.5 104t-81 81.5t-132 53.5t-181.5 19q-100 0 -178.5 -16t-132.5 -48.5t-82.5 -81t-28.5 -112.5q0 -49 15.5 -97.5t46.5 -96.5t78 -95.5t110 -95.5l90 -70z" />
<glyph unicode="'" horiz-adv-x="1339" d="M520 1806l-53 217l-35 142t-38 162.5t-30 167t-12 155.5v316h635v-316q0 -72 -12 -155.5t-30 -167t-38 -162.5l-35 -142l-53 -217h-299z" />
<glyph unicode="(" horiz-adv-x="1901" d="M1303 -377q-126 82 -242.5 189.5t-217.5 236.5t-184 278.5t-142 315.5t-91.5 347t-32.5 374q0 192 32.5 373.5t91.5 347.5t142 315.5t184 278.5t217.5 236.5t242.5 189.5h507q-108 -91 -210 -202.5t-191 -241t-163 -276.5t-126.5 -310t-82 -341.5t-29.5 -369.5 q0 -192 29.5 -370.5t82 -342t126.5 -310t163 -276t190.5 -240.5t210.5 -202h-507z" />
<glyph unicode=")" horiz-adv-x="1901" d="M90 -377q108 91 210 202t191 240.5t163 276t127 310t82.5 341.5t29.5 371q0 191 -29.5 369.5t-82.5 341.5t-127 310t-163 276.5t-191 241t-210 202.5h508q126 -82 242.5 -189.5t217.5 -236.5t183.5 -278.5t141.5 -315.5t91.5 -347.5t32.5 -373.5t-32.5 -373.5 t-91.5 -347.5t-141.5 -315.5t-183.5 -278.5t-217.5 -236.5t-242.5 -189.5h-508z" />
<glyph unicode="*" horiz-adv-x="2310" d="M1393 1417l-115 197q-17 29 -34.5 63t-34 70.5t-31.5 74t-27 74.5q-11 -37 -25 -74.5t-30.5 -74t-33.5 -70.5t-34 -63l-115 -197l-331 193l114 196q31 59 77.5 124.5t98.5 121.5q-74 -15 -154.5 -22t-148.5 -7h-290v385h290q68 0 151 -8.5t161 -23.5q-53 55 -100 121.5 t-81 128.5l-114 196l332 193l114 -197q17 -31 34 -65.5t33.5 -71.5t30.5 -75t25 -75q12 37 27 75t31.5 75t34 71.5l34.5 65.5l115 197l332 -193l-115 -196l-37.5 -61t-43.5 -64l-48 -64t-51 -61q38 9 78 15t80 10t77.5 5.5t71.5 1.5h291v-385h-291q-35 0 -74.5 2t-79.5 5.5 t-80 10t-77 15.5q52 -59 99 -125t81 -125l114 -196z" />
<glyph unicode="+" horiz-adv-x="3269" d="M1327 160v815h-1073v491h1073v795h615v-795h1073v-491h-1073v-815h-615z" />
<glyph unicode="," horiz-adv-x="1610" d="M143 -623l373 713l-106 590h467q93 0 160.5 -24.5t111 -69.5t64 -109.5t20.5 -144.5q0 -60 -19 -127t-52.5 -139t-80 -147t-102 -149t-118.5 -145.5t-128 -136.5l-110 -111h-480z" />
<glyph unicode="-" horiz-adv-x="1937" d="M246 942v553h1446v-553h-1446z" />
<glyph unicode="." horiz-adv-x="1610" d="M434 0v684h742v-684h-742z" />
<glyph unicode="/" horiz-adv-x="2302" d="M49 0l1618 2966h586l-1614 -2966h-590z" />
<glyph unicode="0" d="M1724 -66q-275 0 -491 57t-378.5 160t-276 245t-185 312.5t-103.5 362.5t-32 395q0 205 34 400.5t107.5 369.5t190 320t282 251.5t382 164.5t491.5 59q276 0 491 -57t377.5 -159t275.5 -244t183.5 -311.5t102.5 -361.5t32 -395q0 -205 -33.5 -400.5t-107 -370 t-189.5 -321t-280.5 -252.5t-381.5 -165.5t-491 -59.5zM1733 434q149 0 267.5 34t208.5 98.5t153.5 157t104 209t59 255t18.5 295.5q0 158 -18.5 296.5t-59 254.5t-104 207.5t-153.5 155t-208.5 97t-267.5 33.5t-267 -33.5t-208 -97t-153 -155t-102.5 -207.5t-58 -254.5 t-18.5 -296.5q0 -157 18.5 -295.5t58 -255t102.5 -209t153 -157t207.5 -98.5t267.5 -34z" />
<glyph unicode="1" d="M795 0v483h692v1921l-692 -151v500l888 213h463v-2483h693v-483h-2044z" />
<glyph unicode="2" d="M418 0v426l962 713l229 174.5t184 156t140.5 143t98.5 134.5t58 132t19 136q0 124 -36.5 219t-114.5 159.5t-199.5 97t-292.5 32.5q-106 0 -225.5 -13.5t-240 -37.5t-235.5 -58t-212 -75v500q91 37 192.5 71.5t219 61.5t253 43t293.5 16q225 0 407 -30t323 -88.5 t243 -143.5t168 -194.5t97.5 -243t31.5 -287.5q0 -146 -40 -273.5t-110.5 -240.5t-165.5 -213.5t-205 -192.5t-230 -178.5l-240 -171.5l-410 -291h1663v-483h-2625z" />
<glyph unicode="3" d="M467 610q98 -34 215.5 -66t250.5 -57.5t279.5 -41t303.5 -15.5q190 0 337.5 33t248 90.5t152.5 135.5t52 167q0 86 -49 168t-149.5 145.5t-254 102.5t-362.5 39h-373v475h373q175 0 302.5 28t210.5 78t123 119t40 152q0 53 -22.5 100.5t-65 87.5t-102 72t-133 54t-160 34 t-181.5 12q-118 0 -246.5 -15.5t-254.5 -42.5t-244.5 -64.5t-216.5 -82.5v492q59 31 128.5 59t147 53t163.5 45t178 34t190 22t200 8q301 0 541.5 -58t409 -164t258.5 -255t90 -330q0 -104 -34 -201t-103 -182t-173 -155t-243 -121q180 -53 312.5 -127t219.5 -166.5 t129.5 -201.5t42.5 -230q0 -123 -39.5 -238t-119.5 -215.5t-200 -184t-280.5 -143t-362 -92.5t-444.5 -33q-186 0 -344 15t-292 40.5t-245.5 59t-203.5 70.5v491z" />
<glyph unicode="4" d="M2036 0v582h-1790v426l1822 1958h623v-1901h586v-483h-586v-582h-655zM2036 1815v188v188l-131 -141l-131 -141l-787 -844h1049v750z" />
<glyph unicode="5" d="M487 610q99 -34 216.5 -66t250 -57.5t279 -41t303.5 -15.5q226 0 383.5 33t256 91t143 136.5t44.5 169.5q0 85 -51 152t-140.5 119t-210 90.5t-259 65.5t-288.5 44t-298.5 26.5t-288.5 12.5t-258 2l66 1594h2253v-484h-1635l-24 -614q144 -8 298 -22.5t309 -39.5 t305 -62.5t284.5 -91t248.5 -125t197 -164.5t129.5 -209.5t46.5 -260.5q0 -132 -37 -254.5t-114.5 -229t-197 -194t-283 -150t-373.5 -97t-469 -34.5q-186 0 -344.5 15t-292.5 40.5t-245.5 59t-203.5 70.5v491z" />
<glyph unicode="6" d="M2949 2376q-83 27 -184.5 53.5t-214.5 47.5t-233 33.5t-240 12.5q-238 0 -420.5 -49t-312.5 -143.5t-210 -232.5t-114 -316q80 46 169.5 83t189 63t208.5 40t228 14q212 0 394 -31t331.5 -90.5t265.5 -146.5t195 -198.5t120 -246t41 -290.5q0 -138 -39.5 -269.5 t-118.5 -247.5t-197.5 -213t-275.5 -167t-354 -109t-432 -39q-349 0 -616.5 93t-449 273.5t-275 446t-93.5 609.5q0 398 105 709.5t321 526t545 327t778 112.5q132 0 257.5 -13t239.5 -34.5t213 -49.5t179 -59v-499zM971 1315q0 -170 30.5 -303t84.5 -233.5t128.5 -171 t163 -114t187 -63.5t200.5 -20q178 0 311.5 47t221.5 125.5t132 181.5t44 215q0 123 -49 217t-140.5 158t-222 96.5t-293.5 32.5q-117 0 -223.5 -10t-205 -31t-190.5 -52.5t-179 -74.5z" />
<glyph unicode="7" d="M791 0l1531 2482h-1863v484h2597v-431l-1573 -2535h-692z" />
<glyph unicode="8" d="M2494 1569q127 -35 231 -81t185.5 -102.5t141 -121.5t99 -138t58.5 -152t19 -163q0 -118 -40 -228.5t-121 -208t-204 -178.5t-289 -139t-376 -90.5t-465 -32.5t-465 32.5t-376 90.5t-289 139t-204 178.5t-121 208t-40 228.5q0 84 19.5 163t60 152t101.5 138t144.5 121.5 t189 102.5t234.5 81q-147 46 -258.5 111.5t-186 147t-112 178.5t-37.5 206q0 186 89.5 337t261 258t420.5 165.5t569 58.5q322 0 572.5 -58.5t421.5 -165.5t260 -258t89 -337q0 -109 -36 -206t-108.5 -178.5t-182 -147t-255.5 -111.5zM2548 868q0 83 -46 164.5t-145 146 t-253.5 104.5t-370.5 40q-214 0 -368 -40t-253.5 -104.5t-146.5 -146t-47 -164.5t48.5 -165t148.5 -147t253.5 -105.5t364.5 -40.5q209 0 362.5 40.5t254 105.5t149.5 147t49 165zM2408 2159q0 83 -44 157t-129.5 130t-211.5 89t-290 33q-165 0 -291 -33t-211.5 -89 t-129.5 -130t-44 -157t40 -153.5t123 -122t210.5 -80.5t302.5 -29t302.5 29t210 80.5t122.5 122t40 153.5z" />
<glyph unicode="9" d="M516 590q83 -28 184.5 -54.5t214.5 -47.5t233.5 -33.5t240.5 -12.5q262 0 454 58.5t321.5 165t202 255t95.5 328.5q-81 -48 -173 -86.5t-194 -65.5t-213 -42t-231 -15q-315 0 -565 63.5t-424 187.5t-266.5 305.5t-92.5 418.5q0 136 39.5 264.5t118.5 241.5t197.5 206.5 t275.5 161t353.5 105t432.5 37.5q349 0 616.5 -93t449 -273.5t275 -445.5t93.5 -609q0 -398 -105 -709.5t-321 -526.5t-545.5 -327.5t-777.5 -112.5q-132 0 -257.5 13t-239 34.5t-213 49.5t-179.5 59v500zM2494 1704q-3 130 -28 243.5t-71 208.5t-113.5 169t-154.5 125.5 t-194 78.5t-233 27q-178 0 -311 -44t-221.5 -118.5t-132.5 -172.5t-44 -206q0 -118 49 -207t140.5 -148.5t222 -89.5t293.5 -30q117 0 222.5 10t204 30.5t190.5 51t181 72.5z" />
<glyph unicode=":" horiz-adv-x="1610" d="M434 1417v684h742v-684h-742zM434 0v684h742v-684h-742z" />
<glyph unicode=";" horiz-adv-x="1610" d="M434 1417v684h742v-684h-742zM143 -623l373 713l-106 590h467q93 0 160.5 -24.5t111 -69.5t64 -109.5t20.5 -144.5q0 -60 -19 -127t-52.5 -139t-80 -147t-102 -149t-118.5 -145.5t-128 -136.5l-110 -111h-480z" />
<glyph unicode="&#x3c;" horiz-adv-x="3269" d="M1954 184l-1553 1028l1553 1029h913l-1511 -1029l1511 -1028h-913z" />
<glyph unicode="=" horiz-adv-x="3269" d="M336 483v492h2597v-492h-2597zM336 1466v492h2597v-492h-2597z" />
<glyph unicode="&#x3e;" horiz-adv-x="3269" d="M1315 184h-914l1512 1028l-1512 1029h914l1552 -1029z" />
<glyph unicode="?" horiz-adv-x="2376" d="M614 934l-49 491l590 316q84 45 159 96.5t130.5 110t88 124.5t32.5 140q0 80 -41.5 140t-116 99.5t-176.5 59.5t-223 20q-75 0 -157 -6.5t-167 -19t-171 -29.5t-167.5 -38.5t-157 -46.5t-139.5 -52v500q91 37 197.5 71.5t231 61.5t267.5 43t308 16q176 0 331.5 -22 t286 -65t234 -107.5t175.5 -150t110 -192t38 -233.5q0 -117 -29.5 -214t-81 -178.5t-122 -150.5t-153 -129.5t-173 -114.5l-182.5 -106l-328 -184l-24 -250h-521zM541 0v618h692v-618h-692z" />
<glyph unicode="@" horiz-adv-x="5382" d="M2359 106q-216 0 -383.5 63t-281.5 175.5t-173 268t-59 341.5q0 188 50.5 344.5t138 281.5t206 218t254.5 155t283 93t293 31q120 0 219.5 -12.5t184 -36.5t156 -58.5t136.5 -77.5l90 123h459l-315 -1110q-10 -34 -17.5 -73t-7.5 -95q0 -37 14 -78.5t51.5 -76.5 t104 -57.5t170.5 -20.5q135 3 245 74t187.5 193.5t119.5 288t42 357.5q0 171 -47 328t-141 292.5t-236 246.5t-331.5 189.5t-427.5 121.5t-525 43q-314 0 -580 -62.5t-482 -176t-380 -272.5t-275 -352.5t-167.5 -416t-56.5 -461.5q0 -217 55.5 -403t158 -338.5t249 -270 t328.5 -197.5t395.5 -121.5t451.5 -41.5q180 0 344 14.5t314.5 40.5t289.5 62t268 79v-409q-118 -43 -258.5 -78t-298 -59.5t-329 -38t-351.5 -13.5q-522 0 -922.5 123t-672.5 352.5t-411.5 558t-139.5 740.5q0 297 73 570.5t215.5 510.5t352.5 431.5t484.5 332.5 t611.5 213.5t733 75.5q347 0 648 -52.5t549 -151.5t441.5 -241.5t326.5 -322.5t202 -395t69 -459q0 -211 -44.5 -389.5t-124 -323.5t-190 -255t-242.5 -184.5t-281 -112.5t-305 -38q-169 0 -292 24t-210 65t-142.5 96.5t-89.5 118.5q-61 -63 -146.5 -118.5t-186.5 -96.5 t-213.5 -65t-227.5 -24zM2503 537q130 0 247.5 44t223.5 128l245 860q-213 73 -405 73q-164 0 -302.5 -40t-239 -122t-156.5 -207t-56 -294q0 -88 23 -168t75.5 -141t137 -97t207.5 -36z" />
<glyph unicode="A" horiz-adv-x="3817" d="M3068 0l-320 614h-1691l-316 -614h-733l1557 2966h688l1556 -2966h-741zM2138 1864l-117 231l-116 232l-117 -234l-117 -233l-368 -734h1204z" />
<glyph unicode="B" horiz-adv-x="3510" d="M442 0v2966h1430q321 0 545.5 -54t365.5 -158.5t205 -258t64 -353.5q0 -114 -28 -205t-81 -164t-130 -128t-175 -97q141 -46 253 -112t189.5 -153t118.5 -194.5t41 -236.5q0 -122 -27.5 -232.5t-89 -205t-159.5 -171t-238 -130.5t-325.5 -83.5t-422.5 -29.5h-1536z M1970 467q164 0 278 27t185 78.5t103 127t32 172.5t-32 173.5t-103 130t-185 82t-278 28.5h-872v-819h872zM1815 1737q142 0 248.5 27t176.5 77.5t105 121.5t35 159q0 87 -35 157t-105 119t-176.5 75t-248.5 26h-717v-762h717z" />
<glyph unicode="C" horiz-adv-x="3330" d="M3092 127q-117 -47 -234 -81.5t-251.5 -59t-295.5 -38.5t-365 -14q-294 0 -533 56t-426 157.5t-324 243t-226 314t-132 369.5t-43 409q0 208 45.5 403.5t137 367.5t230.5 315t326.5 245.5t423 159.5t521.5 57q173 0 329.5 -17.5t294.5 -47.5t257.5 -69.5t219.5 -82.5 v-520q-95 41 -210 81.5t-247.5 72.5t-282.5 51.5t-316 19.5q-181 0 -329.5 -36t-265.5 -101.5t-203.5 -159t-143 -208.5t-84 -249.5t-27.5 -281.5q0 -139 25.5 -270t80 -246.5t138.5 -211t201 -164.5t268 -107t340 -38q136 0 279 13.5t284 37.5t277.5 58t260.5 76v-504z" />
<glyph unicode="D" horiz-adv-x="3793" d="M442 0v2966h1442q285 0 517.5 -49t415.5 -140t317.5 -220.5t222.5 -291.5t131 -352t43 -402q0 -208 -44 -400.5t-134 -360.5t-228 -306t-325.5 -237t-426 -153t-530.5 -54h-1401zM1749 483q210 0 374 33t287 95t209 150.5t139 200t77 242.5t24 279t-24 279t-77 242 t-139 199.5t-209 150.5t-287 95t-374 33h-651v-1999h651z" />
<glyph unicode="E" horiz-adv-x="3236" d="M442 0v2966h2499v-484h-1839v-721h1577v-483h-1577v-795h1855v-483h-2515z" />
<glyph unicode="F" horiz-adv-x="2970" d="M442 0v2966h2356v-484h-1696v-803h1421v-483h-1421v-1196h-660z" />
<glyph unicode="G" horiz-adv-x="3793" d="M2822 1434h660v-1274q-92 -31 -199.5 -59.5t-225 -53.5t-243 -46t-254.5 -36t-258 -23t-254 -8q-410 0 -740.5 97t-563 290.5t-357.5 484t-125 677.5q0 226 50.5 429t151 375t251.5 309.5t351.5 234t451 148.5t550.5 52q126 0 246 -7t231.5 -20.5t213 -32.5t194.5 -43 t178.5 -52.5t165.5 -61.5v-528l-243 79.5t-282 75.5t-314.5 56t-339.5 22q-309 0 -532 -68t-367 -200t-212.5 -325t-68.5 -443q0 -168 30.5 -310.5t93 -258t158 -204t225.5 -148t295.5 -90t368.5 -30.5q109 0 205.5 6.5t183.5 19t167 30t157 39.5v897z" />
<glyph unicode="H" horiz-adv-x="3944" d="M2843 0v1245h-1741v-1245h-660v2966h660v-1237h1741v1237h659v-2966h-659z" />
<glyph unicode="I" horiz-adv-x="2257" d="M311 0v483h488v1999h-488v484h1635v-484h-488v-1999h488v-483h-1635z" />
<glyph unicode="J" horiz-adv-x="1929" d="M41 -111q26 -5 58 -8.5t66.5 -6t71.5 -4t74 -1.5q161 0 262 37.5t157.5 114.5t76.5 195.5t20 279.5v1986h-569v484h1229v-2544q0 -288 -69 -492t-207.5 -330t-337.5 -182.5t-463 -56.5q-42 0 -96 3t-112.5 11t-95 16.5t-65.5 18.5v479z" />
<glyph unicode="K" horiz-adv-x="3600" d="M2621 0l-1519 1319v-1319h-660v2966h660v-1278l1552 1278h881l-1434 -1151l-178 -144l-178 -143l97.5 -80l97 -80l97 -80l97.5 -80l1458 -1208h-971z" />
<glyph unicode="L" horiz-adv-x="2843" d="M442 0v2966h660v-2483h1610v-483h-2270z" />
<glyph unicode="M" horiz-adv-x="4809" d="M3727 0v1565v262v262l-190.5 -272.5l-190.5 -272.5l-712 -1012h-463l-713 1016l-95 135.5l-93.5 135l-93.5 135l-95 135.5v-258v-258v-1573h-639v2966h729l955 -1364l149.5 -213.5l149.5 -212.5l151.5 216.5l151.5 217.5l950 1356h688v-2966h-639z" />
<glyph unicode="N" horiz-adv-x="4026" d="M2814 0l-1401 1761l-163.5 207.5l-164.5 206.5v-114v-113.5v-113.5v-114v-1720h-643v2966h770l1393 -1758l84 -105l84 -106l84 -106l84 -105v114v114v113.5v113.5v1725h643v-2966h-770z" />
<glyph unicode="O" horiz-adv-x="3899" d="M1950 -66q-294 0 -533.5 56t-427 157.5t-324.5 243t-226.5 314t-133 369.5t-43.5 409q0 208 45.5 403.5t138 367.5t232 315t327 245.5t423.5 159.5t522 57q294 0 533 -56t426.5 -157t324.5 -243t226.5 -314t133 -369t43.5 -409q0 -208 -45.5 -403.5t-138 -367.5 t-232 -315.5t-327 -246t-423.5 -159.5t-521 -57zM1950 455q181 0 326 37.5t257 105.5t192.5 162.5t132 208.5t75.5 244.5t24 269.5t-24 269.5t-75.5 244.5t-132 208.5t-192.5 162.5t-257 105.5t-326 37.5t-326.5 -37.5t-257.5 -105.5t-192 -162.5t-131.5 -208.5t-76 -244.5 t-24.5 -269.5t24.5 -269.5t76 -244.5t131.5 -208.5t192 -162.5t257.5 -105.5t326.5 -37.5z" />
<glyph unicode="P" horiz-adv-x="3346" d="M442 0v2966h1315q225 0 415.5 -26t344 -79t270.5 -133t196 -188t119 -244t40 -301q0 -161 -40.5 -296t-121 -243.5t-201 -191t-281 -137.5t-361.5 -83t-441 -28h-594v-1016h-660zM1655 1499q224 0 377.5 29.5t248 91t136 154.5t41.5 221q0 124 -41.5 216t-132.5 152 t-236 89.5t-352 29.5h-594v-983h553z" />
<glyph unicode="Q" horiz-adv-x="3899" d="M2839 -578q-56 0 -92.5 6.5t-65 19.5t-54 33l-59.5 48l-495 410q-31 0 -61.5 -2.5t-61.5 -2.5q-294 0 -533.5 56t-427 157.5t-324.5 243t-226.5 314t-133 369.5t-43.5 409q0 208 45.5 403.5t138 367.5t232 315t327 245.5t423.5 159.5t522 57q294 0 533 -56t426.5 -157 t324.5 -243t226.5 -314t133 -369t43.5 -409q0 -231 -56.5 -446t-170 -399.5t-285 -330t-401.5 -237.5q55 -22 113 -58t129 -94l589 -496h-716zM1950 455q181 0 326 37.5t257 105.5t192.5 162.5t132 208.5t75.5 244.5t24 269.5t-24 269.5t-75.5 244.5t-132 208.5 t-192.5 162.5t-257 105.5t-326 37.5t-326.5 -37.5t-257.5 -105.5t-192 -162.5t-131.5 -208.5t-76 -244.5t-24.5 -269.5t24.5 -269.5t76 -244.5t131.5 -208.5t192 -162.5t257.5 -105.5t326.5 -37.5z" />
<glyph unicode="R" horiz-adv-x="3494" d="M2605 0l-737 922q-36 45 -66.5 78.5t-61.5 57t-65.5 38.5t-78.5 23.5t-100.5 12t-131.5 3.5h-262v-1135h-660v2966h1258q333 0 591 -57t434.5 -169.5t267.5 -278.5t91 -384q0 -158 -50.5 -289.5t-147 -235.5t-237.5 -181t-322 -126q74 -34 137.5 -88.5t128.5 -128.5 l835 -1028h-823zM1630 1614q207 0 352 30.5t236 89t132.5 143t41.5 191.5q0 103 -46 180.5t-140 129.5t-237.5 78t-338.5 26h-528v-868h528z" />
<glyph unicode="S" horiz-adv-x="3240" d="M262 635q98 -34 227 -69t277 -63.5t307.5 -46.5t319.5 -18q227 0 395 26.5t278.5 76.5t165 122t54.5 164q0 48 -19.5 88t-61.5 74.5t-107 64.5t-156 58t-208.5 55.5t-263.5 57.5q-196 39 -361.5 87.5t-298 109.5t-233 134.5t-168 161.5t-101.5 191.5t-34 224.5 q0 129 35.5 245.5t110 216.5t190 180t275.5 137t367 87.5t464 30.5q174 0 329 -14.5t290 -39.5t248 -58.5t202 -71.5v-504q-101 32 -221.5 64.5t-256 58t-284.5 41.5t-307 16q-200 0 -345 -24.5t-239.5 -71t-140 -113.5t-45.5 -151q0 -48 20.5 -88t64 -74.5t110 -64.5 t158.5 -58t210 -55.5t265 -57.5q197 -39 362 -86t297.5 -106t233 -131t168 -160.5t101.5 -195t34 -234.5q0 -131 -41.5 -250t-125.5 -221t-211.5 -184.5t-299.5 -141t-389.5 -90t-481.5 -31.5q-184 0 -354 16.5t-318.5 43.5t-272 61.5t-214.5 71.5v508z" />
<glyph unicode="T" horiz-adv-x="3105" d="M1221 0v2482h-1090v484h2843v-484h-1094v-2482h-659z" />
<glyph unicode="U" horiz-adv-x="3752" d="M2712 2966h655v-1770q0 -210 -40.5 -385t-122 -315.5t-205 -245.5t-289 -175.5t-374 -105.5t-460.5 -35q-261 0 -473 35t-378 105.5t-286.5 175.5t-199 245.5t-116.5 315.5t-38 385v1770h655v-1737q0 -197 47.5 -343t149 -242.5t260 -144.5t379.5 -48t379.5 48t260 144.5 t149 242.5t47.5 343v1737z" />
<glyph unicode="V" horiz-adv-x="3654" d="M1483 0l-1499 2966h753l955 -1995l75.5 -160l75.5 -160l76 160l76 160l954 1995h721l-1499 -2966h-688z" />
<glyph unicode="W" horiz-adv-x="5486" d="M3588 0l-847 2224l-850 -2224h-671l-1195 2966h728l834 -2227l851 2227h659l849 -2227l833 2227h682l-1196 -2966h-677z" />
<glyph unicode="X" horiz-adv-x="3473" d="M2613 0l-748 930l-37 45.5l-36 45l-36 44.5l-36 45l-37 -46l-37.5 -46l-37 -46l-37.5 -47l-748 -925h-782l1298 1536l-1204 1430h819l638 -799l35.5 -44l35.5 -44.5l35.5 -44.5l34.5 -43l34.5 43l35.5 44.5l36 44.5l35 44l641 799h782l-1183 -1410l1318 -1556h-819z" />
<glyph unicode="Y" horiz-adv-x="3363" d="M1352 0v1102l-1360 1864h782l631 -902l70.5 -101.5l70.5 -101l70.5 -101l71.5 -101.5l71 102l72 102.5l72 102.5l71 102l635 898h762l-1360 -1836v-1130h-659z" />
<glyph unicode="Z" horiz-adv-x="3416" d="M221 0v426l2036 2056h-1978v484h2834v-422l-2044 -2061h2126v-483h-2974z" />
<glyph unicode="[" horiz-adv-x="1901" d="M516 -381v3486h1155v-340h-594v-2806h594v-340h-1155z" />
<glyph unicode="\" horiz-adv-x="2302" d="M1663 0l-1688 3105h586l1692 -3105h-590z" />
<glyph unicode="]" horiz-adv-x="1901" d="M229 -381v340h594v2806h-594v340h1155v-3486h-1155z" />
<glyph unicode="^" horiz-adv-x="2302" d="M1606 1786l-455 717l-455 -717h-553l770 1180h476l770 -1180h-553z" />
<glyph unicode="_" horiz-adv-x="2417" d="M-33 -492v492h2482v-492h-2482z" />
<glyph unicode="`" horiz-adv-x="2253" d="M1233 2408l-696 648h770l409 -648h-483z" />
<glyph unicode="a" horiz-adv-x="2949" d="M2044 0l-41 213q-78 -66 -174 -118t-207.5 -87.5t-239 -54.5t-268.5 -19q-213 0 -382.5 43t-287.5 126.5t-180.5 206t-62.5 280.5q0 131 45.5 232t130 176t204.5 126.5t269 83t324 45t370 13.5q80 0 156.5 -2t141.5 -5l128 -6v4q0 111 -42 190.5t-124.5 131t-205 76 t-283.5 24.5q-134 0 -256 -13t-233.5 -36t-212 -54.5t-191.5 -68.5v459q89 45 196 82t229 63.5t256 41t277 14.5q290 0 516.5 -48t382 -152t237 -268t81.5 -396v-1303h-553zM1970 889h-328q-209 0 -358 -14.5t-244 -47.5t-139.5 -85.5t-44.5 -127.5q0 -51 23 -97t72.5 -81 t127.5 -55.5t187 -20.5q118 0 218.5 14t187 39t160 59.5t138.5 76.5v340z" />
<glyph unicode="b" horiz-adv-x="3310" d="M401 0v2966h643v-1074q80 63 174.5 114t202.5 86.5t230.5 55t257.5 19.5q278 0 497 -75t370.5 -216t231.5 -344t80 -459q0 -258 -82.5 -468t-239 -359.5t-383 -230.5t-515.5 -81q-137 0 -263 18.5t-237 54t-205 85.5t-168 113l-86 -205h-508zM1044 594q80 -42 160 -72.5 t167 -51t183.5 -30.5t210.5 -10q163 0 288 41.5t209.5 120.5t127.5 194t43 263q0 147 -43 261.5t-127.5 193t-209.5 119t-288 40.5q-114 0 -210.5 -9.5t-183.5 -29.5t-167 -51t-160 -74v-905z" />
<glyph unicode="c" horiz-adv-x="2531" d="M2327 102q-85 -37 -181.5 -67t-202.5 -51.5t-220.5 -33t-235.5 -11.5q-318 0 -555.5 73t-395.5 215t-236.5 351.5t-78.5 482.5q0 162 35 306.5t105.5 267t177 220.5t249.5 166.5t322.5 105t396.5 36.5q111 0 225.5 -12.5t221 -35t198.5 -54.5t158 -70v-471 q-72 31 -165 57.5t-196 46.5t-210 31.5t-207 11.5q-161 0 -283.5 -41t-205 -119t-124.5 -190.5t-42 -255.5q0 -149 41.5 -265.5t123 -197t201.5 -122.5t277 -42q117 0 227 10.5t211.5 29.5t194 45.5t174.5 58.5v-476z" />
<glyph unicode="d" horiz-adv-x="3310" d="M2347 0l-45 238q-74 -68 -172 -124t-212.5 -96t-241.5 -62t-259 -22q-281 0 -503 77.5t-376 222t-235.5 352t-81.5 467.5q0 259 83 465.5t242 350.5t390.5 221t529.5 77q117 0 229.5 -14t215 -40.5t192.5 -64.5t162 -86v1004h643v-2966h-561zM2265 1507q-80 42 -160 72.5 t-167 51t-183.5 30.5t-210.5 10q-163 0 -287.5 -41.5t-209 -120.5t-127.5 -194t-43 -262q0 -148 43 -262.5t127.5 -193t209 -119t287.5 -40.5q114 0 210.5 9.5t183.5 29.5t167 51t160 74v905z" />
<glyph unicode="e" horiz-adv-x="2986" d="M2609 135q-91 -45 -212 -81t-258.5 -61.5t-285.5 -39.5t-292 -14q-225 0 -412 38t-336 107.5t-260 168.5t-185 221.5t-110.5 265t-36.5 300.5q0 148 33.5 289.5t102.5 266.5t174 230t247.5 181t324.5 118t404 42q225 0 408.5 -38.5t327 -108.5t248 -168.5t173 -219 t101.5 -260t33 -291.5q0 -29 -1 -55.5t-2.5 -51.5t-4 -47t-5.5 -42h-1913q12 -106 61.5 -191t141.5 -144.5t230 -91.5t329 -32q138 0 274 12.5t261.5 35t237 53t202.5 67.5v-459zM2138 1282q-23 111 -77.5 192t-136 134t-187.5 78.5t-230 25.5t-229 -25.5t-185.5 -78.5 t-134.5 -134t-77 -192h1257z" />
<glyph unicode="f" horiz-adv-x="2130" d="M610 0v1642h-463v459h463v62q0 226 72.5 388.5t203.5 267.5t313.5 154.5t402.5 49.5q93 0 168.5 -5t141 -15t126 -23.5t125.5 -30.5v-450l-108 25t-104.5 21t-107 14t-114.5 5q-119 0 -209 -20.5t-151.5 -70.5t-92.5 -133.5t-31 -209.5v-29h819v-459h-819v-1642h-635z " />
<glyph unicode="g" horiz-adv-x="3310" d="M2265 287q-75 -62 -171 -112t-205.5 -85t-229 -54.5t-242.5 -19.5q-281 0 -503 74.5t-376 214t-235.5 339t-81.5 450.5q0 250 83 449t242 337.5t390.5 212.5t529.5 74q131 0 255 -18t234.5 -50.5t204 -78.5t162.5 -103l78 184h508v-1966q0 -279 -94.5 -480.5t-276 -331.5 t-445 -191.5t-601.5 -61.5q-157 0 -298.5 8t-267.5 24t-237.5 40.5t-208.5 58.5v512q85 -29 187.5 -52.5t220 -40t248 -25.5t270.5 -9q223 0 385 29t267.5 92.5t156.5 164t51 243.5v172zM2265 1507q-80 42 -160 72.5t-167 51t-183.5 30.5t-210.5 10q-160 0 -284 -37.5 t-209 -110t-129.5 -180.5t-44.5 -249t44.5 -248.5t129.5 -180t209 -109t284 -36.5q114 0 210.5 9.5t183.5 29.5t167 51t160 74v823z" />
<glyph unicode="h" horiz-adv-x="3289" d="M2302 0v1155q0 132 -31 229.5t-97.5 162t-170.5 96.5t-250 32q-115 0 -215 -14.5t-187 -38.5t-163 -56t-144 -67v-1499h-643v2966h643v-1074q78 64 172 115.5t201 86.5t225 54t246 19q140 0 273 -17t250.5 -57.5t215.5 -109t168.5 -172t110 -245.5t39.5 -329v-1237h-643z " />
<glyph unicode="i" horiz-adv-x="1446" d="M401 0v2101h643v-2101h-643zM401 2408v558h643v-558h-643z" />
<glyph unicode="j" horiz-adv-x="1446" d="M-373 -401q53 -11 124 -18t143 -7q158 0 257 37.5t154.5 114.5t75.5 193t20 274v1908h643v-1982q0 -284 -67.5 -482.5t-201.5 -322.5t-331.5 -180t-459.5 -56q-56 0 -111.5 5t-99.5 13t-82.5 20t-63.5 24v459zM401 2408v558h643v-558h-643z" />
<glyph unicode="k" horiz-adv-x="2937" d="M2064 0l-1020 963v-963h-643v2966h643v-1721l1045 856h840l-942 -753l-73.5 -58l-72.5 -57.5l-72 -57l-73 -57.5l71 -62.5l72 -63l72 -62.5l71 -62l979 -868h-897z" />
<glyph unicode="l" horiz-adv-x="1729" d="M1655 37q-52 -20 -116.5 -36.5t-135.5 -28.5t-146 -18.5t-147 -6.5q-200 0 -339 44t-227 127.5t-127.5 204.5t-39.5 275v2368h643v-2282q0 -55 10 -100t42 -76.5t91.5 -48.5t159.5 -17q93 0 175 13.5t157 31.5v-450z" />
<glyph unicode="m" horiz-adv-x="5190" d="M4202 0v1155q0 132 -31 229.5t-97 162t-170 96.5t-250 32q-116 0 -215.5 -14.5t-187 -38.5t-163.5 -56t-143 -67v-149.5v-149.5v-1200h-643v1155q0 132 -31 229.5t-97.5 162t-170.5 96.5t-250 32q-115 0 -215 -14.5t-187 -38.5t-163 -56t-144 -67v-1499h-643v2101h562 l45 -241q80 72 177 129t208 96.5t235.5 60.5t259.5 21q137 0 270 -17.5t252 -58t220.5 -107.5t175.5 -165q83 83 190 147.5t232.5 109t267 68t293.5 23.5q140 0 273 -17t250.5 -57.5t215.5 -109t168.5 -172t110 -245.5t39.5 -329v-1237h-644z" />
<glyph unicode="n" horiz-adv-x="3289" d="M2302 0v1155q0 132 -31 229.5t-97.5 162t-170.5 96.5t-250 32q-115 0 -215 -14.5t-187 -38.5t-163 -56t-144 -67v-1499h-643v2101h562l45 -241q80 72 177 129t208 96.5t235.5 60.5t259.5 21q140 0 273 -17t250.5 -57.5t215.5 -109t168.5 -172t110 -245.5t39.5 -329v-1237 h-643z" />
<glyph unicode="o" horiz-adv-x="3252" d="M1626 -66q-227 0 -419.5 33.5t-348.5 99t-275 161t-199.5 220t-121.5 276.5t-41 329q0 169 41 317t121.5 272t199.5 221.5t275 165t348.5 103t419.5 35.5q228 0 421 -33.5t349.5 -99t275 -161t198.5 -220t120.5 -276t40.5 -328.5q0 -169 -41 -317.5t-121.5 -272 t-199.5 -221.5t-275 -165.5t-348.5 -103t-419.5 -35.5zM1626 406q168 0 305.5 44.5t235.5 127.5t151.5 202.5t53.5 268.5t-53.5 268.5t-151.5 203.5t-235.5 129.5t-305.5 45.5q-167 0 -304.5 -44.5t-235.5 -128t-151.5 -202.5t-53.5 -268t53.5 -269t151.5 -204t235.5 -129 t304.5 -45z" />
<glyph unicode="p" horiz-adv-x="3310" d="M401 -864v2965h562l45 -237q80 69 177 125t210.5 95.5t242 61t271.5 21.5q278 0 497 -75t370.5 -216t231.5 -344t80 -459q0 -258 -80 -468t-233.5 -359.5t-377.5 -230.5t-513 -81q-120 0 -239 15.5t-228.5 44.5t-205 70t-167.5 92v-1020h-643zM1044 594q80 -42 160 -72.5 t167 -51t183.5 -30.5t210.5 -10q163 0 288 41.5t209.5 120.5t127.5 194t43 263q0 147 -43 261.5t-127.5 193t-209.5 119t-288 40.5q-114 0 -210.5 -9.5t-183.5 -29.5t-167 -51t-160 -74v-905z" />
<glyph unicode="q" horiz-adv-x="3310" d="M2265 -864v1069q-75 -62 -171 -112t-205.5 -85t-229 -54.5t-242.5 -19.5q-281 0 -503 77.5t-376 222t-235.5 352t-81.5 467.5q0 259 83 465.5t242 350.5t390.5 221t529.5 77q131 0 255 -18t234.5 -50.5t204 -78.5t162.5 -103l78 184h508v-2965h-643zM2265 1507 q-80 42 -160 72.5t-167 51t-183.5 30.5t-210.5 10q-163 0 -287.5 -41.5t-209 -120.5t-127.5 -194t-43 -262q0 -148 43 -262.5t127.5 -193t209 -119t287.5 -40.5q114 0 210.5 9.5t183.5 29.5t167 51t160 74v905z" />
<glyph unicode="r" horiz-adv-x="2159" d="M401 0v2101h586l25 -385q51 97 120 178t160.5 140t206.5 92t258 33q78 0 159.5 -9.5t143.5 -27.5v-557q-34 7 -77 13t-89.5 10.5t-94.5 6.5t-91 2q-86 0 -161.5 -10.5t-140.5 -29t-120 -44.5t-100.5 -56.5t-80.5 -65.5t-61 -72v-1319h-643z" />
<glyph unicode="s" horiz-adv-x="2646" d="M262 573q47 -19 113 -38.5t144 -37t164.5 -33t174.5 -26.5t174 -17.5t164 -6.5q143 0 256 9t192 30.5t120.5 57t41.5 87.5q0 48 -35 80.5t-108.5 56.5t-186.5 43.5t-268 40.5q-226 31 -400.5 82t-294 131t-181.5 192.5t-62 266.5q0 163 68 288t209.5 210.5t360.5 129.5 t522 44q81 0 168 -6t173.5 -17.5t169.5 -27.5t156 -35t132 -41t98 -45v-459q-47 21 -112 40.5t-140.5 37.5t-158.5 33t-166.5 26t-165.5 17t-154 6q-117 0 -212.5 -9t-163 -30.5t-104.5 -56t-37 -85.5q0 -48 36 -79.5t110 -55t188 -42t269 -40.5q229 -32 403 -81t292 -127 t178 -190.5t60 -272.5t-81 -286.5t-239.5 -215t-392.5 -135.5t-540 -47q-141 0 -281.5 15t-265 39t-225.5 55t-162 63v462z" />
<glyph unicode="t" horiz-adv-x="2335" d="M2187 61q-60 -21 -142 -41t-174.5 -35.5t-189.5 -24.5t-186 -9q-237 0 -408 50t-281.5 149t-163 246t-52.5 341v905h-467v459h491l66 525h537v-525h954v-459h-954v-831q0 -97 20.5 -164.5t68.5 -110t126.5 -62t193.5 -19.5q83 0 164 6.5t154.5 16.5t135.5 23t107 27v-467 z" />
<glyph unicode="u" horiz-adv-x="3240" d="M2277 0l-45 229q-71 -65 -165 -117.5t-204 -91t-233 -61t-250 -25.5q-136 0 -265.5 17t-244.5 58t-212 109.5t-166.5 171.5t-108.5 245t-39 329v1237h643v-1155q0 -132 31 -230t97.5 -162.5t170.5 -96t250 -31.5q98 0 186 11.5t168.5 33.5t155.5 55t149 76v1499h644 v-2101h-562z" />
<glyph unicode="v" horiz-adv-x="2859" d="M1098 0l-1065 2101h696l574 -1204l71.5 -151.5l71.5 -151.5l69.5 147.5l69.5 147.5l574 1212h667l-1065 -2101h-663z" />
<glyph unicode="w" horiz-adv-x="4399" d="M2753 0l-422 1077l-70 180.5l-70 180.5l-67.5 -180.5l-67.5 -180.5l-405 -1077h-697l-921 2101h672l446 -1110l73.5 -184.5l73.5 -183.5l68 183.5l68 184.5l409 1110h705l418 -1110l69.5 -184.5l69.5 -183.5l75.5 183.5l75.5 184.5l451 1110h659l-921 -2101h-692z" />
<glyph unicode="x" horiz-adv-x="2912" d="M2036 0l-602 659l-598 -659h-783l1020 1053l-987 1048h811l573 -635l566 635h790l-999 -1028l1032 -1073h-823z" />
<glyph unicode="y" horiz-adv-x="2859" d="M16 -393q59 -13 138 -21t174 -8q73 0 150 7.5t148 25t136.5 46.5t122 71.5t104.5 100.5t84 134l21 41l-1061 2097h696l573 -1204l72 -151.5l72 -151.5l70.5 149.5l71.5 151.5l571 1206h667l-1093 -2167q-80 -157 -163.5 -277.5t-176 -213t-193.5 -159t-216 -113.5 t-264.5 -74t-330.5 -27q-40 0 -89.5 3t-107 11.5t-106 22.5t-70.5 25v475z" />
<glyph unicode="z" horiz-adv-x="2707" d="M180 0v365l1389 1269h-1340v467h2245v-360l-1372 -1274h1425v-467h-2347z" />
<glyph unicode="{" horiz-adv-x="1901" d="M1303 -381q-111 0 -209 12.5t-181 40t-149 72.5t-112 110.5t-70.5 152t-24.5 198.5v663q0 91 -18 154.5t-56 104t-97 59t-140 18.5h-107v320h107q81 0 140 18.5t97 59t56 104t18 154.5v659q0 112 24.5 198.5t70.5 152t112 110.5t149 72.5t181 40t209 12.5h368v-340h-241 q-82 0 -141 -18.5t-97 -59t-56 -104t-18 -154.5v-569q0 -95 -18 -172.5t-53 -138.5t-86 -107t-117 -78q66 -31 117 -76t86 -105.5t53 -138t18 -172.5v-577q0 -91 18 -154.5t56 -104t97 -59t141 -18.5h241v-340h-368z" />
<glyph unicode="|" horiz-adv-x="1778" d="M655 -864v3830h467v-3830h-467z" />
<glyph unicode="}" horiz-adv-x="1901" d="M229 -381v340h242q81 0 140 18.5t97 59t56 104t18 154.5v577q0 95 18 172.5t53 138t85 105.5t115 76q-65 32 -115 78t-85 107t-53 138.5t-18 172.5v569q0 91 -18 154.5t-56 104t-97 59t-140 18.5h-242v340h369q166 0 303 -28.5t235 -96.5t152.5 -180.5t54.5 -280.5v-659 q0 -91 18 -154.5t56.5 -104t97.5 -59t140 -18.5h106v-320h-106q-81 0 -140 -18.5t-97.5 -59t-56.5 -104t-18 -154.5v-663q0 -168 -54.5 -280.5t-152.5 -180.5t-235 -96.5t-303 -28.5h-369z" />
<glyph unicode="~" horiz-adv-x="2417" d="M2187 1561q0 -185 -42.5 -332t-121.5 -250t-192 -158t-254 -55q-88 0 -164.5 26.5t-144 66.5t-126 87l-111 87t-100 66.5t-91.5 26.5q-45 0 -81.5 -30t-63 -76t-42 -101t-18.5 -104h-406q0 123 19 229.5t55.5 195t89.5 157.5t121 116.5t150 72t176 24.5q88 0 164.5 -26.5 t144 -67t126 -87l111 -87t100 -67t91.5 -26.5q45 0 81.5 30.5t63 76.5t42 101t18.5 104h405z" />
<glyph unicode="&#xa1;" horiz-adv-x="1675" d="M500 -864v729q0 72 4 154t10 167.5t14 170.5t17 162.5l17.5 144t15.5 114.5l57 389h405l62 -385q8 -49 17 -116t17 -145t15.5 -163.5t13 -171t8.5 -167.5t3 -154v-729h-676zM492 1483v618h692v-618h-692z" />
<glyph unicode="&#xa2;" d="M1520 -123v447q-273 38 -484.5 132.5t-356 241.5t-219.5 345t-75 444q0 240 77 436t223 344t357 245t478 138v438h499v-413q140 -5 266.5 -20.5t239 -38.5t210.5 -53t181 -64v-476q-86 39 -189.5 73t-223 60t-255.5 41t-286 15q-215 0 -389.5 -39t-298.5 -125.5 t-191 -224.5t-67 -336q0 -126 28.5 -228.5t83 -182.5t135.5 -138.5t186 -96.5t233.5 -56.5t279.5 -18.5q123 0 251 8.5t255.5 26.5t251 46t237.5 66v-454q-98 -31 -197 -58.5t-210.5 -49t-241 -35.5t-289.5 -17v-422h-499z" />
<glyph unicode="&#xa3;" d="M418 0v438h78q109 0 200 22.5t156.5 80t102 157t36.5 252.5v250h-450v467h450v336q0 140 25 271t80.5 245t144 208.5t216 162t296.5 104.5t385 37q75 0 163 -8.5t175.5 -23t169.5 -34t147 -40.5v-496q-54 17 -119 33.5t-140 30t-158 22t-172 8.5q-163 0 -272.5 -39.5 t-175.5 -112t-94 -173.5t-28 -224v-307h1090v-467h-1090v-332q0 -69 -11 -127t-31.5 -105.5t-50 -85.5t-66.5 -67h1568v-483h-2625z" />
<glyph unicode="&#xa4;" d="M2322 582q-130 -47 -277.5 -68.5t-311.5 -21.5q-168 0 -316 23.5t-278 70.5l-312 -398l-385 353l291 286q-130 124 -198 287.5t-68 364.5q0 198 68 361t198 290l-291 287l385 352l312 -397q130 46 278 70t316 24q164 0 311.5 -24t277.5 -70l316 397l385 -352l-295 -287 q130 -127 200 -290t70 -361q0 -201 -70 -364.5t-200 -287.5l295 -286l-385 -353zM1733 938q156 0 280.5 36t211.5 105.5t133 170t46 229.5t-46 229.5t-133 169.5t-211.5 105t-280.5 36q-157 0 -281.5 -36t-211.5 -105t-133 -169.5t-46 -229.5t46 -229.5t133 -170 t211.5 -105.5t281.5 -36z" />
<glyph unicode="&#xa5;" d="M2040 487v-487h-619v487h-991v467h991v119l-176 242h-815v467h475l-864 1184h754l651 -955l145 -215l146 -215l147 215l148 215l655 955h733l-880 -1184h487v-467h-832l-155 -213v-148h987v-467h-987z" />
<glyph unicode="&#xa6;" horiz-adv-x="1778" d="M655 -381v1331h467v-1331h-467zM655 1774v1331h467v-1331h-467z" />
<glyph unicode="&#xa7;" d="M1565 -311q-168 0 -322 14t-291 38.5t-254 58t-211 73.5v463q97 -35 219.5 -68.5t260.5 -59t286 -41t295 -15.5q144 0 264.5 13t207.5 40t135.5 67.5t48.5 96.5q0 46 -20 81.5t-64 63.5t-115 50t-174 42l-741 144q-168 32 -301.5 81.5t-226.5 117t-143 153.5t-50 192 q0 85 35.5 167t97.5 155.5t146.5 134.5t182.5 104q-63 43 -113 94t-85 111t-53.5 129.5t-18.5 149.5q0 129 54.5 230.5t148 178.5t219 130.5t268.5 87.5t295.5 49.5t300.5 15.5q186 0 337 -13t271 -34.5t211.5 -49.5t159.5 -59v-450q-81 28 -183 53.5t-223 45.5t-260.5 32 t-295.5 12q-135 0 -250.5 -12.5t-200 -38.5t-132.5 -66.5t-48 -95.5q0 -46 19.5 -82t64 -64.5t115.5 -51.5t174 -43l741 -144q167 -32 300.5 -81.5t227 -117t143.5 -154t50 -192.5q0 -86 -36 -169t-98.5 -156.5t-147 -135t-181.5 -104.5q126 -83 198 -202.5t72 -276.5 q0 -129 -54.5 -230.5t-149 -178.5t-221.5 -130.5t-272.5 -87.5t-302.5 -49.5t-310 -15.5zM1356 1663q-50 9 -97.5 19.5t-91.5 25.5q-80 -53 -126 -121t-46 -145q0 -51 23 -88.5t67.5 -66t108.5 -49.5t145 -38l742 -143q49 -10 95.5 -21.5l92.5 -23.5q78 52 125 118.5 t47 147.5q0 51 -23 88.5t-67.5 66t-108.5 49.5t-145 38z" />
<glyph unicode="&#xa8;" horiz-adv-x="2253" d="M311 2441v525h561v-525h-561zM1380 2441v525h562v-525h-562z" />
<glyph unicode="&#xa9;" horiz-adv-x="3899" d="M2585 721l-126 -39t-128.5 -31t-147 -20.5t-180.5 -7.5q-165 0 -301 30.5t-243 86.5t-187 134.5t-132 174t-78 205.5t-26 229q0 117 27 226t81 204.5t134.5 174.5t188 135.5t241.5 88t295 31.5q87 0 164.5 -8t147 -22.5t132.5 -34t121 -42.5v-397q-52 25 -112 46.5 t-127.5 37.5t-142.5 25.5t-158 9.5q-126 0 -221 -32.5t-159 -94t-96 -149.5t-32 -199q0 -103 31 -190t94 -150.5t158.5 -99t224.5 -35.5q67 0 131 4t130.5 14.5t138.5 29.5t157 50v-385zM1950 3031q272 0 503 -55t418.5 -156t330.5 -242t239.5 -313t146 -370t49.5 -412 t-49.5 -412t-146 -370t-239.5 -313.5t-330.5 -242t-418.5 -156t-503 -55.5t-503.5 55.5t-419 156t-330.5 242t-239.5 313.5t-146 370t-49.5 412t49.5 412t146 370t239.5 313t330.5 242t418.5 156t504 55zM1950 2691q-220 0 -400.5 -44.5t-322.5 -125t-246.5 -192 t-173 -245.5t-102 -286.5t-33.5 -314.5t33.5 -314.5t102 -286.5t173 -246t246.5 -192.5t322.5 -125t400.5 -44.5t400 44.5t322 125t247 192.5t173.5 246t102 286.5t33.5 314.5t-33.5 314.5t-102 286.5t-173.5 245.5t-247 192t-322 125t-400 44.5z" />
<glyph unicode="&#xaa;" horiz-adv-x="2662" d="M1876 1221l-33 168q-68 -53 -151 -94t-180 -69.5t-207.5 -43.5t-231.5 -15q-183 0 -329 35.5t-248.5 104.5t-157.5 169.5t-55 231.5q0 109 38 193.5t109.5 146.5t173.5 104.5t230.5 68.5t280.5 37t323 11q86 0 183 -2.5t189 -5.5v0q-3 74 -32 134t-94.5 102t-173.5 65 t-269 23q-117 0 -222.5 -11.5t-201 -31t-182 -46t-164.5 -55.5v398q77 37 168.5 67.5t195.5 52.5t219.5 34.5t239.5 12.5q256 0 451.5 -39.5t327.5 -125t199 -222t67 -329.5v-1069h-463zM242 340v451h2138v-451h-2138zM1810 1942h-290q-185 0 -316 -11t-215 -36t-123 -65.5 t-39 -100.5q0 -40 21 -76.5t65.5 -64t114.5 -44t168 -16.5q103 0 190 12.5t162 33.5t139.5 47.5t122.5 53.5v267z" />
<glyph unicode="&#xab;" horiz-adv-x="3006" d="M1036 467l-815 762l815 762h520l-585 -762l585 -762h-520zM2265 467l-815 762l815 762h520l-585 -762l585 -762h-520z" />
<glyph unicode="&#xac;" horiz-adv-x="2826" d="M2089 246v729h-1942v491h2409v-1220h-467z" />
<glyph unicode="&#xad;" horiz-adv-x="1937" d="M246 942v553h1446v-553h-1446z" />
<glyph unicode="&#xae;" horiz-adv-x="3178" d="M2871 1933q0 -156 -34.5 -297.5t-104 -263.5t-175 -221t-248 -169t-322.5 -108t-398 -38t-397.5 38t-322 108t-248.5 169t-175.5 221t-104 263.5t-34.5 297.5t34.5 298t104 264t175.5 221t248.5 169t322 108t397.5 38t398 -38t322.5 -108t248 -169t175 -221t104 -264 t34.5 -298zM1589 1106q168 0 305 28t244.5 80t186 126t130 166t76.5 199.5t25 227.5t-25 228t-76.5 200t-130 166t-186 126t-244.5 80t-305 28t-304.5 -28t-244 -80t-186 -126t-130 -166t-76.5 -200t-25 -228t25 -227.5t76.5 -199.5t130 -166t186 -126t244 -80t304.5 -28z M1880 1380l-262 336q-23 29 -39.5 46t-35 26t-44.5 11.5t-69 2.5h-50v-422h-311v1147h496q127 0 227.5 -21t170 -64.5t106 -109.5t36.5 -157q0 -62 -17.5 -112t-50.5 -89t-81 -67.5t-109 -46.5q37 -16 70.5 -42.5t60.5 -60.5l291 -377h-389zM1540 2028q66 0 112.5 10.5 t76.5 29.5t43.5 46t13.5 61q0 55 -63 87t-183 32h-160v-266h160z" />
<glyph unicode="&#xaf;" horiz-adv-x="2253" d="M418 2482v443h1417v-443h-1417z" />
<glyph unicode="&#xb0;" horiz-adv-x="2245" d="M1966 2212q0 -113 -30 -217.5t-85 -195.5t-132 -165.5t-170.5 -128t-201.5 -83t-225 -29.5t-224.5 29.5t-201.5 83t-170.5 128t-131.5 165.5t-85 195.5t-30 217.5q0 111 30 215.5t85 195.5t131.5 166t170.5 129t201.5 83.5t224.5 29.5t225 -29.5t201.5 -83.5t170.5 -129 t132 -166t85 -195.5t30 -215.5zM1122 1786q86 0 163.5 34t136 92.5t92.5 136t34 163.5t-34 163t-92.5 135.5t-136 93t-163.5 34.5t-163 -34.5t-135.5 -93t-93 -135.5t-34.5 -163t34.5 -163.5t93 -136t135.5 -92.5t163 -34z" />
<glyph unicode="&#xb1;" horiz-adv-x="3269" d="M1942 1679v-815h-615v815h-1073v492h1073v795h615v-795h1073v-492h-1073zM254 0v492h2761v-492h-2761z" />
<glyph unicode="&#xb2;" horiz-adv-x="2191" d="M295 1364v279l614 381q78 51 136 98t96.5 93t57 91.5t18.5 93.5q0 72 -28.5 123t-79.5 83t-122 46.5t-156 14.5q-37 0 -94.5 -6t-121.5 -17.5t-127 -28.5t-111 -38v335q54 22 115 39.5t125.5 30t130.5 19t129 6.5q118 0 223.5 -15.5t196 -47.5t163 -80t123 -114t78 -149 t27.5 -184q0 -66 -18 -127t-51.5 -116.5t-81.5 -107t-108 -99.5t-131 -93t-151 -88l-201 -111h918v-311h-1569z" />
<glyph unicode="&#xb3;" horiz-adv-x="2191" d="M319 1757q55 -18 125 -37t149 -34.5t165.5 -25t175.5 -9.5q109 0 189.5 16.5t133 46t78 69t25.5 85.5q0 51 -28.5 88t-84 61t-136.5 36t-185 12h-221v286h221q106 0 174 14.5t107.5 38.5t55 54t15.5 61q0 39 -25.5 68t-72 48.5t-111.5 29.5t-143 10q-71 0 -147.5 -9.5 t-150 -25.5t-140.5 -37.5t-119 -46.5v328q49 26 108.5 48.5t132.5 39t162.5 26t198.5 9.5q184 0 334 -33.5t256 -93t163.5 -140.5t57.5 -176q0 -58 -19.5 -109.5t-58 -95t-94 -78t-127.5 -57.5q84 -21 155.5 -54.5t123.5 -81t81 -109.5t29 -140q0 -98 -60.5 -191.5 t-176 -166.5t-282 -117.5t-378.5 -44.5q-115 0 -212.5 9.5t-178.5 25.5t-147 36t-118 40v327z" />
<glyph unicode="&#xb4;" horiz-adv-x="2253" d="M537 2408l409 648h770l-696 -648h-483z" />
<glyph unicode="&#xb5;" horiz-adv-x="3391" d="M2888 -49q-116 0 -209 21.5t-164 61.5t-120 96.5t-77 127.5q-69 -71 -165 -130t-210.5 -102.5t-243 -67.5t-261.5 -24q-124 0 -236.5 19.5t-202.5 62.5q19 -46 32 -118t13 -168v-594h-643v2965h643v-1155q0 -132 31 -230t97.5 -162.5t170.5 -96t250 -31.5q98 0 186 11.5 t168.5 33.5t156 55t149.5 76v1499h643v-1433q0 -111 44 -166.5t148 -55.5q68 0 123.5 11t114.5 26v-438q-31 -17 -78 -33.5t-104.5 -30t-123 -22t-132.5 -8.5z" />
<glyph unicode="&#xb6;" horiz-adv-x="3441" d="M2437 -864v3412h-422v-3412h-561v2134h-4q-214 0 -392.5 24t-321.5 72t-250 119t-178.5 165.5t-107.5 211.5t-36 256t36 256t107.5 211.5t179 165.5t251 119t322.5 72t394 24h1544v-3830h-561z" />
<glyph unicode="&#xb7;" horiz-adv-x="1790" d="M524 885v684h742v-684h-742z" />
<glyph unicode="&#xb8;" horiz-adv-x="2253" d="M721 -549q50 -12 99 -18t114 -6q29 0 56.5 4t48 13t33.5 25t13 39q0 29 -23 54.5t-61 45.5t-88.5 35.5t-105.5 24.5l217 373h332l-115 -238q46 -15 96 -39t91.5 -60t68.5 -86.5t27 -117.5q0 -102 -46.5 -177.5t-122 -124t-171 -72t-193.5 -23.5q-65 0 -135 7t-135 26v315 z" />
<glyph unicode="&#xb9;" horiz-adv-x="2191" d="M553 1364v328h365v905l-369 -57v315l495 111h340v-1274h365v-328h-1196z" />
<glyph unicode="&#xba;" horiz-adv-x="2966" d="M1483 1167q-196 0 -361 27t-298 80t-234.5 131t-169.5 180t-102.5 227t-34.5 273q0 210 77.5 380.5t229 290.5t375.5 185t518 65q196 0 361.5 -27t299 -80.5t234.5 -132t168.5 -180.5t102 -228t34.5 -273q0 -140 -34.5 -262.5t-102.5 -224.5t-169.5 -182t-235 -135.5 t-298.5 -84.5t-360 -29zM1483 1565q149 0 269.5 35.5t205 103t130.5 163.5t46 218q0 120 -46 216t-130.5 163.5t-205 104t-269.5 36.5t-270.5 -36t-207 -103t-132 -163.5t-46.5 -217.5q0 -120 46.5 -216.5t132 -164t207 -103.5t270.5 -36zM242 340v451h2482v-451h-2482z" />
<glyph unicode="&#xbb;" horiz-adv-x="3006" d="M221 467l586 762l-586 762h520l815 -762l-815 -762h-520zM1450 467l586 762l-586 762h520l815 -762l-815 -762h-520z" />
<glyph unicode="&#xbc;" horiz-adv-x="4850" d="M737 -123l2810 3211h565l-2810 -3211h-565zM553 1364v328h365v905l-369 -57v315l495 111h340v-1274h365v-328h-1196zM3899 0v299h-1044l4 275l1048 1028h447v-996h336v-307h-336v-299h-455zM3899 955v87.5v88.5l-135 -132.5l-135 -129.5l-271 -263h541v349z" />
<glyph unicode="&#xbd;" horiz-adv-x="4850" d="M553 1364v328h365v905l-369 -57v315l495 111h340v-1274h365v-328h-1196zM737 -123l2810 3211h565l-2810 -3211h-565zM2953 0v279l614 381q78 51 136 98t96.5 93t57 91.5t18.5 93.5q0 72 -28.5 123t-79.5 83t-122 46.5t-156 14.5q-37 0 -94.5 -6t-121.5 -17.5t-127 -28.5 t-111 -38v335q54 22 115 39.5t125.5 30t130.5 19t129 6.5q118 0 223.5 -15.5t196 -47.5t163 -80t123 -114t78 -149t27.5 -184q0 -66 -18 -127t-51.5 -116.5t-81.5 -107t-108 -99.5t-131 -93t-151 -88l-201 -111h918v-311h-1569z" />
<glyph unicode="&#xbe;" horiz-adv-x="4850" d="M737 -123l2810 3211h565l-2810 -3211h-565zM319 1757q55 -18 125 -37t149 -34.5t165.5 -25t175.5 -9.5q109 0 189.5 16.5t133 46t78 69t25.5 85.5q0 51 -28.5 88t-84 61t-136.5 36t-185 12h-221v286h221q106 0 174 14.5t107.5 38.5t55 54t15.5 61q0 39 -25.5 68t-72 48.5 t-111.5 29.5t-143 10q-71 0 -147.5 -9.5t-150 -25.5t-140.5 -37.5t-119 -46.5v328q49 26 108.5 48.5t132.5 39t162.5 26t198.5 9.5q184 0 334 -33.5t256 -93t163.5 -140.5t57.5 -176q0 -58 -19.5 -109.5t-58 -95t-94 -78t-127.5 -57.5q84 -21 155.5 -54.5t123.5 -81 t81 -109.5t29 -140q0 -98 -60.5 -191.5t-176 -166.5t-282 -117.5t-378.5 -44.5q-115 0 -212.5 9.5t-178.5 25.5t-147 36t-118 40v327zM3899 0v299h-1044l4 275l1048 1028h447v-996h336v-307h-336v-299h-455zM3899 955v87.5v88.5l-135 -132.5l-135 -129.5l-271 -263h541v349z " />
<glyph unicode="&#xbf;" horiz-adv-x="2376" d="M2327 -737q-91 -37 -197.5 -72t-231 -62t-268 -43t-307.5 -16q-176 0 -332 22t-286.5 65t-234 107.5t-175.5 150t-110 192t-38 233.5q0 117 29.5 214t81 178.5t122 150.5t153 129.5t173.5 114.5l183 106l328 185l24 249h520l49 -491l-589 -316q-85 -44 -159.5 -95.5 t-130 -110.5t-88 -125t-32.5 -140q0 -80 41.5 -140t115.5 -99.5t176 -59.5t224 -20q112 0 239.5 14.5t255 40t247.5 61t217 76.5v-499zM1143 1483v618h692v-618h-692z" />
<glyph unicode="&#xc0;" horiz-adv-x="3817" d="M3068 0l-320 614h-1691l-316 -614h-733l1557 2966h688l1556 -2966h-741zM2138 1864l-117 231l-116 232l-117 -234l-117 -233l-368 -734h1204zM1692 3162l-696 648h770l409 -648h-483z" />
<glyph unicode="&#xc1;" horiz-adv-x="3817" d="M3068 0l-320 614h-1691l-316 -614h-733l1557 2966h688l1556 -2966h-741zM2138 1864l-117 231l-116 232l-117 -234l-117 -233l-368 -734h1204zM1610 3162l409 648h770l-696 -648h-483z" />
<glyph unicode="&#xc2;" horiz-adv-x="3817" d="M3068 0l-320 614h-1691l-316 -614h-733l1557 2966h688l1556 -2966h-741zM2138 1864l-117 231l-116 232l-117 -234l-117 -233l-368 -734h1204zM2196 3162l-320 320l-319 -320h-492l426 648h770l426 -648h-491z" />
<glyph unicode="&#xc3;" horiz-adv-x="3817" d="M3068 0l-320 614h-1691l-316 -614h-733l1557 2966h688l1556 -2966h-741zM2138 1864l-117 231l-116 232l-117 -234l-117 -233l-368 -734h1204zM2692 3810q0 -140 -30.5 -261t-92 -210.5t-153 -141t-212.5 -51.5q-67 0 -128 16t-116.5 40t-105 52.5l-95 52.5t-86.5 40 t-79 16q-32 0 -60.5 -13t-51 -38t-37.5 -63t-19 -87h-365q0 140 30.5 261t92 210.5t152.5 141t213 51.5q68 0 128.5 -16t115.5 -40t105 -52.5l95.5 -52.5t86.5 -40t79 -16q32 0 60.5 13t51 38.5t37 63t19.5 86.5h365z" />
<glyph unicode="&#xc4;" horiz-adv-x="3817" d="M3068 0l-320 614h-1691l-316 -614h-733l1557 2966h688l1556 -2966h-741zM2138 1864l-117 231l-116 232l-117 -234l-117 -233l-368 -734h1204zM1061 3195v525h561v-525h-561zM2130 3195v525h562v-525h-562z" />
<glyph unicode="&#xc5;" horiz-adv-x="3817" d="M3068 0l-320 614h-1691l-316 -614h-733l1557 2966h688l1556 -2966h-741zM2138 1864l-117 231l-116 232l-117 -234l-117 -233l-368 -734h1204zM2396 3547q0 -100 -37.5 -185.5t-103.5 -148t-156 -98t-195 -35.5q-104 0 -194 35.5t-156 98t-103.5 148t-37.5 185.5 t37.5 185.5t103.5 148t156 98t194 35.5q105 0 195 -35.5t156 -98t103.5 -148t37.5 -185.5zM2105 3547q0 40 -14.5 76.5t-41 64t-63.5 44t-82 16.5q-44 0 -81.5 -16.5t-64.5 -44t-42.5 -64t-15.5 -76.5q0 -42 15.5 -79t42.5 -65t64.5 -44.5t81.5 -16.5q45 0 82 16.5 t63.5 44.5t41 65t14.5 79z" />
<glyph unicode="&#xc6;" horiz-adv-x="5243" d="M2449 0v655h-1429l-348 -655h-733l1630 2966h3379v-484h-1839v-721h1577v-483h-1577v-795h1855v-483h-2515zM2449 2482h-458l-701 -1315h1159v1315z" />
<glyph unicode="&#xc7;" horiz-adv-x="3330" d="M1397 -549q49 -12 98.5 -18t114.5 -6q29 0 56.5 4t48.5 13.5t33.5 25.5t12.5 38q0 29 -23 54.5t-61 45.5t-88.5 35.5t-105.5 24.5l164 283q-241 27 -437 97.5t-350 176.5t-266.5 243t-186.5 298t-109.5 342t-35.5 375q0 208 45.5 403.5t137 367.5t230.5 315t326.5 245.5 t423 159.5t521.5 57q173 0 329.5 -17.5t294.5 -47.5t257.5 -69.5t219.5 -82.5v-520q-95 41 -210 81.5t-247.5 72.5t-282.5 51.5t-316 19.5q-181 0 -329.5 -36t-265.5 -101.5t-203.5 -159t-143 -208.5t-84 -249.5t-27.5 -281.5q0 -139 25.5 -270t80 -246.5t138.5 -211 t201 -164.5t268 -107t340 -38q136 0 279 13.5t284 37.5t277.5 58t260.5 76v-504q-77 -30 -153 -55.5t-156 -46.5t-166.5 -37t-184.5 -28t-210.5 -18.5t-241.5 -7.5l-63 -131q46 -15 96 -39.5t91.5 -59.5t68.5 -85.5t27 -117.5q0 -103 -46.5 -178t-122 -124t-171 -72.5 t-193.5 -23.5q-65 0 -135 7t-135 26v315z" />
<glyph unicode="&#xc8;" horiz-adv-x="3236" d="M442 0v2966h2499v-484h-1839v-721h1577v-483h-1577v-795h1855v-483h-2515zM1520 3162l-696 648h770l409 -648h-483z" />
<glyph unicode="&#xc9;" horiz-adv-x="3236" d="M442 0v2966h2499v-484h-1839v-721h1577v-483h-1577v-795h1855v-483h-2515zM1438 3162l409 648h770l-696 -648h-483z" />
<glyph unicode="&#xca;" horiz-adv-x="3236" d="M442 0v2966h2499v-484h-1839v-721h1577v-483h-1577v-795h1855v-483h-2515zM2024 3162l-320 320l-319 -320h-492l426 648h770l426 -648h-491z" />
<glyph unicode="&#xcb;" horiz-adv-x="3236" d="M442 0v2966h2499v-484h-1839v-721h1577v-483h-1577v-795h1855v-483h-2515zM889 3195v525h561v-525h-561zM1958 3195v525h562v-525h-562z" />
<glyph unicode="&#xcc;" horiz-adv-x="2257" d="M311 0v483h488v1999h-488v484h1635v-484h-488v-1999h488v-483h-1635zM943 3162l-696 648h770l409 -648h-483z" />
<glyph unicode="&#xcd;" horiz-adv-x="2257" d="M311 0v483h488v1999h-488v484h1635v-484h-488v-1999h488v-483h-1635zM861 3162l409 648h770l-696 -648h-483z" />
<glyph unicode="&#xce;" horiz-adv-x="2257" d="M311 0v483h488v1999h-488v484h1635v-484h-488v-1999h488v-483h-1635zM1446 3162l-320 320l-319 -320h-492l426 648h770l426 -648h-491z" />
<glyph unicode="&#xcf;" horiz-adv-x="2257" d="M311 0v483h488v1999h-488v484h1635v-484h-488v-1999h488v-483h-1635zM311 3195v525h561v-525h-561zM1380 3195v525h562v-525h-562z" />
<glyph unicode="&#xd0;" horiz-adv-x="3830" d="M479 0v1266h-266v442h266v1258h1442q285 0 517.5 -49t415.5 -140t317.5 -220.5t222.5 -291.5t131 -352t43 -402q0 -208 -44 -400.5t-134.5 -360.5t-228 -306t-325 -237t-426 -153t-530.5 -54h-1401zM1786 483q210 0 374 33t287 95t209 150.5t139 200t77 242.5t24 279 t-24 279t-77 242t-139 199.5t-209 150.5t-287 95t-374 33h-651v-774h675v-442h-675v-783h651z" />
<glyph unicode="&#xd1;" horiz-adv-x="4026" d="M2814 0l-1401 1761l-163.5 207.5l-164.5 206.5v-114v-113.5v-113.5v-114v-1720h-643v2966h770l1393 -1758l84 -105l84 -106l84 -106l84 -105v114v114v113.5v113.5v1725h643v-2966h-770zM2827 3810q0 -140 -30.5 -261t-92 -210.5t-153 -141t-212.5 -51.5q-67 0 -128 16 t-116.5 40t-105 52.5l-95 52.5t-86.5 40t-79 16q-32 0 -60.5 -13t-51 -38t-37.5 -63t-19 -87h-365q0 140 30.5 261t92 210.5t152.5 141t213 51.5q68 0 128.5 -16t115.5 -40t105 -52.5l95.5 -52.5t86.5 -40t79 -16q32 0 60.5 13t51 38.5t37 63t19.5 86.5h365z" />
<glyph unicode="&#xd2;" horiz-adv-x="3899" d="M1950 -66q-294 0 -533.5 56t-427 157.5t-324.5 243t-226.5 314t-133 369.5t-43.5 409q0 208 45.5 403.5t138 367.5t232 315t327 245.5t423.5 159.5t522 57q294 0 533 -56t426.5 -157t324.5 -243t226.5 -314t133 -369t43.5 -409q0 -208 -45.5 -403.5t-138 -367.5 t-232 -315.5t-327 -246t-423.5 -159.5t-521 -57zM1950 455q181 0 326 37.5t257 105.5t192.5 162.5t132 208.5t75.5 244.5t24 269.5t-24 269.5t-75.5 244.5t-132 208.5t-192.5 162.5t-257 105.5t-326 37.5t-326.5 -37.5t-257.5 -105.5t-192 -162.5t-131.5 -208.5t-76 -244.5 t-24.5 -269.5t24.5 -269.5t76 -244.5t131.5 -208.5t192 -162.5t257.5 -105.5t326.5 -37.5zM1765 3162l-696 648h770l409 -648h-483z" />
<glyph unicode="&#xd3;" horiz-adv-x="3899" d="M1950 -66q-294 0 -533.5 56t-427 157.5t-324.5 243t-226.5 314t-133 369.5t-43.5 409q0 208 45.5 403.5t138 367.5t232 315t327 245.5t423.5 159.5t522 57q294 0 533 -56t426.5 -157t324.5 -243t226.5 -314t133 -369t43.5 -409q0 -208 -45.5 -403.5t-138 -367.5 t-232 -315.5t-327 -246t-423.5 -159.5t-521 -57zM1950 455q181 0 326 37.5t257 105.5t192.5 162.5t132 208.5t75.5 244.5t24 269.5t-24 269.5t-75.5 244.5t-132 208.5t-192.5 162.5t-257 105.5t-326 37.5t-326.5 -37.5t-257.5 -105.5t-192 -162.5t-131.5 -208.5t-76 -244.5 t-24.5 -269.5t24.5 -269.5t76 -244.5t131.5 -208.5t192 -162.5t257.5 -105.5t326.5 -37.5zM1684 3162l409 648h770l-696 -648h-483z" />
<glyph unicode="&#xd4;" horiz-adv-x="3899" d="M1950 -66q-294 0 -533.5 56t-427 157.5t-324.5 243t-226.5 314t-133 369.5t-43.5 409q0 208 45.5 403.5t138 367.5t232 315t327 245.5t423.5 159.5t522 57q294 0 533 -56t426.5 -157t324.5 -243t226.5 -314t133 -369t43.5 -409q0 -208 -45.5 -403.5t-138 -367.5 t-232 -315.5t-327 -246t-423.5 -159.5t-521 -57zM1950 455q181 0 326 37.5t257 105.5t192.5 162.5t132 208.5t75.5 244.5t24 269.5t-24 269.5t-75.5 244.5t-132 208.5t-192.5 162.5t-257 105.5t-326 37.5t-326.5 -37.5t-257.5 -105.5t-192 -162.5t-131.5 -208.5t-76 -244.5 t-24.5 -269.5t24.5 -269.5t76 -244.5t131.5 -208.5t192 -162.5t257.5 -105.5t326.5 -37.5zM2269 3162l-320 320l-319 -320h-492l426 648h770l426 -648h-491z" />
<glyph unicode="&#xd5;" horiz-adv-x="3899" d="M1950 -66q-294 0 -533.5 56t-427 157.5t-324.5 243t-226.5 314t-133 369.5t-43.5 409q0 208 45.5 403.5t138 367.5t232 315t327 245.5t423.5 159.5t522 57q294 0 533 -56t426.5 -157t324.5 -243t226.5 -314t133 -369t43.5 -409q0 -208 -45.5 -403.5t-138 -367.5 t-232 -315.5t-327 -246t-423.5 -159.5t-521 -57zM1950 455q181 0 326 37.5t257 105.5t192.5 162.5t132 208.5t75.5 244.5t24 269.5t-24 269.5t-75.5 244.5t-132 208.5t-192.5 162.5t-257 105.5t-326 37.5t-326.5 -37.5t-257.5 -105.5t-192 -162.5t-131.5 -208.5t-76 -244.5 t-24.5 -269.5t24.5 -269.5t76 -244.5t131.5 -208.5t192 -162.5t257.5 -105.5t326.5 -37.5zM2765 3810q0 -140 -30.5 -261t-92 -210.5t-153 -141t-212.5 -51.5q-67 0 -128 16t-116.5 40t-105 52.5l-95 52.5t-86.5 40t-79 16q-32 0 -60.5 -13t-51 -38t-37.5 -63t-19 -87h-365 q0 140 30.5 261t92 210.5t152.5 141t213 51.5q68 0 128.5 -16t115.5 -40t105 -52.5l95.5 -52.5t86.5 -40t79 -16q32 0 60.5 13t51 38.5t37 63t19.5 86.5h365z" />
<glyph unicode="&#xd6;" horiz-adv-x="3899" d="M1950 -66q-294 0 -533.5 56t-427 157.5t-324.5 243t-226.5 314t-133 369.5t-43.5 409q0 208 45.5 403.5t138 367.5t232 315t327 245.5t423.5 159.5t522 57q294 0 533 -56t426.5 -157t324.5 -243t226.5 -314t133 -369t43.5 -409q0 -208 -45.5 -403.5t-138 -367.5 t-232 -315.5t-327 -246t-423.5 -159.5t-521 -57zM1950 455q181 0 326 37.5t257 105.5t192.5 162.5t132 208.5t75.5 244.5t24 269.5t-24 269.5t-75.5 244.5t-132 208.5t-192.5 162.5t-257 105.5t-326 37.5t-326.5 -37.5t-257.5 -105.5t-192 -162.5t-131.5 -208.5t-76 -244.5 t-24.5 -269.5t24.5 -269.5t76 -244.5t131.5 -208.5t192 -162.5t257.5 -105.5t326.5 -37.5zM1134 3195v525h561v-525h-561zM2203 3195v525h562v-525h-562z" />
<glyph unicode="&#xd7;" horiz-adv-x="3269" d="M1634 897l-893 -696l-409 323l889 697l-889 696l409 324l893 -701l893 701l410 -324l-893 -696l893 -697l-410 -323z" />
<glyph unicode="&#xd8;" horiz-adv-x="3940" d="M164 0l463 455q-88 103 -152.5 221t-107 248.5t-63.5 271t-21 287.5q0 208 45.5 403.5t138 367.5t231.5 315t326.5 245.5t423.5 159.5t522 57q319 0 572.5 -66.5t447.5 -183.5l188 185h599l-463 -459q87 -103 152 -221.5t107.5 -248t63.5 -269t21 -285.5 q0 -208 -45.5 -403.5t-138 -367.5t-232 -315.5t-327 -246t-423.5 -159.5t-522 -57q-320 0 -575.5 65t-448.5 181l-184 -180h-598zM2564 2359q-113 71 -261.5 111.5t-332.5 40.5q-181 0 -326 -37.5t-257 -105.5t-192.5 -162.5t-132 -208.5t-75.5 -244.5t-24 -269.5 q0 -161 31 -304t96 -270zM1376 602q114 -71 260 -109t334 -38q181 0 326.5 37.5t257.5 105.5t192 162.5t131.5 208.5t76 244.5t24.5 269.5q0 158 -31 301.5t-96 267.5z" />
<glyph unicode="&#xd9;" horiz-adv-x="3752" d="M2712 2966h655v-1770q0 -210 -40.5 -385t-122 -315.5t-205 -245.5t-289 -175.5t-374 -105.5t-460.5 -35q-261 0 -473 35t-378 105.5t-286.5 175.5t-199 245.5t-116.5 315.5t-38 385v1770h655v-1737q0 -197 47.5 -343t149 -242.5t260 -144.5t379.5 -48t379.5 48t260 144.5 t149 242.5t47.5 343v1737zM1692 3162l-696 648h770l409 -648h-483z" />
<glyph unicode="&#xda;" horiz-adv-x="3752" d="M2712 2966h655v-1770q0 -210 -40.5 -385t-122 -315.5t-205 -245.5t-289 -175.5t-374 -105.5t-460.5 -35q-261 0 -473 35t-378 105.5t-286.5 175.5t-199 245.5t-116.5 315.5t-38 385v1770h655v-1737q0 -197 47.5 -343t149 -242.5t260 -144.5t379.5 -48t379.5 48t260 144.5 t149 242.5t47.5 343v1737zM1610 3162l409 648h770l-696 -648h-483z" />
<glyph unicode="&#xdb;" horiz-adv-x="3752" d="M2712 2966h655v-1770q0 -210 -40.5 -385t-122 -315.5t-205 -245.5t-289 -175.5t-374 -105.5t-460.5 -35q-261 0 -473 35t-378 105.5t-286.5 175.5t-199 245.5t-116.5 315.5t-38 385v1770h655v-1737q0 -197 47.5 -343t149 -242.5t260 -144.5t379.5 -48t379.5 48t260 144.5 t149 242.5t47.5 343v1737zM2196 3162l-320 320l-319 -320h-492l426 648h770l426 -648h-491z" />
<glyph unicode="&#xdc;" horiz-adv-x="3752" d="M2712 2966h655v-1770q0 -210 -40.5 -385t-122 -315.5t-205 -245.5t-289 -175.5t-374 -105.5t-460.5 -35q-261 0 -473 35t-378 105.5t-286.5 175.5t-199 245.5t-116.5 315.5t-38 385v1770h655v-1737q0 -197 47.5 -343t149 -242.5t260 -144.5t379.5 -48t379.5 48t260 144.5 t149 242.5t47.5 343v1737zM1061 3195v525h561v-525h-561zM2130 3195v525h562v-525h-562z" />
<glyph unicode="&#xdd;" horiz-adv-x="3363" d="M1352 0v1102l-1360 1864h782l631 -902l70.5 -101.5l70.5 -101l70.5 -101l71.5 -101.5l71 102l72 102.5l72 102.5l71 102l635 898h762l-1360 -1836v-1130h-659zM1414 3162l409 648h770l-696 -648h-483z" />
<glyph unicode="&#xde;" horiz-adv-x="3346" d="M442 0v2966h656v-492h659q225 0 415.5 -26t344 -79t270.5 -133t196 -188t119 -244t40 -301q0 -241 -90.5 -424t-271.5 -306.5t-452 -186t-632 -62.5h-598v-524h-656zM1655 1008q224 0 377.5 29.5t248 90.5t136 154t41.5 221q0 124 -41.5 216t-132.5 152.5t-236 90 t-352 29.5h-598v-983h557z" />
<glyph unicode="&#xdf;" horiz-adv-x="3404" d="M2195 -66q-128 0 -249 11.5t-229.5 32.5t-201.5 49.5t-163 62.5v471q64 -28 158.5 -54.5t202.5 -47t222.5 -33t218.5 -12.5q131 0 217 25t137 67.5t72 99t21 119.5q0 72 -35 132.5t-113 114.5t-202.5 103.5t-304.5 100.5l-553 155v373l237 74q151 46 265 92t191 100 t116 120.5t39 154.5q0 86 -40.5 148.5t-110.5 103t-164 60t-202 19.5q-177 0 -305 -41.5t-211.5 -126t-123.5 -212.5t-40 -300v-1896h-643v1946q0 275 94.5 479t269 338.5t421.5 201t551 66.5q169 0 320.5 -20.5t279.5 -62t231 -102.5t175 -142t110.5 -181.5t38.5 -220.5 q0 -140 -57.5 -255.5t-158.5 -209t-239 -165.5t-299 -124l111 -20q255 -48 444 -121t314.5 -175.5t187 -236.5t61.5 -303q0 -170 -68 -310t-201.5 -239.5t-332 -154t-459.5 -54.5z" />
<glyph unicode="&#xe0;" horiz-adv-x="2949" d="M2044 0l-41 213q-78 -66 -174 -118t-207.5 -87.5t-239 -54.5t-268.5 -19q-213 0 -382.5 43t-287.5 126.5t-180.5 206t-62.5 280.5q0 131 45.5 232t130 176t204.5 126.5t269 83t324 45t370 13.5q80 0 156.5 -2t141.5 -5l128 -6v4q0 111 -42 190.5t-124.5 131t-205 76 t-283.5 24.5q-134 0 -256 -13t-233.5 -36t-212 -54.5t-191.5 -68.5v459q89 45 196 82t229 63.5t256 41t277 14.5q290 0 516.5 -48t382 -152t237 -268t81.5 -396v-1303h-553zM1970 889h-328q-209 0 -358 -14.5t-244 -47.5t-139.5 -85.5t-44.5 -127.5q0 -51 23 -97t72.5 -81 t127.5 -55.5t187 -20.5q118 0 218.5 14t187 39t160 59.5t138.5 76.5v340zM1299 2408l-696 648h770l409 -648h-483z" />
<glyph unicode="&#xe1;" horiz-adv-x="2949" d="M2044 0l-41 213q-78 -66 -174 -118t-207.5 -87.5t-239 -54.5t-268.5 -19q-213 0 -382.5 43t-287.5 126.5t-180.5 206t-62.5 280.5q0 131 45.5 232t130 176t204.5 126.5t269 83t324 45t370 13.5q80 0 156.5 -2t141.5 -5l128 -6v4q0 111 -42 190.5t-124.5 131t-205 76 t-283.5 24.5q-134 0 -256 -13t-233.5 -36t-212 -54.5t-191.5 -68.5v459q89 45 196 82t229 63.5t256 41t277 14.5q290 0 516.5 -48t382 -152t237 -268t81.5 -396v-1303h-553zM1970 889h-328q-209 0 -358 -14.5t-244 -47.5t-139.5 -85.5t-44.5 -127.5q0 -51 23 -97t72.5 -81 t127.5 -55.5t187 -20.5q118 0 218.5 14t187 39t160 59.5t138.5 76.5v340zM1217 2408l409 648h770l-696 -648h-483z" />
<glyph unicode="&#xe2;" horiz-adv-x="2949" d="M2044 0l-41 213q-78 -66 -174 -118t-207.5 -87.5t-239 -54.5t-268.5 -19q-213 0 -382.5 43t-287.5 126.5t-180.5 206t-62.5 280.5q0 131 45.5 232t130 176t204.5 126.5t269 83t324 45t370 13.5q80 0 156.5 -2t141.5 -5l128 -6v4q0 111 -42 190.5t-124.5 131t-205 76 t-283.5 24.5q-134 0 -256 -13t-233.5 -36t-212 -54.5t-191.5 -68.5v459q89 45 196 82t229 63.5t256 41t277 14.5q290 0 516.5 -48t382 -152t237 -268t81.5 -396v-1303h-553zM1970 889h-328q-209 0 -358 -14.5t-244 -47.5t-139.5 -85.5t-44.5 -127.5q0 -51 23 -97t72.5 -81 t127.5 -55.5t187 -20.5q118 0 218.5 14t187 39t160 59.5t138.5 76.5v340zM1802 2408l-320 320l-319 -320h-492l426 648h770l426 -648h-491z" />
<glyph unicode="&#xe3;" horiz-adv-x="2949" d="M2044 0l-41 213q-78 -66 -174 -118t-207.5 -87.5t-239 -54.5t-268.5 -19q-213 0 -382.5 43t-287.5 126.5t-180.5 206t-62.5 280.5q0 131 45.5 232t130 176t204.5 126.5t269 83t324 45t370 13.5q80 0 156.5 -2t141.5 -5l128 -6v4q0 111 -42 190.5t-124.5 131t-205 76 t-283.5 24.5q-134 0 -256 -13t-233.5 -36t-212 -54.5t-191.5 -68.5v459q89 45 196 82t229 63.5t256 41t277 14.5q290 0 516.5 -48t382 -152t237 -268t81.5 -396v-1303h-553zM1970 889h-328q-209 0 -358 -14.5t-244 -47.5t-139.5 -85.5t-44.5 -127.5q0 -51 23 -97t72.5 -81 t127.5 -55.5t187 -20.5q118 0 218.5 14t187 39t160 59.5t138.5 76.5v340zM2298 3056q0 -140 -30.5 -261t-92 -210.5t-153 -141t-212.5 -51.5q-67 0 -128 16t-116.5 40t-105 52.5l-95 52.5t-86.5 40t-79 16q-32 0 -60.5 -13t-51 -38t-37.5 -63t-19 -87h-365q0 140 30.5 261 t92 210.5t152.5 141t213 51.5q68 0 128.5 -16t115.5 -40t105 -52.5l95.5 -52.5t86.5 -40t79 -16q32 0 60.5 13t51 38.5t37 63t19.5 86.5h365z" />
<glyph unicode="&#xe4;" horiz-adv-x="2949" d="M2044 0l-41 213q-78 -66 -174 -118t-207.5 -87.5t-239 -54.5t-268.5 -19q-213 0 -382.5 43t-287.5 126.5t-180.5 206t-62.5 280.5q0 131 45.5 232t130 176t204.5 126.5t269 83t324 45t370 13.5q80 0 156.5 -2t141.5 -5l128 -6v4q0 111 -42 190.5t-124.5 131t-205 76 t-283.5 24.5q-134 0 -256 -13t-233.5 -36t-212 -54.5t-191.5 -68.5v459q89 45 196 82t229 63.5t256 41t277 14.5q290 0 516.5 -48t382 -152t237 -268t81.5 -396v-1303h-553zM1970 889h-328q-209 0 -358 -14.5t-244 -47.5t-139.5 -85.5t-44.5 -127.5q0 -51 23 -97t72.5 -81 t127.5 -55.5t187 -20.5q118 0 218.5 14t187 39t160 59.5t138.5 76.5v340zM667 2441v525h561v-525h-561zM1736 2441v525h562v-525h-562z" />
<glyph unicode="&#xe5;" horiz-adv-x="2949" d="M2044 0l-41 213q-78 -66 -174 -118t-207.5 -87.5t-239 -54.5t-268.5 -19q-213 0 -382.5 43t-287.5 126.5t-180.5 206t-62.5 280.5q0 131 45.5 232t130 176t204.5 126.5t269 83t324 45t370 13.5q80 0 156.5 -2t141.5 -5l128 -6v4q0 111 -42 190.5t-124.5 131t-205 76 t-283.5 24.5q-134 0 -256 -13t-233.5 -36t-212 -54.5t-191.5 -68.5v459q89 45 196 82t229 63.5t256 41t277 14.5q290 0 516.5 -48t382 -152t237 -268t81.5 -396v-1303h-553zM1970 889h-328q-209 0 -358 -14.5t-244 -47.5t-139.5 -85.5t-44.5 -127.5q0 -51 23 -97t72.5 -81 t127.5 -55.5t187 -20.5q118 0 218.5 14t187 39t160 59.5t138.5 76.5v340zM1950 2859q0 -100 -37.5 -185.5t-103.5 -148t-156 -98t-195 -35.5q-104 0 -194 35.5t-156 98t-103.5 148t-37.5 185.5t37.5 185.5t103.5 148t156 98t194 35.5q105 0 195 -35.5t156 -98t103.5 -148 t37.5 -185.5zM1659 2859q0 40 -14.5 76.5t-41 64t-63.5 44t-82 16.5q-44 0 -81.5 -16.5t-64.5 -44t-42.5 -64t-15.5 -76.5q0 -42 15.5 -79t42.5 -65t64.5 -44.5t81.5 -16.5q45 0 82 16.5t63.5 44.5t41 65t14.5 79z" />
<glyph unicode="&#xe6;" horiz-adv-x="4723" d="M4346 135q-91 -45 -212 -82t-259 -63.5t-286 -41t-292 -14.5q-180 0 -335 24t-284 69.5t-225.5 103t-179.5 135.5q-104 -82 -245.5 -153t-294 -110.5t-290 -54t-288.5 -14.5q-225 0 -405 43t-301 126.5t-184.5 206t-63.5 280.5q0 131 45.5 232.5t130 176t204.5 126 t269 82.5t324 45t370 14q102 0 211.5 -3t214.5 -10v0q-3 96 -33 172t-104 133.5t-199.5 89t-318.5 31.5q-134 0 -256 -13t-233.5 -36t-212 -54.5t-191.5 -68.5v459q89 45 196 82t229 63.5t256 41t277 14.5q175 0 320.5 -19t263.5 -57t209.5 -94t157.5 -129q75 69 169 124.5 t207.5 94t247.5 59.5t289 21q225 0 408.5 -38.5t326.5 -108.5t248 -168.5t173 -219t101 -260t33 -291.5q0 -29 -1 -56.5t-2.5 -52.5t-3.5 -48t-5 -43h-1913q14 -105 64 -189.5t142 -144.5t229.5 -92.5t326.5 -32.5q138 0 274 13t261.5 36t237 54.5t202.5 68.5v-459z M1642 889q-209 0 -358 -15t-244 -47.5t-139.5 -85t-44.5 -127.5q0 -52 25 -97.5t83.5 -81.5t155.5 -55.5t228 -19.5q72 0 152 9t173.5 34t187 66.5t191.5 103.5q-31 67 -54 149.5t-32 166.5h-324zM3879 1270q-21 114 -76 197t-137 137.5t-189 81t-233 26.5t-232 -26.5 t-187 -81t-134.5 -137.5t-73.5 -197h1262z" />
<glyph unicode="&#xe7;" horiz-adv-x="2531" d="M954 -549q50 -12 99 -18t114 -6q29 0 56.5 4t48.5 13.5t34 25t13 38.5q0 29 -23 54.5t-61 45.5t-89 35.5t-106 24.5l167 287q-250 31 -434.5 117t-307 225.5t-183.5 331t-61 432.5q0 162 35 306.5t105.5 267t177 220.5t249.5 166.5t322.5 105t396.5 36.5 q111 0 225.5 -12.5t221 -35t198.5 -54.5t158 -70v-471q-72 31 -165 57.5t-196 46.5t-210 31.5t-207 11.5q-161 0 -283.5 -41t-205 -119t-124.5 -190.5t-42 -255.5q0 -149 41.5 -265.5t123 -197t201.5 -122.5t277 -42q117 0 227 10.5t211.5 29.5t194 45.5t174.5 58.5v-476 q-80 -35 -171 -64t-191 -50t-207.5 -33.5t-217.5 -15.5l-65 -136q46 -15 96 -39t91 -59.5t68 -86.5t27 -118q0 -68 -21 -124t-58.5 -100.5t-88.5 -77t-110 -53.5t-124 -31.5t-130 -10.5t-135.5 7t-135.5 26v315z" />
<glyph unicode="&#xe8;" horiz-adv-x="2986" d="M2609 135q-91 -45 -212 -81t-258.5 -61.5t-285.5 -39.5t-292 -14q-225 0 -412 38t-336 107.5t-260 168.5t-185 221.5t-110.5 265t-36.5 300.5q0 148 33.5 289.5t102.5 266.5t174 230t247.5 181t324.5 118t404 42q225 0 408.5 -38.5t327 -108.5t248 -168.5t173 -219 t101.5 -260t33 -291.5q0 -29 -1 -55.5t-2.5 -51.5t-4 -47t-5.5 -42h-1913q12 -106 61.5 -191t141.5 -144.5t230 -91.5t329 -32q138 0 274 12.5t261.5 35t237 53t202.5 67.5v-459zM2138 1282q-23 111 -77.5 192t-136 134t-187.5 78.5t-230 25.5t-229 -25.5t-185.5 -78.5 t-134.5 -134t-77 -192h1257zM1315 2408l-696 648h770l409 -648h-483z" />
<glyph unicode="&#xe9;" horiz-adv-x="2986" d="M2609 135q-91 -45 -212 -81t-258.5 -61.5t-285.5 -39.5t-292 -14q-225 0 -412 38t-336 107.5t-260 168.5t-185 221.5t-110.5 265t-36.5 300.5q0 148 33.5 289.5t102.5 266.5t174 230t247.5 181t324.5 118t404 42q225 0 408.5 -38.5t327 -108.5t248 -168.5t173 -219 t101.5 -260t33 -291.5q0 -29 -1 -55.5t-2.5 -51.5t-4 -47t-5.5 -42h-1913q12 -106 61.5 -191t141.5 -144.5t230 -91.5t329 -32q138 0 274 12.5t261.5 35t237 53t202.5 67.5v-459zM2138 1282q-23 111 -77.5 192t-136 134t-187.5 78.5t-230 25.5t-229 -25.5t-185.5 -78.5 t-134.5 -134t-77 -192h1257zM1233 2408l409 648h770l-696 -648h-483z" />
<glyph unicode="&#xea;" horiz-adv-x="2986" d="M2609 135q-91 -45 -212 -81t-258.5 -61.5t-285.5 -39.5t-292 -14q-225 0 -412 38t-336 107.5t-260 168.5t-185 221.5t-110.5 265t-36.5 300.5q0 148 33.5 289.5t102.5 266.5t174 230t247.5 181t324.5 118t404 42q225 0 408.5 -38.5t327 -108.5t248 -168.5t173 -219 t101.5 -260t33 -291.5q0 -29 -1 -55.5t-2.5 -51.5t-4 -47t-5.5 -42h-1913q12 -106 61.5 -191t141.5 -144.5t230 -91.5t329 -32q138 0 274 12.5t261.5 35t237 53t202.5 67.5v-459zM2138 1282q-23 111 -77.5 192t-136 134t-187.5 78.5t-230 25.5t-229 -25.5t-185.5 -78.5 t-134.5 -134t-77 -192h1257zM1819 2408l-320 320l-319 -320h-492l426 648h770l426 -648h-491z" />
<glyph unicode="&#xeb;" horiz-adv-x="2986" d="M2609 135q-91 -45 -212 -81t-258.5 -61.5t-285.5 -39.5t-292 -14q-225 0 -412 38t-336 107.5t-260 168.5t-185 221.5t-110.5 265t-36.5 300.5q0 148 33.5 289.5t102.5 266.5t174 230t247.5 181t324.5 118t404 42q225 0 408.5 -38.5t327 -108.5t248 -168.5t173 -219 t101.5 -260t33 -291.5q0 -29 -1 -55.5t-2.5 -51.5t-4 -47t-5.5 -42h-1913q12 -106 61.5 -191t141.5 -144.5t230 -91.5t329 -32q138 0 274 12.5t261.5 35t237 53t202.5 67.5v-459zM2138 1282q-23 111 -77.5 192t-136 134t-187.5 78.5t-230 25.5t-229 -25.5t-185.5 -78.5 t-134.5 -134t-77 -192h1257zM684 2441v525h561v-525h-561zM1753 2441v525h562v-525h-562z" />
<glyph unicode="&#xec;" horiz-adv-x="1446" d="M401 0v2101h643v-2101h-643zM538 2408l-696 648h770l409 -648h-483z" />
<glyph unicode="&#xed;" horiz-adv-x="1446" d="M401 0v2101h643v-2101h-643zM456 2408l409 648h770l-696 -648h-483z" />
<glyph unicode="&#xee;" horiz-adv-x="1446" d="M401 0v2101h643v-2101h-643zM1041 2408l-320 320l-319 -320h-492l426 648h770l426 -648h-491z" />
<glyph unicode="&#xef;" horiz-adv-x="1446" d="M401 0v2101h643v-2101h-643zM-94 2441v525h561v-525h-561zM975 2441v525h562v-525h-562z" />
<glyph unicode="&#xf0;" horiz-adv-x="3252" d="M2159 2568q180 -115 338.5 -261t277 -326t187.5 -396t69 -471q0 -155 -31.5 -303t-100.5 -279t-178.5 -241t-265.5 -189.5t-362 -123.5t-467 -44q-212 0 -398.5 25.5t-342.5 78.5t-279.5 136t-209 198.5t-130.5 264t-45 334.5q0 181 45 329t128 264t201.5 201 t265.5 140.5t319 82.5t364 27q100 0 191 -11.5t173.5 -32.5t157 -50.5t142.5 -65.5q-109 149 -261.5 276t-328.5 232l-717 -274v348l320 123q-118 46 -232 79t-219 52l111 356q92 -15 198 -39.5t221 -58t235.5 -77.5t242.5 -99l708 274v-352zM1626 401q154 0 289.5 29.5 t237 97t160.5 176.5t59 267t-59 268t-160.5 178.5t-237 99.5t-289.5 31q-153 0 -289 -31t-237 -99.5t-160 -178.5t-59 -268q0 -106 27 -189t75.5 -146.5t116.5 -108t151 -72.5t178 -41t197 -13z" />
<glyph unicode="&#xf1;" horiz-adv-x="3289" d="M2302 0v1155q0 132 -31 229.5t-97.5 162t-170.5 96.5t-250 32q-115 0 -215 -14.5t-187 -38.5t-163 -56t-144 -67v-1499h-643v2101h562l45 -241q80 72 177 129t208 96.5t235.5 60.5t259.5 21q140 0 273 -17t250.5 -57.5t215.5 -109t168.5 -172t110 -245.5t39.5 -329v-1237 h-643zM2487 3056q0 -140 -30.5 -261t-92 -210.5t-153 -141t-212.5 -51.5q-67 0 -128 16t-116.5 40t-105 52.5l-95 52.5t-86.5 40t-79 16q-32 0 -60.5 -13t-51 -38t-37.5 -63t-19 -87h-365q0 140 30.5 261t92 210.5t152.5 141t213 51.5q68 0 128.5 -16t115.5 -40t105 -52.5 l95.5 -52.5t86.5 -40t79 -16q32 0 60.5 13t51 38.5t37 63t19.5 86.5h365z" />
<glyph unicode="&#xf2;" horiz-adv-x="3252" d="M1626 -66q-227 0 -419.5 33.5t-348.5 99t-275 161t-199.5 220t-121.5 276.5t-41 329q0 169 41 317t121.5 272t199.5 221.5t275 165t348.5 103t419.5 35.5q228 0 421 -33.5t349.5 -99t275 -161t198.5 -220t120.5 -276t40.5 -328.5q0 -169 -41 -317.5t-121.5 -272 t-199.5 -221.5t-275 -165.5t-348.5 -103t-419.5 -35.5zM1626 406q168 0 305.5 44.5t235.5 127.5t151.5 202.5t53.5 268.5t-53.5 268.5t-151.5 203.5t-235.5 129.5t-305.5 45.5q-167 0 -304.5 -44.5t-235.5 -128t-151.5 -202.5t-53.5 -268t53.5 -269t151.5 -204t235.5 -129 t304.5 -45zM1381 2408l-696 648h770l409 -648h-483z" />
<glyph unicode="&#xf3;" horiz-adv-x="3252" d="M1626 -66q-227 0 -419.5 33.5t-348.5 99t-275 161t-199.5 220t-121.5 276.5t-41 329q0 169 41 317t121.5 272t199.5 221.5t275 165t348.5 103t419.5 35.5q228 0 421 -33.5t349.5 -99t275 -161t198.5 -220t120.5 -276t40.5 -328.5q0 -169 -41 -317.5t-121.5 -272 t-199.5 -221.5t-275 -165.5t-348.5 -103t-419.5 -35.5zM1626 406q168 0 305.5 44.5t235.5 127.5t151.5 202.5t53.5 268.5t-53.5 268.5t-151.5 203.5t-235.5 129.5t-305.5 45.5q-167 0 -304.5 -44.5t-235.5 -128t-151.5 -202.5t-53.5 -268t53.5 -269t151.5 -204t235.5 -129 t304.5 -45zM1298 2408l409 648h770l-696 -648h-483z" />
<glyph unicode="&#xf4;" horiz-adv-x="3252" d="M1626 -66q-227 0 -419.5 33.5t-348.5 99t-275 161t-199.5 220t-121.5 276.5t-41 329q0 169 41 317t121.5 272t199.5 221.5t275 165t348.5 103t419.5 35.5q228 0 421 -33.5t349.5 -99t275 -161t198.5 -220t120.5 -276t40.5 -328.5q0 -169 -41 -317.5t-121.5 -272 t-199.5 -221.5t-275 -165.5t-348.5 -103t-419.5 -35.5zM1626 406q168 0 305.5 44.5t235.5 127.5t151.5 202.5t53.5 268.5t-53.5 268.5t-151.5 203.5t-235.5 129.5t-305.5 45.5q-167 0 -304.5 -44.5t-235.5 -128t-151.5 -202.5t-53.5 -268t53.5 -269t151.5 -204t235.5 -129 t304.5 -45zM1946 2408l-320 320l-319 -320h-492l426 648h770l426 -648h-491z" />
<glyph unicode="&#xf5;" horiz-adv-x="3252" d="M1626 -66q-227 0 -419.5 33.5t-348.5 99t-275 161t-199.5 220t-121.5 276.5t-41 329q0 169 41 317t121.5 272t199.5 221.5t275 165t348.5 103t419.5 35.5q228 0 421 -33.5t349.5 -99t275 -161t198.5 -220t120.5 -276t40.5 -328.5q0 -169 -41 -317.5t-121.5 -272 t-199.5 -221.5t-275 -165.5t-348.5 -103t-419.5 -35.5zM1626 406q168 0 305.5 44.5t235.5 127.5t151.5 202.5t53.5 268.5t-53.5 268.5t-151.5 203.5t-235.5 129.5t-305.5 45.5q-167 0 -304.5 -44.5t-235.5 -128t-151.5 -202.5t-53.5 -268t53.5 -269t151.5 -204t235.5 -129 t304.5 -45zM2442 3056q0 -140 -30.5 -261t-92 -210.5t-153 -141t-212.5 -51.5q-67 0 -128 16t-116.5 40t-105 52.5l-95 52.5t-86.5 40t-79 16q-32 0 -60.5 -13t-51 -38t-37.5 -63t-19 -87h-365q0 140 30.5 261t92 210.5t152.5 141t213 51.5q68 0 128.5 -16t115.5 -40 t105 -52.5l95.5 -52.5t86.5 -40t79 -16q32 0 60.5 13t51 38.5t37 63t19.5 86.5h365z" />
<glyph unicode="&#xf6;" horiz-adv-x="3252" d="M1626 -66q-227 0 -419.5 33.5t-348.5 99t-275 161t-199.5 220t-121.5 276.5t-41 329q0 169 41 317t121.5 272t199.5 221.5t275 165t348.5 103t419.5 35.5q228 0 421 -33.5t349.5 -99t275 -161t198.5 -220t120.5 -276t40.5 -328.5q0 -169 -41 -317.5t-121.5 -272 t-199.5 -221.5t-275 -165.5t-348.5 -103t-419.5 -35.5zM1626 406q168 0 305.5 44.5t235.5 127.5t151.5 202.5t53.5 268.5t-53.5 268.5t-151.5 203.5t-235.5 129.5t-305.5 45.5q-167 0 -304.5 -44.5t-235.5 -128t-151.5 -202.5t-53.5 -268t53.5 -269t151.5 -204t235.5 -129 t304.5 -45zM811 2441v525h561v-525h-561zM1880 2441v525h562v-525h-562z" />
<glyph unicode="&#xf7;" horiz-adv-x="3269" d="M254 975v491h2761v-491h-2761zM1266 1757v684h741v-684h-741zM1266 0v684h741v-684h-741z" />
<glyph unicode="&#xf8;" horiz-adv-x="3293" d="M82 0l430 352q-57 67 -100 145.5t-71.5 166.5t-43 185.5t-14.5 203.5q0 169 41 317t121 272t199 221.5t275 165t348.5 103t420.5 35.5q255 0 464 -43t375 -125l123 102h561l-385 -315q66 -69 116 -150t83 -173.5t50 -196t17 -217.5q0 -169 -41 -317.5t-121 -272 t-199 -221.5t-275 -165.5t-348.5 -103t-419.5 -35.5q-274 0 -497 49t-392 144l-156 -127h-561zM1257 504q90 -50 197 -74t234 -24q167 0 304.5 44.5t235.5 127.5t151.5 202.5t53.5 268.5q0 99 -24 183.5t-70 156.5zM2064 1622q-80 34 -174 54t-202 20q-168 0 -305.5 -44.5 t-235.5 -128t-151.5 -202.5t-53.5 -268q0 -84 16 -157t50 -138z" />
<glyph unicode="&#xf9;" horiz-adv-x="3240" d="M2277 0l-45 229q-71 -65 -165 -117.5t-204 -91t-233 -61t-250 -25.5q-136 0 -265.5 17t-244.5 58t-212 109.5t-166.5 171.5t-108.5 245t-39 329v1237h643v-1155q0 -132 31 -230t97.5 -162.5t170.5 -96t250 -31.5q98 0 186 11.5t168.5 33.5t155.5 55t149 76v1499h644 v-2101h-562zM1405 2408l-696 648h770l409 -648h-483z" />
<glyph unicode="&#xfa;" horiz-adv-x="3240" d="M2277 0l-45 229q-71 -65 -165 -117.5t-204 -91t-233 -61t-250 -25.5q-136 0 -265.5 17t-244.5 58t-212 109.5t-166.5 171.5t-108.5 245t-39 329v1237h643v-1155q0 -132 31 -230t97.5 -162.5t170.5 -96t250 -31.5q98 0 186 11.5t168.5 33.5t155.5 55t149 76v1499h644 v-2101h-562zM1323 2408l409 648h770l-696 -648h-483z" />
<glyph unicode="&#xfb;" horiz-adv-x="3240" d="M2277 0l-45 229q-71 -65 -165 -117.5t-204 -91t-233 -61t-250 -25.5q-136 0 -265.5 17t-244.5 58t-212 109.5t-166.5 171.5t-108.5 245t-39 329v1237h643v-1155q0 -132 31 -230t97.5 -162.5t170.5 -96t250 -31.5q98 0 186 11.5t168.5 33.5t155.5 55t149 76v1499h644 v-2101h-562zM1909 2408l-320 320l-319 -320h-492l426 648h770l426 -648h-491z" />
<glyph unicode="&#xfc;" horiz-adv-x="3240" d="M2277 0l-45 229q-71 -65 -165 -117.5t-204 -91t-233 -61t-250 -25.5q-136 0 -265.5 17t-244.5 58t-212 109.5t-166.5 171.5t-108.5 245t-39 329v1237h643v-1155q0 -132 31 -230t97.5 -162.5t170.5 -96t250 -31.5q98 0 186 11.5t168.5 33.5t155.5 55t149 76v1499h644 v-2101h-562zM774 2441v525h561v-525h-561zM1843 2441v525h562v-525h-562z" />
<glyph unicode="&#xfd;" horiz-adv-x="2859" d="M16 -393q59 -13 138 -21t174 -8q73 0 150 7.5t148 25t136.5 46.5t122 71.5t104.5 100.5t84 134l21 41l-1061 2097h696l573 -1204l72 -151.5l72 -151.5l70.5 149.5l71.5 151.5l571 1206h667l-1093 -2167q-80 -157 -163.5 -277.5t-176 -213t-193.5 -159t-216 -113.5 t-264.5 -74t-330.5 -27q-40 0 -89.5 3t-107 11.5t-106 22.5t-70.5 25v475zM1139 2408l409 648h770l-696 -648h-483z" />
<glyph unicode="&#xfe;" horiz-adv-x="3310" d="M401 -864v3830h643v-1074q74 59 166 109.5t200.5 87.5t233.5 57.5t265 20.5q278 0 497 -74t370.5 -216t231.5 -342.5t80 -462.5q0 -171 -36 -323.5t-105 -277.5t-172.5 -226t-235.5 -169t-300.5 -105t-355.5 -37q-140 0 -252 16t-220.5 45t-200.5 69.5t-166 91.5v-1020 h-643zM1044 594q79 -40 158 -70.5t165.5 -51.5t183.5 -31.5t214 -10.5q163 0 288 41.5t209.5 120.5t127.5 194t43 263q0 147 -43 262t-127.5 193t-209.5 118.5t-288 40.5q-117 0 -214 -10t-183 -30t-165 -51t-159 -73v-905z" />
<glyph unicode="&#xff;" horiz-adv-x="2859" d="M16 -393q59 -13 138 -21t174 -8q73 0 150 7.5t148 25t136.5 46.5t122 71.5t104.5 100.5t84 134l21 41l-1061 2097h696l573 -1204l72 -151.5l72 -151.5l70.5 149.5l71.5 151.5l571 1206h667l-1093 -2167q-80 -157 -163.5 -277.5t-176 -213t-193.5 -159t-216 -113.5 t-264.5 -74t-330.5 -27q-40 0 -89.5 3t-107 11.5t-106 22.5t-70.5 25v475zM590 2441v525h561v-525h-561zM1659 2441v525h562v-525h-562z" />
<glyph unicode="&#x131;" horiz-adv-x="1446" d="M401 0v2101h643v-2101h-643z" />
<glyph unicode="&#x2c6;" horiz-adv-x="2253" d="M1446 2408l-320 320l-319 -320h-492l426 648h770l426 -648h-491z" />
<glyph unicode="&#x2da;" horiz-adv-x="2253" d="M1618 2859q0 -100 -37.5 -185.5t-103.5 -148t-156 -98t-195 -35.5q-104 0 -194 35.5t-156 98t-103.5 148t-37.5 185.5t37.5 185.5t103.5 148t156 98t194 35.5q105 0 195 -35.5t156 -98t103.5 -148t37.5 -185.5zM1327 2859q0 40 -14.5 76.5t-41 64t-63.5 44t-82 16.5 q-44 0 -81.5 -16.5t-64.5 -44t-42.5 -64t-15.5 -76.5q0 -42 15.5 -79t42.5 -65t64.5 -44.5t81.5 -16.5q45 0 82 16.5t63.5 44.5t41 65t14.5 79z" />
<glyph unicode="&#x2dc;" horiz-adv-x="2253" d="M1942 3056q0 -140 -30.5 -261t-92 -210.5t-153 -141t-212.5 -51.5q-67 0 -128 16t-116.5 40t-105 52.5l-95 52.5t-86.5 40t-79 16q-32 0 -60.5 -13t-51 -38t-37.5 -63t-19 -87h-365q0 140 30.5 261t92 210.5t152.5 141t213 51.5q68 0 128.5 -16t115.5 -40t105 -52.5 l95.5 -52.5t86.5 -40t79 -16q32 0 60.5 13t51 38.5t37 63t19.5 86.5h365z" />
<glyph unicode="&#x2000;" horiz-adv-x="2007" />
<glyph unicode="&#x2001;" horiz-adv-x="4014" />
<glyph unicode="&#x2002;" horiz-adv-x="2007" />
<glyph unicode="&#x2003;" horiz-adv-x="4014" />
<glyph unicode="&#x2004;" horiz-adv-x="1338" />
<glyph unicode="&#x2005;" horiz-adv-x="1003" />
<glyph unicode="&#x2006;" horiz-adv-x="669" />
<glyph unicode="&#x2007;" horiz-adv-x="669" />
<glyph unicode="&#x2008;" horiz-adv-x="501" />
<glyph unicode="&#x2009;" horiz-adv-x="802" />
<glyph unicode="&#x200a;" horiz-adv-x="223" />
<glyph unicode="&#x2010;" horiz-adv-x="1937" d="M246 942v553h1446v-553h-1446z" />
<glyph unicode="&#x2011;" horiz-adv-x="1937" d="M246 942v553h1446v-553h-1446z" />
<glyph unicode="&#x2012;" horiz-adv-x="1937" d="M246 942v553h1446v-553h-1446z" />
<glyph unicode="&#x2013;" horiz-adv-x="2539" d="M246 942v553h2048v-553h-2048z" />
<glyph unicode="&#x2014;" horiz-adv-x="4587" d="M246 942v553h4096v-553h-4096z" />
<glyph unicode="&#x202f;" horiz-adv-x="802" />
<glyph unicode="&#x2039;" horiz-adv-x="1778" d="M1036 467l-815 762l815 762h520l-585 -762l585 -762h-520z" />
<glyph unicode="&#x203a;" horiz-adv-x="1778" d="M221 467l586 762l-586 762h520l815 -762l-815 -762h-520z" />
<glyph unicode="&#x2044;" horiz-adv-x="467" d="M-1454 -123l2810 3211h565l-2810 -3211h-565z" />
<glyph unicode="&#x205f;" horiz-adv-x="1003" />
<glyph unicode="&#x2081;" horiz-adv-x="2191" d="M553 -590v328h365v905l-369 -57v315l495 111h340v-1274h365v-328h-1196z" />
<glyph unicode="&#x2082;" horiz-adv-x="2191" d="M295 -590v279l614 381q78 51 136 98t96.5 93t57 91.5t18.5 93.5q0 72 -28.5 123t-79.5 83t-122 46.5t-156 14.5q-37 0 -94.5 -6t-121.5 -17.5t-127 -28.5t-111 -38v335q54 22 115 39.5t125.5 30t130.5 19t129 6.5q118 0 223.5 -15.5t196 -47.5t163 -80t123 -114t78 -149 t27.5 -184q0 -66 -18 -127t-51.5 -116.5t-81.5 -107t-108 -99.5t-131 -93t-151 -88l-201 -111h918v-311h-1569z" />
<glyph unicode="&#x2083;" horiz-adv-x="2191" d="M319 -197q55 -18 125 -37t149 -34.5t165.5 -25t175.5 -9.5q109 0 189.5 16.5t133 46t78 69t25.5 85.5q0 51 -28.5 88t-84 61t-136.5 36t-185 12h-221v286h221q106 0 174 14.5t107.5 38.5t55 54t15.5 61q0 39 -25.5 68t-72 48.5t-111.5 29.5t-143 10q-71 0 -147.5 -9.5 t-150 -25.5t-140.5 -37.5t-119 -46.5v328q49 26 108.5 48.5t132.5 39t162.5 26t198.5 9.5q184 0 334 -33.5t256 -93t163.5 -140.5t57.5 -176q0 -58 -19.5 -109.5t-58 -95t-94 -78t-127.5 -57.5q84 -21 155.5 -54.5t123.5 -81t81 -109.5t29 -140q0 -98 -60.5 -191.5 t-176 -166.5t-282 -117.5t-378.5 -44.5q-115 0 -212.5 9.5t-178.5 25.5t-147 36t-118 40v327z" />
<glyph unicode="&#x2084;" horiz-adv-x="2191" d="M1241 -590v299h-1044l4 275l1048 1028h447v-996h336v-307h-336v-299h-455zM1241 365v87.5v88.5l-135 -132.5l-135 -129.5l-271 -263h541v349z" />
<glyph unicode="&#x20ac;" d="M3224 90q-102 -31 -210 -59t-232.5 -49.5t-270.5 -34.5t-324 -13q-332 0 -594 71t-458.5 197.5t-329.5 302t-207 384.5h-360v393h274q-3 50 -5.5 99t-2.5 102q0 40 0.5 79.5t3.5 79.5h-270v394h352q73 213 209 395.5t334.5 315.5t461.5 208.5t592 75.5q155 0 297 -14.5 t269.5 -39.5t240 -58.5t209.5 -71.5v-492q-94 39 -201 72.5t-227.5 58.5t-256 39.5t-286.5 14.5q-195 0 -360 -36.5t-295.5 -103t-226 -159.5t-150.5 -205h1512v-394h-1610q-3 -40 -3.5 -79.5t-0.5 -79.5q0 -50 3 -100.5t9 -100.5h1602v-393h-1483q54 -102 145 -187 t218 -146.5t287.5 -95.5t352.5 -34q135 0 263 9.5t251 28t242 45t236 60.5v-479z" />
<glyph unicode="&#xe000;" horiz-adv-x="2100" d="M0 2100h2100v-2100h-2100v2100z" />
<glyph horiz-adv-x="2253" d="M1233 3162l-696 648h770l409 -648h-483z" />
<glyph horiz-adv-x="2253" d="M537 3162l409 648h770l-696 -648h-483z" />
<glyph horiz-adv-x="2253" d="M311 3195v525h561v-525h-561zM1380 3195v525h562v-525h-562z" />
<glyph horiz-adv-x="2253" d="M1446 3162l-320 320l-319 -320h-492l426 648h770l426 -648h-491z" />
<glyph horiz-adv-x="2253" d="M1942 3810q0 -140 -30.5 -261t-92 -210.5t-153 -141t-212.5 -51.5q-67 0 -128 16t-116.5 40t-105 52.5l-95 52.5t-86.5 40t-79 16q-32 0 -60.5 -13t-51 -38t-37.5 -63t-19 -87h-365q0 140 30.5 261t92 210.5t152.5 141t213 51.5q68 0 128.5 -16t115.5 -40t105 -52.5 l95.5 -52.5t86.5 -40t79 -16q32 0 60.5 13t51 38.5t37 63t19.5 86.5h365z" />
<glyph horiz-adv-x="2253" d="M1618 3547q0 -100 -37.5 -185.5t-103.5 -148t-156 -98t-195 -35.5q-104 0 -194 35.5t-156 98t-103.5 148t-37.5 185.5t37.5 185.5t103.5 148t156 98t194 35.5q105 0 195 -35.5t156 -98t103.5 -148t37.5 -185.5zM1327 3547q0 40 -14.5 76.5t-41 64t-63.5 44t-82 16.5 q-44 0 -81.5 -16.5t-64.5 -44t-42.5 -64t-15.5 -76.5q0 -42 15.5 -79t42.5 -65t64.5 -44.5t81.5 -16.5q45 0 82 16.5t63.5 44.5t41 65t14.5 79z" />
</font>
</defs>
</svg>
