<?xml version="1.0" standalone="no"?>
<!DOCTYPE svg PUBLIC "-//W3C//DTD SVG 1.1//EN" "http://www.w3.org/Graphics/SVG/1.1/DTD/svg11.dtd" >
<svg>
<metadata>
Created by FontForge 20090914 at Tue Jul 30 12:48:35 2013
 By www-data
Designed by Paul van der Laan &#38; Pieter van Rosmalen 2008. Produced by Bold Monday. For exclusive use by AUDI AG and its affiliates only.
</metadata>
<defs>
<font id="AudiType-Bold" horiz-adv-x="1868" >
  <font-face 
    font-family="Audi Type"
    font-weight="700"
    font-stretch="normal"
    units-per-em="4096"
    panose-1="2 11 8 3 4 2 0 0 0 3"
    ascent="3113"
    descent="-983"
    x-height="2101"
    cap-height="2966"
    bbox="-823 -983.004 9085 4014"
    underline-thickness="205"
    underline-position="-206"
    unicode-range="U+000D-U+FB04"
  />
<missing-glyph horiz-adv-x="1090" 
d="M197 -860v3768h696v-3768h-696z" />
    <glyph glyph-name="uniFB00" unicode="ff" horiz-adv-x="3154" 
d="M1942 0l0.00390625 1634h-951v-1634h-565v1634h-344v467h344v246c0 132.667 19 249.5 57 350.5s93 185.167 165 252.5s160 118.166 264 152.5c104 34.333 222 51.5 354 51.5c44 0 86.833 -1.5 128.5 -4.5s81.167 -7 118.5 -12s72.166 -11 104.499 -18
s61.166 -14.5 86.499 -22.5v-435c-18.667 4 -40 8 -64 12s-50.333 7.5 -79 10.5s-58.834 5.5 -90.501 7.5s-64.5 3 -98.5 3c-63.333 0 -118.833 -7.16699 -166.5 -21.5s-87.334 -37 -119.001 -68s-55.5 -70.833 -71.5 -119.5s-24 -107.334 -24 -176v-209h951v246
c0 132.667 19 249.5 57 350.5s92.833 185.167 164.5 252.5s159.5 118.166 263.5 152.5c104 34.333 222 51.5 354 51.5c44 0 86.833 -1.5 128.5 -4.5s81.167 -7 118.5 -12s72.166 -11 104.5 -18c32.333 -7 61.166 -14.5 86.5 -22.5v-435c-18 4 -39.167 8 -63.5 12
s-50.666 7.5 -79 10.5c-28.333 3 -58.333 5.5 -90 7.5s-64.5 3 -98.5 3c-63.333 0 -118.833 -7.16699 -166.5 -21.5s-87.334 -37 -119 -68c-31.667 -31 -55.5 -70.833 -71.5 -119.5s-24 -107.334 -24 -176v-209h631v-467h-631v-1634h-565z" />
    <glyph glyph-name="fi" unicode="fi" horiz-adv-x="2871" 
d="M1974 0l0.00390625 1634h-983v-1634h-565v1634h-344v467h344v246c0 132.667 19 249.5 57 350.5s93 185.167 165 252.5s160 118.166 264 152.5c104 34.333 222 51.5 354 51.5c44 0 86.833 -1.5 128.5 -4.5s81.167 -7 118.5 -12s72.166 -11 104.499 -18
s61.166 -14.5 86.499 -22.5v-435c-18.667 4 -40 8 -64 12s-50.333 7.5 -79 10.5s-58.834 5.5 -90.501 7.5s-64.5 3 -98.5 3c-63.333 0 -118.833 -7.16699 -166.5 -21.5s-87.334 -37 -119.001 -68s-55.5 -70.833 -71.5 -119.5s-24 -107.334 -24 -176v-209h1544v-2101h-561z
M1974 2417v549h561v-549h-561z" />
    <glyph glyph-name="fl" unicode="fl" horiz-adv-x="2998" 
d="M426 0l0.00390625 1634h-344v467h344v246c0 132.667 19 249.5 57 350.5s93 185.167 165 252.5s160 118.166 264 152.5c104 34.333 222 51.5 354 51.5c44 0 86.833 -1.5 128.5 -4.5s81.167 -7 118.5 -12s72.166 -11 104.499 -18s61.166 -14.5 86.499 -22.5v-435
c-18.667 4 -40 8 -64 12s-50.333 7.5 -79 10.5s-58.834 5.5 -90.501 7.5s-64.5 3 -98.5 3c-63.333 0 -118.833 -7.16699 -166.5 -21.5s-87.334 -37 -119.001 -68s-55.5 -70.833 -71.5 -119.5s-24 -107.334 -24 -176v-209h631v-467h-631v-1634h-565zM2867 16
c-23.333 -8 -48.833 -15.001 -76.5 -21.001s-57.334 -11.167 -89 -15.5c-31.667 -4.33301 -65.167 -7.5 -100.5 -9.5s-72.333 -3 -111 -3c-90 0 -167.667 12.5 -233 37.5s-119.333 61 -162 108s-74.167 104.5 -94.5 172.5s-30.5 145 -30.5 231v2589h561v-2515
c0 -26.667 2.83301 -49.167 8.5 -67.5s14.667 -33.166 27 -44.499s28 -19.5 47 -24.5s41.833 -7.5 68.5 -7.5c31.333 0 62.166 1.33301 92.5 4c30.333 2.66699 61.166 7 92.5 13v-447z" />
    <glyph glyph-name="uniFB03" unicode="ffi" horiz-adv-x="4387" 
d="M3490 0l0.00390625 1634h-983v-1634h-565v1634h-951v-1634h-565v1634h-344v467h344v246c0 132.667 19 249.5 57 350.5s93 185.167 165 252.5s160 118.166 264 152.5c104 34.333 222 51.5 354 51.5c44 0 86.833 -1.5 128.5 -4.5s81.167 -7 118.5 -12
s72.166 -11 104.499 -18s61.166 -14.5 86.499 -22.5v-435c-18.667 4 -40 8 -64 12s-50.333 7.5 -79 10.5s-58.834 5.5 -90.501 7.5s-64.5 3 -98.5 3c-63.333 0 -118.833 -7.16699 -166.5 -21.5s-87.334 -37 -119.001 -68s-55.5 -70.833 -71.5 -119.5s-24 -107.334 -24 -176
v-209h951v246c0 132.667 19 249.5 57 350.5s92.833 185.167 164.5 252.5s159.5 118.166 263.5 152.5c104 34.333 222 51.5 354 51.5c44 0 86.833 -1.5 128.5 -4.5s81.167 -7 118.5 -12s72.166 -11 104.5 -18c32.333 -7 61.166 -14.5 86.5 -22.5v-435
c-18 4 -39.167 8 -63.5 12s-50.666 7.5 -79 10.5c-28.333 3 -58.333 5.5 -90 7.5s-64.5 3 -98.5 3c-63.333 0 -118.833 -7.16699 -166.5 -21.5s-87.334 -37 -119 -68c-31.667 -31 -55.5 -70.833 -71.5 -119.5s-24 -107.334 -24 -176v-209h1544v-2101h-561zM3490 2417v549
h561v-549h-561z" />
    <glyph glyph-name="uniFB04" unicode="ffl" horiz-adv-x="4637" 
d="M1942 0l0.00390625 1634h-951v-1634h-565v1634h-344v467h344v246c0 132.667 19 249.5 57 350.5s93 185.167 165 252.5s160 118.166 264 152.5c104 34.333 222 51.5 354 51.5c44 0 86.833 -1.5 128.5 -4.5s81.167 -7 118.5 -12s72.166 -11 104.499 -18
s61.166 -14.5 86.499 -22.5v-435c-18.667 4 -40 8 -64 12s-50.333 7.5 -79 10.5s-58.834 5.5 -90.501 7.5s-64.5 3 -98.5 3c-63.333 0 -118.833 -7.16699 -166.5 -21.5s-87.334 -37 -119.001 -68s-55.5 -70.833 -71.5 -119.5s-24 -107.334 -24 -176v-209h951v246
c0 132.667 19 249.5 57 350.5s92.833 185.167 164.5 252.5s159.5 118.166 263.5 152.5c104 34.333 222 51.5 354 51.5c44 0 86.833 -1.5 128.5 -4.5s81.167 -7 118.5 -12s72.166 -11 104.5 -18c32.333 -7 61.166 -14.5 86.5 -22.5v-435c-18 4 -39.167 8 -63.5 12
s-50.666 7.5 -79 10.5c-28.333 3 -58.333 5.5 -90 7.5s-64.5 3 -98.5 3c-63.333 0 -118.833 -7.16699 -166.5 -21.5s-87.334 -37 -119 -68c-31.667 -31 -55.5 -70.833 -71.5 -119.5s-24 -107.334 -24 -176v-209h631v-467h-631v-1634h-565zM4383 16
c-23.334 -8 -48.834 -15.001 -76.5 -21.001s-57.333 -11.167 -89 -15.5c-31.666 -4.33301 -65.166 -7.5 -100.5 -9.5c-35.333 -2 -72.333 -3 -111 -3c-90 0 -167.667 12.5 -233 37.5s-119.333 61 -162 108s-74.167 104.5 -94.5 172.5s-30.5 145 -30.5 231v2589h561v-2515
c0 -26.667 2.83301 -49.167 8.5 -67.5s14.667 -33.166 27 -44.499s28 -19.5 47 -24.5s41.834 -7.5 68.5 -7.5c31.334 0 62.167 1.33301 92.5 4c30.334 2.66699 61.167 7 92.5 13v-447z" />
    <glyph glyph-name=".notdef" horiz-adv-x="1090" 
d="M197 -860v3768h696v-3768h-696z" />
    <glyph glyph-name=".null" horiz-adv-x="0" 
 />
    <glyph glyph-name=".null" horiz-adv-x="0" 
 />
    <glyph glyph-name="nonmarkingreturn" unicode="&#xd;" horiz-adv-x="1049" 
 />
    <glyph glyph-name="space" unicode=" " horiz-adv-x="1049" 
 />
    <glyph glyph-name="exclam" unicode="!" horiz-adv-x="1446" 
d="M565 893l-60.998 385.002c-5.33301 32.667 -11.166 71.5 -17.499 116.5l-19.5 145.5c-6.66699 52 -12.834 106.333 -18.501 163s-10.834 113.5 -15.501 170.5s-8.33398 112.833 -11.001 167.5s-4 106 -4 154v771h610v-771c0 -48 -1.5 -99.333 -4.5 -154
s-7 -110.334 -12 -167.001s-10.833 -113.334 -17.5 -170.001l-20 -163c-6.66699 -52 -13.167 -100.167 -19.5 -144.5l-16.5 -114.5l-57 -389h-316zM401.002 0.00195312v606h643v-606h-643z" />
    <glyph glyph-name="quotedbl" unicode="&#x22;" horiz-adv-x="1942" 
d="M434 1806l-53.001 213c-8 36.667 -17.5 77.667 -28.5 123s-21.333 92 -31 140s-17.834 95.833 -24.501 143.5s-10 92.5 -10 134.5v406h553v-406c0 -42 -3.16699 -86.833 -9.5 -134.5s-14.166 -95.5 -23.499 -143.5s-19.166 -94.667 -29.499 -140l-27.5 -123l-54 -213
h-262zM1249 1806l-53.001 213c-8 36.667 -17.5 77.667 -28.5 123s-21.333 92 -31 140s-17.834 95.833 -24.501 143.5s-10 92.5 -10 134.5v406h553v-406c0 -42 -3.16699 -86.833 -9.5 -134.5s-14.166 -95.5 -23.499 -143.5s-19.166 -94.667 -29.499 -140l-27.5 -123l-54 -213
h-262z" />
    <glyph glyph-name="numbersign" unicode="#" horiz-adv-x="2716" 
d="M1487 184l53 561h-504l-53 -561h-459l54 561h-312v426h352l62 607h-414v426h455l49 512h459l-49 -512h503l50 512h458l-49 -512h307v-426h-348l-61 -607h409v-426h-450l-53 -561h-459zM1642 1778h-503l-62 -607h504z" />
    <glyph glyph-name="dollar" unicode="$" horiz-adv-x="2716" 
d="M1065 -238l0.00683594 372.998c-76.667 4 -153.334 11.667 -230.001 23s-149.167 24.666 -217.5 39.999s-130 32 -185 50s-99.5 36.333 -133.5 55v455c29.333 -13.333 64.666 -26.666 105.999 -39.999s86.166 -26 134.499 -38s99.333 -23 153 -33
s107.667 -18.667 162 -26s107.666 -13 159.999 -17s101.833 -6 148.5 -6c114 0 212.667 6.83301 296 20.5s152.166 34.334 206.499 62.001s94.833 62.5 121.5 104.5s40 91.667 40 149c0 38 -6.66699 71.333 -20 100s-33 53.834 -59 75.501s-58.167 40.834 -96.5 57.501
s-82.166 32.334 -131.499 47.001s-104.333 29 -165 43l-196 46c-135.333 32 -255 68 -359 108s-191.167 89.333 -261.5 148s-123.666 129.5 -159.999 212.5s-54.5 183.5 -54.5 301.5c0 102 16.167 196.333 48.5 283s81.333 163.5 147 230.5s147.834 123.333 246.501 169
s214.667 78.834 348 99.5v389h451v-369c74.667 -4 147.667 -11.333 219 -22s138.666 -23.667 201.999 -39s121.166 -32.5 173.5 -51.5c52.333 -19 97.166 -38.833 134.499 -59.5v-454c-50 21.333 -110 42 -180 62s-143.667 37.5 -221 52.5s-155.833 27 -235.5 36
s-154.167 13.5 -223.5 13.5c-87.333 0 -163.833 -6.33301 -229.5 -19s-120.334 -32 -164.001 -58s-76.5 -59.167 -98.5 -99.5s-33 -88.166 -33 -143.499c0 -38 6.66699 -71.333 20 -100s33 -53.834 59 -75.501s58.167 -40.834 96.5 -57.501s82.166 -32.334 131.499 -47.001
s104.166 -29 164.499 -43l196.5 -46c135.333 -32 255 -68 359 -108s191.333 -89.333 262 -148s124.167 -129.5 160.5 -212.5s54.5 -183.5 54.5 -301.5c0 -103.333 -18.5 -199.833 -55.5 -289.5s-92.833 -169.5 -167.5 -239.5s-168 -129 -280 -177
s-243.333 -81.667 -394 -101v-385h-451z" />
    <glyph glyph-name="percent" unicode="%" horiz-adv-x="4391" 
d="M1069 1303c-143.333 0 -266.832 21.667 -370.499 65s-189 103.333 -256 180s-116.5 167.167 -148.5 271.5s-48 217.5 -48 339.5c0 118.667 16.5 230 49.5 334s83.5 194.667 151.5 272s153.667 138.333 257 183s225 67 365 67c143.333 0 266.833 -21.833 370.5 -65.5
s189 -103.667 256 -180s116.5 -166.666 148.5 -270.999s48 -217.5 48 -339.5c0 -79.333 -7.33301 -155.5 -22 -228.5s-36.834 -141.333 -66.501 -205s-67.167 -121.334 -112.5 -173.001s-98.5 -96 -159.5 -133s-130 -65.667 -207 -86s-162.167 -30.5 -255.5 -30.5z
M1069 1696c58.667 0 109.334 11.167 152.001 33.5s78 53.833 106 94.5s48.667 89.5 62 146.5s20 119.833 20 188.5s-6.66699 131.334 -20 188c-13.333 56.667 -34 105.334 -62 146c-28 40.667 -63.333 72.167 -106 94.5s-93.334 33.5 -152.001 33.5
c-58 0 -108.333 -11.167 -151 -33.5s-78 -53.833 -106 -94.5s-48.833 -89.334 -62.5 -146c-13.667 -56.667 -20.5 -119.334 -20.5 -188c0 -68.667 6.83301 -131.5 20.5 -188.5s34.5 -105.833 62.5 -146.5s63.333 -72.167 106 -94.5s93 -33.5 151 -33.5zM3322 -49
c-143.333 0 -266.833 21.666 -370.5 64.999s-189 103.333 -256 180s-116.5 167.167 -148.5 271.5s-48 217.5 -48 339.5c0 118.667 16.5 230 49.5 334s83.5 194.667 151.5 272s153.667 138.333 257 183s225 67 365 67c143.333 0 266.833 -21.833 370.5 -65.5
s189 -103.667 256 -180s116.5 -166.666 148.5 -270.999s48 -217.5 48 -339.5c0 -118.667 -16.5 -230 -49.5 -334s-83.5 -194.667 -151.5 -272s-153.667 -138.333 -257 -183s-225 -67 -365 -67zM3322 343.999c58 0 108.332 11.167 150.999 33.5s78 53.833 106 94.5
s48.833 89.5 62.5 146.5s20.5 119.833 20.5 188.5s-6.83301 131.334 -20.5 188.001s-34.5 105.334 -62.5 146.001s-63.333 72.334 -106 95.001s-93 34 -151 34c-58.667 0 -109.334 -11.333 -152 -34c-42.667 -22.667 -78 -54.334 -106 -95.001s-48.667 -89.334 -62 -146.001
s-20 -119.334 -20 -188.001s6.66699 -131.5 20 -188.5s34 -105.833 62 -146.5s63.333 -72.167 106 -94.5s93.334 -33.5 152.001 -33.5zM1049 -0.000976562l1802 2966h491l-1802 -2966h-491z" />
    <glyph glyph-name="ampersand" unicode="&#x26;" horiz-adv-x="3441" 
d="M2585 0l-308 274.001c-70.667 -54 -145.5 -102.167 -224.5 -144.5s-160.833 -78 -245.5 -107s-171.167 -51 -259.5 -66s-176.833 -22.5 -265.5 -22.5c-121.333 0 -232.333 10.5 -333 31.5s-191 50.5 -271 88.5s-149.833 82.833 -209.5 134.5
s-109.334 108.167 -149.001 169.5s-69.334 126.166 -89.001 194.499s-29.5 138.166 -29.5 209.499c0 59.333 6 116.666 18 171.999s29.833 108.833 53.5 160.5s52.834 101.167 87.501 148.5s74.667 92.5 120 135.5s95.666 83.833 150.999 122.5s115.333 75 180 109v0v0
c-46 46.667 -90.667 96.5 -134 149.5s-81.666 109 -114.999 168s-60.166 121 -80.499 186s-30.5 133.167 -30.5 204.5c0 69.333 9.66699 135.166 29 197.5c19.333 62.333 47.333 120 84 173s81.667 100.667 135 143s114 78.166 182 107.5c68 29.333 142.833 52 224.5 68
s169.167 24 262.5 24c128 0 247 -14.5 357 -43.5s205.167 -72 285.5 -129s143.5 -127.833 189.5 -212.5s69 -183 69 -295c0 -89.333 -15.167 -171.833 -45.5 -247.5s-73.166 -146 -128.5 -211c-55.333 -65 -121.833 -125.333 -199.5 -181s-163.5 -107.5 -257.5 -155.5
l-20 -8l623 -561c15.333 36.667 29 75.334 41 116.001s22.333 83 31 127s15.167 89.833 19.5 137.5s6.5 97.167 6.5 148.5v258h876v-426h-348c-4 -66.667 -12.5 -131.5 -25.5 -194.5s-30 -124 -51 -183s-45.833 -116.167 -74.5 -171.5s-60.334 -108.666 -95 -159.999
l713 -639h-749zM1139 1307c-63.333 -32.667 -118.501 -66.8291 -165.501 -102.496s-85.833 -73.334 -116.5 -113.001s-53.5 -81.834 -68.5 -126.501s-22.5 -92 -22.5 -142c0 -66.667 14.833 -125.834 44.5 -177.501s70.334 -95.334 122.001 -131.001s112 -62.667 181 -81
s142.833 -27.5 221.5 -27.5c55.333 0 109.666 3.83301 162.999 11.5s105.333 19.167 156 34.5s99.334 34.5 146.001 57.5s91 49.833 133 80.5zM1294 1843.01c72 34.667 134.333 68.833 187 102.5s96.5 69.167 131.5 106.5s61 77.833 78 121.5s25.5 93.167 25.5 148.5
c0 38.667 -8 75.334 -24 110c-16 34.667 -39 64.667 -69 90s-66.5 45.5 -109.5 60.5s-91.5 22.5 -145.5 22.5c-58 0 -109.5 -7.16699 -154.5 -21.5s-82.667 -35 -113 -62s-53.333 -59.667 -69 -98s-23.5 -81.5 -23.5 -129.5c0 -42 6.66699 -81.667 20 -119
s32 -73.833 56 -109.5s52.5 -70.667 85.5 -105s69.167 -69.5 108.5 -105.5l12 -12h4z" />
    <glyph glyph-name="quotesingle" unicode="'" horiz-adv-x="1126" 
d="M434 1806l-53.001 213c-8 36.667 -17.5 77.667 -28.5 123s-21.333 92 -31 140s-17.834 95.833 -24.501 143.5s-10 92.5 -10 134.5v406h553v-406c0 -42 -3.16699 -86.833 -9.5 -134.5s-14.166 -95.5 -23.499 -143.5s-19.166 -94.667 -29.499 -140l-27.5 -123l-54 -213
h-262z" />
    <glyph glyph-name="parenleft" unicode="(" horiz-adv-x="1729" 
d="M1229 -377c-86.667 46 -167.334 104.498 -242.001 175.498s-142.667 151.167 -204 240.5s-115.666 186.5 -162.999 291.5s-87.333 214.333 -120 328s-57.334 230.167 -74.001 349.5s-25 238 -25 356c0 118.667 8.33301 237.834 25 357.501s41.334 236.334 74.001 350.001
s72.667 222.834 120 327.5c47.333 104.667 101.666 201.667 162.999 291s129.333 169.333 204 240s155.334 129 242.001 175h409c-70 -49.333 -136.833 -110.833 -200.5 -184.5s-122.667 -156 -177 -247s-103.333 -189.167 -147 -294.5s-81 -214.333 -112 -327
s-54.833 -227.167 -71.5 -343.5s-25 -231.166 -25 -344.499c0 -112.667 8.33301 -227 25 -343s40.5 -230.333 71.5 -343s68.333 -221.834 112 -327.501s92.667 -204.167 147 -295.5s113.333 -173.833 177 -247.5s130.5 -135.167 200.5 -184.5h-409z" />
    <glyph glyph-name="parenright" unicode=")" horiz-adv-x="1729" 
d="M90 -377c70 49.333 136.833 110.835 200.5 184.502s122.667 156.167 177 247.5s103.333 189.833 147 295.5s81 214.834 112 327.501s54.833 227 71.5 343s25 230.333 25 343c0 113.333 -8.33301 228.166 -25 344.499s-40.5 230.833 -71.5 343.5s-68.333 221.667 -112 327
s-92.667 203.5 -147 294.5s-113.333 173.333 -177 247s-130.5 135.167 -200.5 184.5h410c86.667 -46 167.334 -104.333 242.001 -175s142.5 -150.667 203.5 -240s115.333 -186.333 163 -291s87.667 -213.834 120 -327.5c32.333 -113.667 56.833 -230.334 73.5 -350.001
s25 -238.834 25 -357.501c0 -118 -8.33301 -236.667 -25 -356s-41.167 -235.833 -73.5 -349.5s-72.333 -223 -120 -328s-102 -202.167 -163 -291.5s-128.833 -169.5 -203.5 -240.5s-155.334 -129.5 -242.001 -175.5h-410z" />
    <glyph glyph-name="asterisk" unicode="*" horiz-adv-x="1999" 
d="M1237 1417l-114.998 197.002c-11.333 19.333 -22.833 40.333 -34.5 63s-23 46.167 -34 70.5s-21.5 49 -31.5 74s-19 49.833 -27 74.5c-7.33301 -24.667 -15.666 -49.5 -24.999 -74.5s-19.333 -49.667 -30 -74s-21.834 -47.833 -33.501 -70.5s-23.167 -43.667 -34.5 -63
l-114 -197l-332 193l115 196c20.667 39.333 46.334 80.833 77.001 124.5s63.667 84.167 99 121.5c-50 -10 -101.667 -17.333 -155 -22s-102.666 -7 -147.999 -7h-226v385h226c45.333 0 95.666 -2.83301 150.999 -8.5s108.666 -13.5 159.999 -23.5
c-35.333 36.667 -68.5 77.167 -99.5 121.5s-57.833 87.166 -80.5 128.5l-115 196l332 193l115 -197c11.333 -20.667 22.666 -42.5 33.999 -65.5s22.333 -46.833 33 -71.5s20.667 -49.667 30 -75s17.666 -50.333 24.999 -75c8 24.667 17 49.667 27 75s20.5 50.333 31.5 75
s22.333 48.5 34 71.5l34.5 65.5l115 197l332 -193l-115 -196l-37.5 -61c-13.667 -21.333 -28.167 -42.666 -43.5 -64l-48 -64c-16.667 -21.333 -33.667 -41.666 -51 -61c25.333 6 51.333 11 78 15s53.334 7.33301 80.001 10s52.5 4.5 77.5 5.5s48.833 1.5 71.5 1.5h225v-385
h-225c-23.333 0 -48.166 0.666992 -74.499 2s-52.833 3.16602 -79.5 5.49902s-53.334 5.66602 -80.001 9.99902s-52.334 9.5 -77.001 15.5c34.667 -39.333 67.667 -81 99 -125s58.333 -85.667 81 -125l115 -196z" />
    <glyph glyph-name="plus" unicode="+" horiz-adv-x="2458" 
d="M971 156v819h-848v491h848v820h516v-820h848v-491h-848v-819h-516z" />
    <glyph glyph-name="comma" unicode="," horiz-adv-x="1397" 
d="M160 -623l282 655.998l-82 573h345c59.333 0 112.333 -4.83301 159 -14.5s86 -25.5 118 -47.5s56.5 -50.333 73.5 -85s25.5 -77 25.5 -127c0 -43.333 -3.33301 -85.666 -10 -126.999s-16.667 -82.166 -30 -122.499s-30.333 -81 -51 -122s-45 -83.5 -73 -127.5
s-59.667 -89.667 -95 -137l-117 -151l-136 -168h-409z" />
    <glyph glyph-name="hyphen" unicode="-" horiz-adv-x="1511" 
d="M201 946v553h1110v-553h-1110z" />
    <glyph glyph-name="period" unicode="." horiz-adv-x="1397" 
d="M377 0v606h643v-606h-643z" />
    <glyph glyph-name="slash" unicode="/" horiz-adv-x="2007" 
d="M74 0l1335 3105h524l-1331 -3105h-528z" />
    <glyph glyph-name="zero" unicode="0" horiz-adv-x="2716" 
d="M1356 -66c-154 0 -288.833 18.1689 -404.5 54.502s-215.5 87.833 -299.5 154.5s-153.667 146.5 -209 239.5s-99.5 196.5 -132.5 310.5s-56.167 236.5 -69.5 367.5s-20 267.5 -20 409.5c0 141.333 7 278 21 410s37.667 255.833 71 371.5s78 221.334 134 317
c56 95.667 126 177.834 210 246.5c84 68.667 183.5 121.834 298.5 159.501s248.5 56.5 400.5 56.5c153.333 0 287.833 -18.167 403.5 -54.5s215.5 -87.833 299.5 -154.5s153.667 -146.5 209 -239.5s99.5 -196.5 132.5 -310.5s56.167 -236.5 69.5 -367.5s20 -267.5 20 -409.5
c0 -141.333 -7 -278 -21 -410s-37.667 -255.833 -71 -371.5s-78 -221.334 -134 -317.001s-126 -177.834 -210 -246.501s-183.5 -121.834 -298.5 -159.501s-248.167 -56.5 -399.5 -56.5zM1356 397.002c67.333 0 127.667 11.333 181 34s100.333 55.5 141 98.5
s75.334 95.833 104.001 158.5s52.167 134.167 70.5 214.5s31.666 169.166 39.999 266.499s12.5 202 12.5 314s-4.16699 216.5 -12.5 313.5s-21.666 185.667 -39.999 266s-41.833 151.833 -70.5 214.5s-63.334 115.5 -104.001 158.5s-87.667 75.833 -141 98.5
s-113.666 34 -180.999 34s-127.833 -11.333 -181.5 -34s-100.834 -55.5 -141.501 -98.5s-75.334 -95.833 -104.001 -158.5s-52 -134.167 -70 -214.5s-31.167 -169 -39.5 -266s-12.5 -201.5 -12.5 -313.5s4.16699 -216.667 12.5 -314s21.5 -186.166 39.5 -266.499
s41.333 -151.833 70 -214.5s63.334 -115.5 104.001 -158.5s87.667 -75.833 141 -98.5s114 -34 182 -34z" />
    <glyph glyph-name="one" unicode="1" horiz-adv-x="2716" 
d="M430 0v492h668v1937l-668 -148v492l873 193h372v-2474h668v-492h-1913z" />
    <glyph glyph-name="two" unicode="2" horiz-adv-x="2716" 
d="M238 0l-0.000976562 430l626 524l265.5 229c79.667 71.333 150.834 139.166 213.501 203.499s116.834 125.666 162.501 183.999s83.5 115.5 113.5 171.5s52.333 111.167 67 165.5s22 109.5 22 165.5c0 67.333 -11 129.833 -33 187.5s-56.5 107.5 -103.5 149.5
s-107 74.833 -180 98.5s-160.167 35.5 -261.5 35.5c-78.667 0 -157.167 -6 -235.5 -18s-153.5 -27.667 -225.5 -47s-139.667 -41 -203 -65s-119 -47.667 -167 -71v475c42.667 26.667 94 52.834 154 78.5c60 25.667 127.167 48.5 201.5 68.5s155.666 36 243.999 48
s182.166 18 281.499 18c136.667 0 259.334 -11.5 368.001 -34.5s204.667 -55.167 288 -96.5s154.666 -90.666 213.999 -148c59.333 -57.333 108 -120.5 146 -189.5s65.833 -142.5 83.5 -220.5s26.5 -158.333 26.5 -241c0 -98.667 -13.833 -193.5 -41.5 -284.5
s-66.167 -179.333 -115.5 -265s-107.666 -168.667 -174.999 -249s-140.833 -158.666 -220.5 -234.999s-163.667 -151.166 -252 -224.499l-268.5 -216l-197 -152h1401v-475h-2199z" />
    <glyph glyph-name="three" unicode="3" horiz-adv-x="2716" 
d="M319 582c48 -24 105.826 -45.835 173.493 -65.502s140.167 -36.5 217.5 -50.5s157.333 -24.833 240 -32.5s163.334 -11.5 242.001 -11.5c101.333 0 190.5 10.5 267.5 31.5s141.5 50.333 193.5 88s91.167 82.5 117.5 134.5s39.5 109.333 39.5 172
c0 68.667 -13.5 130.5 -40.5 185.5s-68.5 101.833 -124.5 140.5s-126.667 68.334 -212 89.001s-186.333 31 -303 31h-352v492h352c86 0 166.667 6.83301 242 20.5s141 35.334 197 65.001s100 67.834 132 114.501s48 102.667 48 168.001c0 48 -6.66699 90.833 -20 128.5
s-32.333 71 -57 100s-54 53.667 -88 74s-71.667 37 -113 50s-85.5 22.5 -132.5 28.5s-95.833 9 -146.5 9c-78.667 0 -155.667 -4.33301 -231 -13s-147.333 -20.5 -216 -35.5s-133.167 -32.833 -193.5 -53.5s-114.5 -42.667 -162.5 -66v475
c28.667 16.667 62.667 32.834 102 48.5c39.333 15.667 82.333 30.167 129 43.5s95.834 25.5 147.501 36.5s104.334 20.167 158.001 27.5s107.167 13.166 160.5 17.499s105 6.5 155 6.5c179.333 0 337.833 -20 475.5 -60s253.167 -95.667 346.5 -167s164 -156.333 212 -255
s72 -207 72 -325c0 -80.667 -10.167 -155 -30.5 -223s-49.5 -129.833 -87.5 -185.5s-84.333 -105.667 -139 -150s-116.334 -83.5 -185.001 -117.5c82.667 -36 155.334 -77.333 218.001 -124s115.167 -100 157.5 -160s74.166 -126.833 95.5 -200.5
c21.333 -73.667 32 -155.167 32 -244.5c0 -86.667 -11.5 -168.667 -34.5 -246s-57 -148.833 -102 -214.5s-100.667 -124.667 -167 -177s-142.833 -96.833 -229.5 -133.5s-183 -64.834 -289 -84.501s-221 -29.5 -345 -29.5c-99.333 0 -195.166 4 -287.499 12
s-178.166 19.5 -257.499 34.5s-151.166 33 -215.499 54s-118.166 44.833 -161.499 71.5v476z" />
    <glyph glyph-name="four" unicode="4" horiz-adv-x="2716" 
d="M1520 0v582h-1459v381l1500 2003h536v-1913h504v-471h-504v-582h-577zM1520 1720c0 109.333 2.66699 207.001 8 293.001s12 163.333 20 232c-30.667 -62 -67.167 -129.333 -109.5 -202s-94.5 -150.334 -156.5 -233.001l-565 -757h803v667z" />
    <glyph glyph-name="five" unicode="5" horiz-adv-x="2716" 
d="M360 582c48 -24 103.669 -45.833 167.002 -65.5s131.166 -36.5 203.499 -50.5s147.666 -24.833 225.999 -32.5s156.833 -11.5 235.5 -11.5c101.333 0 188.333 10.5 261 31.5s132.5 51 179.5 90s81.5 86 103.5 141s33 116.167 33 183.5
c0 61.333 -13.5 115.666 -40.5 162.999s-63.667 88.666 -110 123.999s-100.5 65.5 -162.5 90.5s-127.833 45.667 -197.5 62s-141.5 29.333 -215.5 39s-146.333 17.167 -217 22.5s-137.5 8.83301 -200.5 10.5l-166.5 4.5l53 1582h1769v-476h-1208l-24 -626
c69.333 -5.33301 141.166 -13.166 215.499 -23.499s148.833 -24.166 223.5 -41.499s148.334 -38.666 221.001 -63.999s141.5 -56 206.5 -92s125.167 -78 180.5 -126s103 -103.167 143 -165.5s71.333 -132.333 94 -210s34 -164.5 34 -260.5
c0 -86.667 -8.83301 -170.334 -26.5 -251.001s-45.5 -156 -83.5 -226s-86.667 -133.833 -146 -191.5s-130.666 -107.167 -213.999 -148.5s-179.333 -73.333 -288 -96s-231.334 -34 -368.001 -34c-99.333 0 -193 4 -281 12s-169.333 19.5 -244 34.5s-142 33 -202 54
s-111.333 44.833 -154 71.5v476z" />
    <glyph glyph-name="six" unicode="6" horiz-adv-x="2716" 
d="M2335 2429c-43.333 19.333 -91.335 37.502 -144.002 54.502s-108.5 31.667 -167.5 44s-120 22.166 -183 29.5c-63 7.33301 -126.167 11 -189.5 11c-137.333 0 -253.5 -19.333 -348.5 -58s-173.333 -94.667 -235 -168s-109 -162.666 -142 -268
c-33 -105.333 -56.167 -224.666 -69.5 -357.999c40 34 83.333 65 130 93s96.334 52.167 149.001 72.5s107.834 36.166 165.501 47.499s117.167 17 178.5 17c108.667 0 209.167 -9.66699 301.5 -29s176.333 -47.833 252 -85.5s142.5 -84.5 200.5 -140.5
s106.667 -120.667 146 -194s69.166 -155.333 89.5 -246c20.333 -90.667 30.5 -189.667 30.5 -297c0 -95.333 -11.167 -186.833 -33.5 -274.5s-55.166 -169.167 -98.5 -244.5c-43.333 -75.333 -96.5 -143.833 -159.5 -205.5s-135.333 -114.334 -217 -158.001
s-172.167 -77.5 -271.5 -101.5s-206.666 -36 -321.999 -36c-173.333 0 -329.833 30.667 -469.5 92s-258.834 151.666 -357.501 270.999s-174.667 267 -228 443s-80 378.667 -80 608c0 274 30 515.833 90 725.5s148.333 385.5 265 527.5s260.5 249.167 431.5 321.5
s367.5 108.5 589.5 108.5c70.667 0 139.667 -3.33301 207 -10s131 -15.834 191 -27.5c60 -11.667 115.333 -25.167 166 -40.5s95 -31.666 133 -49v-475zM839.998 1303c0 -102 5.83301 -194.999 17.5 -278.999s28.5 -159.5 50.5 -226.5s49.167 -125.333 81.5 -175
s69.166 -91.167 110.499 -124.5s86.833 -58.333 136.5 -75s103.167 -25.334 160.5 -26.001c86 -1.33301 161.667 10.667 227 36s120 61.5 164 108.5s77.167 104 99.5 171s33.5 142.167 33.5 225.5c0 88.667 -10.833 167 -32.5 235s-54.5 125 -98.5 171
s-99.333 80.667 -166 104s-145 35 -235 35c-59.333 0 -114.333 -4.33301 -165 -13s-98.167 -21 -142.5 -37s-86.166 -35 -125.499 -57s-78 -46.333 -116 -73z" />
    <glyph glyph-name="seven" unicode="7" horiz-adv-x="2716" 
d="M590 0l1163 2490h-1434v476h2073v-402l-1180 -2564h-622z" />
    <glyph glyph-name="eight" unicode="8" horiz-adv-x="2716" 
d="M1970 1556c63.333 -23.333 120.502 -50.333 171.502 -81s96.333 -64.667 136 -102s73.667 -77.666 102 -120.999s51.666 -89.5 70 -138.5c18.333 -49 31.833 -100.5 40.5 -154.5s13 -110 13 -168c0 -81.333 -10.167 -159 -30.5 -233s-51.333 -142.667 -93 -206
s-93.834 -120.833 -156.5 -172.5c-62.667 -51.667 -136.334 -95.667 -221 -132c-84.667 -36.333 -180.5 -64.333 -287.5 -84s-225.167 -29.5 -354.5 -29.5c-130.667 0 -249.5 9.83301 -356.5 29.5s-203 47.667 -288 84s-159 80.333 -222 132s-115.333 109.167 -157 172.5
s-72.667 132 -93 206s-30.5 151.667 -30.5 233c0 58 4.66699 114 14 168s23.666 105.5 42.999 154.5s43.833 95.167 73.5 138.5s64.834 83.666 105.501 120.999s87 71.333 139 102s110 57.667 174 81c-74 32.667 -138.333 72.334 -193 119.001
s-100.167 98.834 -136.5 156.501s-63.5 120.167 -81.5 187.5s-27 138.333 -27 213c0 128 23 241.667 69 341s113.167 182.833 201.5 250.5s196.666 119.167 324.999 154.5s275.166 53 440.499 53c164 0 310 -17.667 438 -53s236 -86.833 324 -154.5s155 -151.167 201 -250.5
s69 -213 69 -341c0 -74.667 -8.5 -145.667 -25.5 -213s-43 -129.833 -78 -187.5s-78.833 -109.834 -131.5 -156.501s-115 -86.334 -187 -119.001zM1901 840c0 63.333 -10.833 123.5 -32.5 180.5s-54.834 107 -99.501 150s-101 77.167 -169 102.5s-148 38 -240 38
c-93.333 0 -174.166 -12.667 -242.499 -38s-125 -59.5 -170 -102.5s-78.333 -93 -100 -150s-32.5 -117.167 -32.5 -180.5s11.333 -122.5 34 -177.5s56.667 -102.833 102 -143.5s102 -72.5 170 -95.5s147.667 -34.5 239 -34.5c90 0 168.833 11.5 236.5 34.5
s124 54.833 169 95.5s78.833 88.5 101.5 143.5s34 114.167 34 177.5zM1815 2187c0 63.333 -10.501 120.166 -31.501 170.5c-21 50.333 -51.167 93 -90.5 128s-87 61.667 -143 80s-119.333 27.5 -190 27.5c-72 0 -136.5 -9.16699 -193.5 -27.5s-105.5 -45 -145.5 -80
s-70.667 -77.667 -92 -128s-32 -107.166 -32 -170.5c0 -63.333 10.167 -122 30.5 -176s50 -100.667 89 -140s87.333 -70.166 145 -92.499s123.834 -33.5 198.501 -33.5s140.334 11.167 197.001 33.5s104.167 53.166 142.5 92.499s67.166 86 86.499 140s29 112.667 29 176z
" />
    <glyph glyph-name="nine" unicode="9" horiz-adv-x="2716" 
d="M377 537c42.667 -19.333 90.5039 -37.499 143.504 -54.499s109 -31.833 168 -44.5s120 -22.667 183 -30s126.167 -11 189.5 -11c140 0 258.167 20.333 354.5 61s175.333 99.5 237 176.5s108.5 170.667 140.5 281s54.333 235.166 67 374.499c-40 -34 -83.667 -65 -131 -93
s-97.5 -52 -150.5 -72s-108.5 -35.667 -166.5 -47s-117.667 -17 -179 -17c-162.667 0 -307.334 21 -434.001 63s-233.334 104 -320.001 186s-152.667 183.333 -198 304s-68 260 -68 418c0 93.333 11.167 182.833 33.5 268.5s55.166 165.5 98.499 239.5
s96.5 141.167 159.5 201.5s135.333 112 217 155s172.167 76.167 271.5 99.5s206.666 35 321.999 35c172.667 0 329 -30.667 469 -92s259.167 -151.666 357.5 -270.999s174.166 -266.833 227.499 -442.5s80 -378.167 80 -607.5c0 -274.667 -30 -516.834 -90 -726.501
s-148.167 -385.5 -264.5 -527.5s-260.166 -249.167 -431.499 -321.5s-368 -108.5 -590 -108.5c-70.667 0 -139.5 3.33301 -206.5 10s-130.5 15.834 -190.5 27.501s-115.333 25.167 -166 40.5s-95 31.666 -133 48.999v476zM1872 1704
c-2 96.667 -9.50098 185.166 -22.501 265.499s-30.833 152.333 -53.5 216s-50.167 119.334 -82.5 167c-32.333 47.667 -68.833 87.334 -109.5 119c-40.667 31.667 -85.167 55.5 -133.5 71.5s-100.166 24.333 -155.499 25c-86 0.666992 -161.667 -11 -227 -35
s-120 -58.667 -164 -104s-77.167 -100.166 -99.5 -164.499s-33.5 -136.5 -33.5 -216.5c0 -86 10.833 -161.667 32.5 -227s54.5 -120 98.5 -164s99.333 -77.167 166 -99.5s145 -33.5 235 -33.5c58 0 112.167 4.16699 162.5 12.5s97.833 20.333 142.5 36s87 34.5 127 56.5
s79 47 117 75z" />
    <glyph glyph-name="colon" unicode=":" horiz-adv-x="1397" 
d="M377 1495v606h643v-606h-643zM377 0v606h643v-606h-643z" />
    <glyph glyph-name="semicolon" unicode=";" horiz-adv-x="1397" 
d="M377 1495v606h643v-606h-643zM160 -623l282 655.998l-82 573h345c59.333 0 112.333 -4.83301 159 -14.5s86 -25.5 118 -47.5s56.5 -50.333 73.5 -85s25.5 -77 25.5 -127c0 -43.333 -3.33301 -85.666 -10 -126.999s-16.667 -82.166 -30 -122.499s-30.333 -81 -51 -122
s-45 -83.5 -73 -127.5s-59.667 -89.667 -95 -137l-117 -151l-136 -168h-409z" />
    <glyph glyph-name="less" unicode="&#x3c;" horiz-adv-x="2458" 
d="M1483 184l-1258 1028l1258 1029h729l-1258 -1029l1258 -1028h-729z" />
    <glyph glyph-name="equal" unicode="=" horiz-adv-x="2458" 
d="M172 479v492h2114v-492h-2114zM172 1462v492h2114v-492h-2114z" />
    <glyph glyph-name="greater" unicode="&#x3e;" horiz-adv-x="2458" 
d="M963 184h-730l1266 1028l-1266 1029h730l1265 -1029z" />
    <glyph glyph-name="question" unicode="?" horiz-adv-x="2195" 
d="M643 893l-61 445.998l307 205c78 52 147.5 102.333 208.5 151s112.833 98.334 155.5 149.001s75.167 103.834 97.5 159.501s33.5 116.834 33.5 183.5c0 58.667 -11.5 110.167 -34.5 154.5s-55.5 81.5 -97.5 111.5s-92.333 52.667 -151 68s-124 23 -196 23
c-42.667 0 -85.834 -2.16699 -129.501 -6.5s-87.167 -10.5 -130.5 -18.5s-86.166 -17.5 -128.499 -28.5s-83.333 -23.167 -123 -36.5s-77.5 -27.666 -113.5 -43c-36 -15.333 -69.333 -31.333 -100 -48v476c42.667 27.333 92.667 52.833 150 76.5s119.5 44 186.5 61
s137.5 30.333 211.5 40s149.333 14.5 226 14.5c101.333 0 197 -8.33301 287 -25s173.167 -40.834 249.5 -72.5c76.333 -31.667 144.833 -70.334 205.5 -116c60.667 -45.667 112.167 -97.667 154.5 -156s74.833 -122.333 97.5 -192s34 -144.5 34 -224.5
s-9.66699 -155 -29 -225s-45.833 -135.667 -79.5 -197s-73.667 -119 -120 -173s-96.333 -105.167 -150 -153.5s-110 -94.333 -169 -138l-177.5 -125.5l-94 -62l-41 -278h-479zM573 -0.00195312v606h644v-606h-644z" />
    <glyph glyph-name="at" unicode="@" horiz-adv-x="4415" 
d="M2925 -709c-35.333 -16.667 -74 -32.1689 -116 -46.502s-86.167 -27.833 -132.5 -40.5s-94.5 -24 -144.5 -34s-100.833 -18.5 -152.5 -25.5s-103.667 -12.333 -156 -16s-104.166 -5.5 -155.5 -5.5c-198 0 -380.833 19 -548.5 57s-319.667 92.833 -456 164.5
s-256.5 159.334 -360.5 263.001s-191 221.167 -261 352.5s-123 275.666 -159 432.999s-54 325.333 -54 504c0 206 23 402 69 588s112 358.333 198 517s190.333 302 313 430s260.834 236.833 414.501 326.5s321.167 158.834 502.5 207.5
c181.333 48.667 373.333 73 575.999 73c213.333 0 408.166 -18.333 584.5 -55c176.333 -36.667 334.333 -88.834 474 -156.501s261.167 -149.167 364.5 -244.5s189.166 -201.5 257.5 -318.5c68.333 -117 119.333 -243.5 153 -379.5c33.666 -136 50.5 -278.333 50.5 -427
c0 -149.333 -13.5 -287.833 -40.5 -415.5s-65 -243.834 -114 -348.501s-107.333 -197 -175 -277s-142.167 -147.333 -223.5 -202s-168.166 -96 -260.5 -124c-92.333 -28 -187.166 -42 -284.5 -42c-74.667 0 -144.834 6.83301 -210.5 20.5
c-65.667 13.667 -125.334 34.334 -179 62.001c-53.667 27.667 -100.167 62 -139.5 103s-70.333 88.5 -93 142.5c-28 -46 -62 -89 -102 -129s-86.667 -74.667 -140 -104s-113.333 -52.5 -180 -69.5s-140.334 -25.5 -221.001 -25.5c-107.333 0 -203.166 20.167 -287.499 60.5
s-155.5 96.833 -213.5 169.5s-102.333 159 -133 259s-46 210 -46 330c0 108 10.667 215 32 321s53 207 95 303s94.167 184.833 156.5 266.5s134.5 152.5 216.5 212.5s174 107 276 141s213.333 51 334 51c58 0 113.5 -4 166.5 -12s102.5 -19.5 148.5 -34.5
s88.333 -33 127 -54s73 -44.833 103 -71.5l53 110h438l-311 -1462c-2 -10.667 -3.83301 -22.334 -5.5 -35.001s-2.5 -24.334 -2.5 -35.001c0 -24.667 3.5 -47.667 10.5 -69s17.833 -40 32.5 -56s33.667 -28.5 57 -37.5s51.333 -13.5 84 -13.5
c45.333 0 91.166 9.83301 137.5 29.5c46.333 19.667 90.666 48.834 133 87.501c42.333 38.667 81.833 87 118.5 145s68.667 125.667 96 203s48.833 164 64.5 260s23.5 201.333 23.5 316c0 124.667 -11.833 241.5 -35.5 350.5s-60.167 208.667 -109.5 299
s-112 170.833 -188 241.5s-166.833 130.334 -272.5 179c-105.667 48.667 -226.5 85.834 -362.5 111.5c-136 25.667 -288.333 38.5 -457 38.5c-155.333 0 -303.166 -18.5 -443.499 -55.5s-270.333 -90.667 -390 -161s-227.667 -156.166 -324 -257.5
c-96.333 -101.333 -178.333 -216.5 -246 -345.5s-119.667 -270.833 -156 -425.5s-54.5 -320 -54.5 -496c0 -144.667 12.833 -279.667 38.5 -405s64.167 -239.666 115.5 -342.999s115.166 -195.166 191.499 -275.499s165 -148.166 266 -203.499s214.333 -97.333 340 -126
s263.167 -43 412.5 -43c80 0 160 3.33301 240 10s157.667 16.667 233 30s147 29.833 215 49.5s129.667 42.834 185 69.501v-385zM2679 1655c-24.667 9.33301 -51.5 18.332 -80.5 26.999s-60.167 16.5 -93.5 23.5s-69 12.667 -107 17s-78.333 6.5 -121 6.5
c-64.667 0 -124.667 -9.83301 -180 -29.5s-105.333 -47.334 -150 -83.001s-84.167 -78.334 -118.5 -128.001s-63.166 -104.667 -86.499 -165s-41 -125.166 -53 -194.499s-18 -141.333 -18 -216c0 -60 6.66699 -116.167 20 -168.5s34.333 -97.833 63 -136.5
s65.667 -69.167 111 -91.5s99.666 -33.5 162.999 -33.5c46 0 89.833 4.33301 131.5 13s81 20.834 118 36.501s71.667 34.334 104 56.001s61.833 45.167 88.5 70.5z" />
    <glyph glyph-name="A" unicode="A" horiz-adv-x="2822" 
d="M2171 0l-213 639h-1127l-208 -639h-590l1069 2966h618l1069 -2966h-618zM1536 1917c-28.667 88.667 -54.8311 177 -78.498 265s-43.834 178.667 -60.501 272c-16.667 -93.333 -36.834 -184 -60.501 -272s-50.167 -176.333 -79.5 -265l-270 -811h815z" />
    <glyph glyph-name="B" unicode="B" horiz-adv-x="2703" 
d="M369 0l0.00195312 2966h1003c164.667 0 308.167 -17.333 430.5 -52s223.833 -85.334 304.5 -152c80.667 -66.667 140.834 -148.667 180.5 -246c39.667 -97.333 59.5 -208.333 59.5 -333c0 -78 -7.5 -149.167 -22.5 -213.5s-36.833 -122.5 -65.5 -174.5
s-63.834 -98.5 -105.5 -139.5c-41.667 -41 -89.167 -76.833 -142.5 -107.5c76 -32.667 143.667 -73.167 203 -121.5s109.5 -103.666 150.5 -165.999s72.167 -131.5 93.5 -207.5s32 -158 32 -246c0 -80 -8.5 -155.333 -25.5 -226s-43.333 -136 -79 -196
s-81 -113.667 -136 -161s-120.333 -87.666 -196 -120.999s-162.334 -58.833 -260.001 -76.5s-206.834 -26.5 -327.501 -26.5h-1097zM1454 458.998c78.667 0 145.999 9.33594 201.999 28.0029s101.667 45.167 137 79.5s61.333 76 78 125s25 103.833 25 164.5
c0 63.333 -8.83301 121.666 -26.5 174.999s-46.167 99.166 -85.5 137.499s-90.166 68.166 -152.499 89.499s-137.833 32 -226.5 32h-455v-831h504zM1303 1724c82.667 0 152.669 9.33301 210.002 28s103.666 45.5 138.999 80.5s61 77.833 77 128.5s24 108.334 24 173.001
c0 55.333 -8.16699 105.666 -24.5 151c-16.333 45.333 -41.5 84.166 -75.5 116.499s-77.333 57.333 -130 75s-115.334 26.5 -188.001 26.5h-385v-779h353z" />
    <glyph glyph-name="C" unicode="C" horiz-adv-x="2544" 
d="M2396 102c-60.667 -26.667 -122.003 -50.333 -184.003 -71s-129 -38.167 -201 -52.5s-151.333 -25.333 -238 -33s-184.667 -11.5 -294 -11.5c-142.667 0 -273 16.167 -391 48.5s-223.833 79.5 -317.5 141.5s-175.5 138 -245.5 228s-128 192.833 -174 308.5
s-80.5 243.334 -103.5 383.001s-34.5 290.167 -34.5 451.5c0 150.667 11.833 293.334 35.5 428.001s59.5 258.834 107.5 372.5c48 113.667 108 216 180 307s156.167 168.167 252.5 231.5s205.166 112 326.499 146s255 51 401 51c90 0 175.333 -4.16699 256 -12.5
s156.5 -20.333 227.5 -36s136.833 -34.667 197.5 -57s116 -47.166 166 -74.5v-479c-50 24.667 -104.5 46.834 -163.5 66.5c-59 19.667 -122.333 36.334 -190 50c-67.667 13.667 -140 24.167 -217 31.5s-158.5 11 -244.5 11c-83.333 0 -159.166 -10.667 -227.499 -32
s-129.666 -52.5 -183.999 -93.5s-101.666 -91.5 -141.999 -151.5s-73.833 -128.333 -100.5 -205s-46.5 -161.334 -59.5 -254.001s-19.5 -192.667 -19.5 -300c0 -128 6.83301 -243.333 20.5 -346s34.334 -193.5 62.001 -272.5s62.334 -146.667 104.001 -203
s90.5 -102.5 146.5 -138.5s119 -62.5 189 -79.5s147.333 -25.5 232 -25.5c90 0 172.167 3.16699 246.5 9.5s144.166 15.666 209.499 27.999s128.166 28 188.5 47c60.333 19 121.166 41.5 182.5 67.5v-480z" />
    <glyph glyph-name="D" unicode="D" horiz-adv-x="3006" 
d="M369 0v2966h1048c172 0 325 -17 459 -51s251.333 -82.333 352 -145s186 -138.5 256 -227.5s126.667 -188.333 170 -298s74.666 -228.667 94 -357c19.333 -128.333 29 -263.166 29 -404.499s-10.5 -276.166 -31.5 -404.499s-54 -247.333 -99 -357
s-103.167 -209 -174.5 -298s-157.333 -164.833 -258 -227.5s-217 -111 -349 -145s-281.333 -51 -448 -51h-1048zM1397 474.998c82.667 0 159.334 9.00098 230.001 27.001s135 45.167 193 81.5s109.333 82.166 154 137.499s82.167 120.333 112.5 195s53.333 159.167 69 253.5
s23.5 198.833 23.5 313.5s-7.83301 219.167 -23.5 313.5s-38.667 178.833 -69 253.5s-67.833 139.5 -112.5 194.5s-96 100.667 -154 137s-122.333 63.5 -193 81.5s-147.334 27 -230.001 27h-451v-2015h451z" />
    <glyph glyph-name="E" unicode="E" horiz-adv-x="2478" 
d="M369 0v2966h1872v-476h-1295v-733h1114v-475h-1114v-807h1311v-475h-1888z" />
    <glyph glyph-name="F" unicode="F" horiz-adv-x="2314" 
d="M369 0v2966h1765v-476h-1188v-811h1077v-475h-1077v-1204h-577z" />
    <glyph glyph-name="G" unicode="G" horiz-adv-x="2982" 
d="M2118 1430l577 -0.000976562v-1291c-48 -20.667 -97.667 -40 -149 -58s-104.666 -34.667 -160 -50c-55.333 -15.333 -113 -29 -173 -41s-122.5 -22.167 -187.5 -30.5s-132.833 -14.666 -203.5 -18.999s-144 -6.5 -220 -6.5c-238.667 0 -445.334 33.667 -620.001 101
s-319 166.833 -433 298.5s-198.5 294.667 -253.5 489s-82.5 418.5 -82.5 672.5c0 158 13.5 305.833 40.5 443.5s67 263.334 120 377c53 113.667 119 214.834 198 303.5c79 88.667 170.5 163.5 274.5 224.5s220.333 107.5 349 139.5s269.667 48 423 48
c63.333 0 124.5 -1.83301 183.5 -5.5s115.5 -9.33398 169.5 -17c54 -7.66699 105.833 -16.834 155.5 -27.501s97.167 -23 142.5 -37s88.5 -29.5 129.5 -46.5s79.833 -35.167 116.5 -54.5v-484c-54 26.667 -113.333 50.667 -178 72s-133.5 39.333 -206.5 54
s-149.667 26 -230 34s-163.5 12 -249.5 12c-135.333 0 -255 -21.667 -359 -65s-191.333 -108.333 -262 -195s-124.167 -194.667 -160.5 -324s-54.5 -280 -54.5 -452c0 -136 9 -256.667 27 -362s43.833 -197.5 77.5 -276.5s74.834 -145.667 123.501 -200
s103.5 -98.166 164.5 -131.499s128 -57.5 201 -72.5s150.833 -22.5 233.5 -22.5c47.333 0 92.333 0.833008 135 2.5s83.667 4.16699 123 7.5s77 7.5 113 12.5s71 11.167 105 18.5v959z" />
    <glyph glyph-name="H" unicode="H" horiz-adv-x="3064" 
d="M2118 0v1286h-1172v-1286h-577v2966h577v-1205h1172v1205h577v-2966h-577z" />
    <glyph glyph-name="I" unicode="I" horiz-adv-x="1749" 
d="M246 0v459h340v2048h-340v459h1257v-459h-340v-2048h340v-459h-1257z" />
    <glyph glyph-name="J" unicode="J" horiz-adv-x="1516" 
d="M-74 -135c14.667 -3.33301 29.668 -6.00195 45.001 -8.00195s31.5 -3.66699 48.5 -5s34.667 -2.33301 53 -3s37.833 -1 58.5 -1c80.667 0 149 13.667 205 41s101.167 67 135.5 119s59.166 115.833 74.499 191.5s23 162.167 23 259.5v2048h-422v459h1000v-2573
c0 -174 -22.5 -325.667 -67.5 -455s-109.833 -236.666 -194.5 -321.999s-188 -149.166 -310 -191.499s-260.333 -63.5 -415 -63.5c-24.667 0 -48.167 0.5 -70.5 1.5s-43.333 2.66699 -63 5s-38 5.33301 -55 9s-32.167 8.16699 -45.5 13.5v475z" />
    <glyph glyph-name="K" unicode="K" horiz-adv-x="2757" 
d="M2023 0l-1077 1348v-1348h-577v2966h577v-1303l1004 1303h708l-938 -1188c-47.333 -59.333 -92.5 -111.666 -135.5 -156.999s-83.833 -83.333 -122.5 -114c21.333 -15.333 43.166 -32.5 65.499 -51.5s45 -40 68 -63s46.5 -48 70.5 -75l75 -88.5l991 -1229h-709z" />
    <glyph glyph-name="L" unicode="L" horiz-adv-x="2175" 
d="M369 0v2966h573v-2491h1159v-475h-1732z" />
    <glyph glyph-name="M" unicode="M" horiz-adv-x="3740" 
d="M2826 0l-0.00292969 1638c0 84.667 3.66699 185.167 11 301.5s16 222.166 26 317.5c-35.333 -99.333 -75.5 -199.166 -120.5 -299.499s-92.167 -191.833 -141.5 -274.5l-557 -938h-352l-557 938c-24.667 40.667 -48.667 83.5 -72 128.5s-46 92.333 -68 142l-63 149
c-20 49.667 -38.333 98.5 -55 146.5c10 -99.333 18.5 -202.666 25.5 -309.999s10.5 -207.666 10.5 -300.999v-1638h-544v2966h606l700 -1205c33.333 -57.333 67.833 -123.333 103.5 -198s66.834 -153.334 93.501 -236.001c24.667 82 55.334 160.833 92.001 236.5
s71.334 141.5 104.001 197.5l701 1205h602v-2966h-545z" />
    <glyph glyph-name="N" unicode="N" horiz-adv-x="3142" 
d="M2187 0l-1073 1712c-35.333 56 -72.5 123 -111.5 201s-78.167 161.333 -117.5 250l14 -131c4.66699 -43.333 8.66699 -84.666 12 -123.999s6 -75.666 8 -108.999s3 -62.333 3 -87v-1712h-553v2966h585l1074 -1713c17.333 -27.333 35.333 -58.166 53.999 -92.499
c18.667 -34.333 37.5 -70.833 56.5 -109.5l57.5 -121l57 -127c-5.33301 42.667 -10 85.5 -14 128.5s-7.5 84 -10.5 123s-5.16699 75.5 -6.5 109.5s-2 63.667 -2 89v1713h553v-2966h-586z" />
    <glyph glyph-name="O" unicode="O" horiz-adv-x="3056" 
d="M1528 -66c-172 0 -323.502 18.668 -454.502 56.001s-244.667 89.833 -341 157.5s-176.666 148.667 -240.999 243s-116 199 -155 314s-66.667 238.167 -83 369.5s-24.5 267.666 -24.5 408.999s9 277.666 27 408.999s47.333 254.333 88 368.999
c40.667 114.667 93.834 219.334 159.501 314c65.667 94.667 146.667 175.667 243 243s209 119.666 338 157c129 37.333 276.833 56 443.5 56c172 0 323.5 -18.667 454.5 -56s244.5 -89.666 340.5 -157c96 -67.333 176.333 -148.333 241 -243s116.334 -199.334 155.001 -314
c38.667 -114.667 66.167 -237.667 82.5 -369s24.5 -267.666 24.5 -408.999s-9 -277.666 -27 -408.999s-47.167 -254.5 -87.5 -369.5s-93.5 -219.667 -159.5 -314s-147.167 -175.333 -243.5 -243s-208.833 -120.167 -337.5 -157.5s-276.334 -56 -443.001 -56zM1528 422.001
c82.667 0 157.334 10.667 224.001 32s125.834 52.833 177.501 94.5s96.334 92.834 134.001 153.501s68.667 130.334 93 209.001s42.333 165.834 54 261.501s17.5 199.167 17.5 310.5s-5.83301 214.833 -17.5 310.5s-29.667 182.667 -54 261s-55.333 148 -93 209
s-82.334 112.167 -134.001 153.5s-110.834 72.833 -177.501 94.5s-141.334 32.5 -224.001 32.5s-157.334 -10.833 -224.001 -32.5s-126 -53.167 -178 -94.5s-96.833 -92.5 -134.5 -153.5s-68.667 -130.667 -93 -209s-42.333 -165.333 -54 -261s-17.5 -199.167 -17.5 -310.5
s5.83301 -214.833 17.5 -310.5s29.667 -182.834 54 -261.501s55.333 -148.334 93 -209.001s82.5 -111.834 134.5 -153.501s111.333 -73.167 178 -94.5s141.334 -32 224.001 -32z" />
    <glyph glyph-name="P" unicode="P" horiz-adv-x="2556" 
d="M369 0v2966h1032c116 0 221.833 -9.5 317.5 -28.5s181.5 -47 257.5 -84s142 -82.833 198 -137.5s102.667 -117.667 140 -189s65.166 -150.833 83.5 -238.5c18.333 -87.667 27.5 -182.834 27.5 -285.501c0 -103.333 -9.5 -199.166 -28.5 -287.499
s-47.833 -168.833 -86.5 -241.5s-87.334 -137 -146 -193c-58.667 -56 -127.667 -103 -207 -141s-169 -66.833 -269 -86.5s-210.667 -29.5 -332 -29.5h-414v-1024h-573zM1298 1475c95.333 0 176.834 12.5 244.501 37.5s123.167 60.5 166.5 106.5s75.166 101.5 95.499 166.5
s30.5 137.5 30.5 217.5c0 78.667 -9.83301 149.834 -29.5 213.5c-19.667 63.667 -49.667 117.834 -90 162.5c-40.333 44.667 -91 79.167 -152 103.5s-132.833 36.5 -215.5 36.5h-406v-1044h356z" />
    <glyph glyph-name="Q" unicode="Q" horiz-adv-x="3056" 
d="M2273 -549c-38 0 -70.001 1.66992 -96.001 5.00293s-49 9.16602 -69 17.499s-38.667 19.333 -56 33s-36.333 30.834 -57 51.501l-377 381c-14.667 0 -29.834 -0.833008 -45.501 -2.5s-30.5 -2.5 -44.5 -2.5c-172 0 -323.5 18.667 -454.5 56s-244.667 89.833 -341 157.5
s-176.666 148.667 -240.999 243s-116 199 -155 314s-66.667 238.167 -83 369.5s-24.5 267.666 -24.5 408.999s9 277.666 27 408.999s47.333 254.333 88 368.999c40.667 114.667 93.834 219.334 159.501 314c65.667 94.667 146.667 175.667 243 243s209 119.666 338 157
c129 37.333 276.833 56 443.5 56c172 0 323.5 -18.667 454.5 -56s244.5 -89.666 340.5 -157c96 -67.333 176.333 -148.333 241 -243s116.334 -199.334 155 -314.001c38.667 -114.667 66.167 -237.667 82.5 -369s24.5 -267.666 24.5 -408.999c0 -160 -11.333 -313 -34 -459
s-60.5 -280.833 -113.5 -404.5s-122.667 -233.5 -209 -329.5s-192.833 -173.667 -319.5 -233c32.667 -14 64.834 -32.167 96.5 -54.5c31.667 -22.333 65.167 -51.833 100.5 -88.5l459 -463h-533zM1528 422.003c82.667 0 157.334 10.667 224.001 32
s125.834 52.833 177.501 94.5s96.334 92.834 134.001 153.501s68.667 130.334 93 209.001s42.333 165.834 54 261.501s17.5 199.167 17.5 310.5s-5.83301 214.833 -17.5 310.5s-29.667 182.667 -54 261s-55.333 148 -93 209s-82.334 112.167 -134.001 153.5
s-110.834 72.833 -177.501 94.5s-141.334 32.5 -224.001 32.5s-157.334 -10.833 -224.001 -32.5s-126 -53.167 -178 -94.5s-96.833 -92.5 -134.5 -153.5s-68.667 -130.667 -93 -209s-42.333 -165.333 -54 -261s-17.5 -199.167 -17.5 -310.5s5.83301 -214.833 17.5 -310.5
s29.667 -182.834 54 -261.501s55.333 -148.334 93 -209.001s82.5 -111.834 134.5 -153.501s111.333 -73.167 178 -94.5s141.334 -32 224.001 -32z" />
    <glyph glyph-name="R" unicode="R" horiz-adv-x="2744" 
d="M2028 0l-582.001 954.001c-18.667 30.667 -35.667 57.334 -51 80.001s-30.333 42.167 -45 58.5s-29.667 29.5 -45 39.5s-32.5 18 -51.5 24s-40.5 10 -64.5 12s-51.667 3 -83 3h-164v-1171h-573v2966h1007c170 0 320.333 -17.667 451 -53s240.167 -89.333 328.501 -162
c88.333 -72.667 155.333 -164.167 201 -274.5s68.5 -240.833 68.5 -391.5c0 -112.667 -16 -214.334 -48 -305.001s-75 -169.834 -129 -237.501s-116.667 -124 -188 -169s-146.333 -78.167 -225 -99.5c43.333 -20.667 82.5 -47.5 117.5 -80.5s66.833 -73.167 95.5 -120.5
l655 -1073h-675zM1323 1610c78.667 0 149.668 9.50293 213.001 28.5029s117.166 48.167 161.499 87.5s78.333 88.666 102 147.999s35.5 129.666 35.5 210.999c0 72 -11.667 135 -35 189s-57 99.167 -101 135.5s-97.667 63.666 -161 81.999s-135 27.5 -215 27.5h-381v-909
h381z" />
    <glyph glyph-name="S" unicode="S" horiz-adv-x="2540" 
d="M205 582c48 -24 105.003 -45.8301 171.003 -65.4971s137 -36.5 213 -50.5s155 -24.833 237 -32.5s163 -11.5 243 -11.5c108.667 0 203.5 8.83301 284.5 26.5s148.333 43.667 202 78s93.834 76.666 120.501 126.999s40 108.166 40 173.499
c0 36.667 -4.33301 70.5 -13 101.5s-22.5 59.667 -41.5 86s-44.167 50.666 -75.5 72.999s-69.5 43.5 -114.5 63.5s-97.667 39 -158 57s-129.5 36 -207.5 54c-92 21.333 -177.833 46 -257.5 74s-152.334 60.667 -218.001 98s-123.834 79.5 -174.501 126.5
s-93.5 100 -128.5 159s-61.5 124.5 -79.5 196.5s-27 151.333 -27 238s8.33301 168.5 25 245.5s43.5 148 80.5 213s84.833 123.333 143.5 175s130.334 95.5 215.001 131.5s183.167 63.667 295.5 83s240.166 29 383.499 29c84 0 166.333 -3.83301 247 -11.5
s156.667 -18.667 228 -33s137 -32.166 197 -53.5c60 -21.333 111.667 -46 155 -74v-475c-49.333 23.333 -106.166 44.833 -170.5 64.5c-64.333 19.667 -132.833 36.5 -205.5 50.5s-147.5 25 -224.5 33s-152.5 12 -226.5 12c-88 0 -165 -8.83301 -231 -26.5
s-121 -43.167 -165 -76.5s-77 -74.166 -99 -122.5c-22 -48.333 -33 -103.166 -33 -164.5c0 -37.333 4.33301 -71.333 13 -102s22.834 -58.834 42.501 -84.501s45.167 -49 76.5 -70s69.666 -41 114.999 -60s98.333 -37 159 -54s130 -33.833 208 -50.5
c96.667 -21.333 185.834 -46.166 267.501 -74.499s155.167 -61.333 220.5 -99s122.833 -80.167 172.499 -127.5c49.667 -47.333 91.167 -100.5 124.5 -159.5s58.333 -124.333 75 -196s25 -150.5 25 -236.5c0 -87.333 -10.333 -170.5 -31 -249.5s-52.334 -152 -95.001 -219
s-97 -127.5 -163 -181.5s-144 -100 -234 -138s-192.667 -67.167 -308 -87.5s-244 -30.5 -386 -30.5c-98 0 -192.5 4 -283.5 12s-175.833 19.5 -254.5 34.5s-149.834 33 -213.501 54s-117.5 44.833 -161.5 71.5v476z" />
    <glyph glyph-name="T" unicode="T" horiz-adv-x="2273" 
d="M848 0v2490h-766v476h2109v-476h-766v-2490h-577z" />
    <glyph glyph-name="U" unicode="U" horiz-adv-x="2941" 
d="M2044 2966l576.998 0.00195312v-1954c0 -100.667 -6.16699 -197.334 -18.5 -290.001s-34.5 -179 -66.5 -259s-75.5 -152.5 -130.5 -217.5s-125.167 -120.5 -210.5 -166.5s-187.5 -81.667 -306.5 -107s-258.5 -38 -418.5 -38c-159.333 0 -298.5 12.667 -417.5 38
s-221.167 61 -306.5 107s-155.5 101.5 -210.5 166.5s-98.667 137.5 -131 217.5s-54.666 166.167 -66.999 258.5s-18.5 189.166 -18.5 290.499v1954h578v-1872c0 -127.333 10.667 -233.833 32 -319.5s55 -154.667 101 -207s105.333 -89.666 178 -111.999s160 -33.5 262 -33.5
c102.667 0 190.334 11.167 263.001 33.5s132 59.666 178 111.999s79.667 121.333 101 207s32 192.167 32 319.5v1872z" />
    <glyph glyph-name="V" unicode="V" horiz-adv-x="2740" 
d="M1069 0l-1036 2966h647l586 -1905l60.5 -203c19.667 -68 37.5 -137 53.5 -207c14.667 70.667 31.167 139.667 49.5 207s38.833 135 61.5 203l602 1905h614l-1036 -2966h-602z" />
    <glyph glyph-name="W" unicode="W" horiz-adv-x="4321" 
d="M2724 0l-495.998 1892c-5.33301 17.333 -10.666 37.833 -16 61.5l-17 78.5c-6 28.667 -12 59.167 -18 91.5l-18 100.5c-6 -34.667 -12.167 -68.167 -18.5 -100.5l-18 -91.5l-16 -78.5l-13.5 -61.5l-496 -1892h-655l-893 2966h615l507 -1913c6 -24 12.667 -52.667 20 -86
s14.666 -69.833 21.999 -109.5s14.666 -81.667 21.999 -126l22 -133.5c8 44.667 16.5 89.167 25.5 133.5s18 86.333 27 126l25.5 109.5l21 86l516 1913h577l517 -1913l21 -86l25 -109.5l26.5 -126c9 -44.333 17.5 -88.833 25.5 -133.5c6 44.667 12.5 89.167 19.5 133.5
s14.167 86.333 21.5 126s14.833 76.167 22.5 109.5s15.167 62 22.5 86l508 1913h614l-893 -2966h-655z" />
    <glyph glyph-name="X" unicode="X" horiz-adv-x="2630" 
d="M1950 0l-553 941.999c-9.33301 15.333 -18.166 31 -26.499 47s-16.333 32.333 -24 49l-22.5 51c-7.33301 17.333 -14.333 35.333 -21 54c-6 -18.667 -12.833 -36.667 -20.5 -54s-15.667 -34.333 -24 -51l-25.5 -49l-25 -47l-553 -942h-647l967 1520l-922 1446h672
l504 -857l24.5 -47.5c8.33301 -16.333 16.166 -32.833 23.499 -49.5l22 -51c7.33301 -17.333 14 -34.666 20 -51.999l22.5 52l23.5 51c8 16.667 16.333 33.167 25 49.5s17.667 32.166 27 47.5l508 857h647l-921 -1446l970 -1520h-671z" />
    <glyph glyph-name="Y" unicode="Y" horiz-adv-x="2617" 
d="M1020 0l-0.00195312 1126l-1004 1840h668l438 -934l54 -117l49.5 -111c15.667 -36 30.334 -71.333 44.001 -106s26.167 -68.334 37.5 -101.001c11.333 32.667 23.833 66.334 37.5 101.001s28.334 70 44.001 106l50.5 111l56 117l438 934h668l-1004 -1840v-1126h-577z" />
    <glyph glyph-name="Z" unicode="Z" horiz-adv-x="2499" 
d="M156 0v442l1454 2048h-1405v476h2076v-443l-1450 -2048h1512v-475h-2187z" />
    <glyph glyph-name="bracketleft" unicode="[" horiz-adv-x="1729" 
d="M532 -381v3486h918v-307h-430v-2872h430v-307h-918z" />
    <glyph glyph-name="backslash" unicode="\" horiz-adv-x="2007" 
d="M1405 0l-1331 3105h524l1335 -3105h-528z" />
    <glyph glyph-name="bracketright" unicode="]" horiz-adv-x="1729" 
d="M279 -381v307h430v2872h-430v307h917v-3486h-917z" />
    <glyph glyph-name="asciicircum" unicode="^" 
d="M1315 1794l-381 754l-381 -754h-479l557 1172h610l553 -1172h-479z" />
    <glyph glyph-name="underscore" unicode="_" horiz-adv-x="1761" 
d="M-41 -492v492h1843v-492h-1843z" />
    <glyph glyph-name="grave" unicode="`" 
d="M1024 2408l-606 648h647l385 -648h-426z" />
    <glyph glyph-name="a" unicode="a" horiz-adv-x="2286" 
d="M1483 0l-29.0029 160.001c-40 -34 -82.833 -64.833 -128.5 -92.5s-94.667 -51.334 -147 -71.001s-108 -35 -167 -46s-121.833 -16.5 -188.5 -16.5c-98 0 -187.5 15 -268.5 45s-150.5 72.333 -208.5 127s-102.833 120.667 -134.5 198s-47.5 163 -47.5 257
c0 82 10.833 156 32.5 222s53.834 124.667 96.501 176s95.334 95.5 158.001 132.5s135 67.5 217 91.5s173.333 41.667 274 53s210 17 328 17c22.667 0 43.834 -0.166992 63.501 -0.5s37.667 -0.833008 54 -1.5s31.833 -1.33398 46.5 -2.00098v45c0 68 -8 126 -24 174
s-41.667 87.333 -77 118s-80.833 53.167 -136.5 67.5s-122.834 21.5 -201.501 21.5c-64.667 0 -127.334 -3 -188.001 -9s-119.167 -14.667 -175.5 -26s-110.166 -25 -161.499 -41s-100 -34.333 -146 -55v447c44 24.667 94 47.5 150 68.5s116.333 39.167 181 54.5
s132.834 27.333 204.501 36s145.5 13 221.5 13c147.333 0 277.833 -15.5 391.5 -46.5s209.167 -80.167 286.5 -147.5s136 -154.166 176 -260.499s60 -234.833 60 -385.5v-1323h-512zM1434 889.001l-44.998 0.000976562c-110 0 -205.833 -4.83301 -287.5 -14.5
s-149.5 -25.334 -203.5 -47.001s-94.333 -49.667 -121 -84s-40 -76.166 -40 -125.499c0 -34.667 5.83301 -67.334 17.5 -98.001s29.667 -57.5 54 -80.5s55.333 -41.167 93 -54.5s82.5 -20 134.5 -20c38.667 0 76.167 2.83301 112.5 8.5s71.166 13.834 104.499 24.501
s65.166 23.167 95.499 37.5s58.833 30.166 85.5 47.499v406z" />
    <glyph glyph-name="b" unicode="b" horiz-adv-x="2556" 
d="M336 0v3105h561v-1151c32.667 32.667 69.167 62.167 109.5 88.5s84.666 48.666 132.999 67c48.333 18.333 101 32.5 158 42.5s118.833 15 185.5 15c140 0 265.5 -24.667 376.5 -74s205 -121.166 282 -215.499s136 -210.5 177 -348.5s61.5 -295.333 61.5 -472
c0 -173.333 -22 -329.166 -66 -467.499s-107.667 -256.166 -191 -353.499s-185 -172 -305 -224s-256.333 -78 -409 -78c-60.667 0 -116.667 4.33301 -168 13s-99.166 21.834 -143.499 39.501s-86 39.5 -125 65.5s-76.5 56.333 -112.5 91l-37 -143h-487zM897 511.996
c28.667 -17.333 58.9971 -32.501 90.9971 -45.501s65.667 -23.667 101 -32s72.333 -14.5 111 -18.5s79.667 -6 123 -6c84 0 156.333 16.333 217 49s110.834 77.5 150.501 134.5s68.834 124 87.501 201s28 160.167 28 249.5s-9.66699 173.333 -29 252
s-48.833 147.334 -88.5 206.001s-90.167 105 -151.5 139s-134 51 -218 51c-43.333 0 -84.166 -2.16699 -122.499 -6.5s-75 -10.833 -110 -19.5s-68.167 -19.667 -99.5 -33s-61.333 -29.333 -90 -48v-1073z" />
    <glyph glyph-name="c" unicode="c" horiz-adv-x="1913" 
d="M1782 57c-39.333 -18 -84.1631 -34.334 -134.496 -49.001s-104.5 -27.167 -162.5 -37.5s-119 -18.166 -183 -23.499s-129.333 -8 -196 -8c-151.333 0 -285.333 25.833 -402 77.5s-214.667 125.5 -294 221.5s-139.5 212.167 -180.5 348.5s-61.5 288.833 -61.5 457.5
c0 119.333 9.16699 229.833 27.5 331.5s45.833 194 82.5 277s82.334 156.333 137.001 220s118.167 117 190.5 160s153.666 75.5 243.999 97.5s189.5 33 297.5 33c53.333 0 109.666 -2.66699 168.999 -8s117.166 -12.833 173.499 -22.5s108.666 -21.334 156.999 -35
c48.333 -13.667 87.833 -28.834 118.5 -45.501v-459c-36.667 13.333 -75 25.166 -115 35.499s-82 19 -126 26s-90.167 12.167 -138.5 15.5s-99.166 5 -152.499 5c-84 0 -156.833 -15.333 -218.5 -46s-112.834 -73.167 -153.501 -127.5s-70.834 -119.166 -90.501 -194.499
s-29.5 -157.333 -29.5 -246c0 -89.333 10 -172.833 30 -250.5s50.5 -145.167 91.5 -202.5s92.667 -102.666 155 -135.999s135.5 -50 219.5 -50c54 0 105.833 1.83301 155.5 5.5s97.167 9 142.5 16s88.5 15.5 129.5 25.5s80.167 21.667 117.5 35v-447z" />
    <glyph glyph-name="d" unicode="d" horiz-adv-x="2548" 
d="M1733 0l-50 179.999c-32.667 -36.667 -69.167 -70.167 -109.5 -100.5s-85.5 -56.166 -135.5 -77.499s-105.167 -38 -165.5 -50s-126.833 -18 -199.5 -18c-140 0 -266 25.667 -378 77s-207 125 -285 221s-137.833 212.5 -179.5 349.5s-62.5 291.167 -62.5 462.5
c0 179.333 21.5 338.666 64.5 477.999s105.5 256.833 187.5 352.5s182.667 168.334 302 218.001s255.333 74.5 408 74.5c52 0 101.667 -3.16699 149 -9.5s92.5 -15.666 135.5 -28c43 -12.333 84.167 -28 123.5 -47s77 -41.5 113 -67.5v1090h561v-3105h-479zM1651 1585
c-30 18.667 -61.5 34.666 -94.5 47.999s-67.833 24.333 -104.5 33s-74.5 15.167 -113.5 19.5s-79.5 6.5 -121.5 6.5c-84 0 -156 -16.333 -216 -49s-109.333 -77.667 -148 -135s-67 -124.666 -85 -201.999s-27 -160.333 -27 -249c0 -89.333 10 -173.333 30 -252
s50.5 -147.167 91.5 -205.5s92.667 -104.5 155 -138.5s135.5 -51 219.5 -51c42 0 82 2 120 6s74.167 10.167 108.5 18.5s66.833 19 97.5 32s60 28.167 88 45.5v1073z" />
    <glyph glyph-name="e" unicode="e" horiz-adv-x="2224" 
d="M1950 86c-48 -22.667 -98.335 -42.998 -151.002 -60.998s-109.334 -33.333 -170.001 -46s-126 -22.5 -196 -29.5s-146.333 -10.5 -229 -10.5c-114.667 0 -220 11.5 -316 34.5s-182.5 56.667 -259.5 101s-144.5 98.333 -202.5 162s-106.333 136.334 -145 218.001
s-67.834 171.5 -87.501 269.5s-29.5 203.333 -29.5 316c0 102 7.33301 200.667 22 296s37.834 184.666 69.501 267.999s72.5 159.5 122.5 228.5s110.167 128.333 180.5 178s151.5 88.167 243.5 115.5s196 41 312 41c119.333 0 225.833 -14.167 319.5 -42.5
s175.834 -67.333 246.501 -117s130.667 -108.667 180 -177s89.333 -142.5 120 -222.5s53 -164.5 67 -253.5s21 -178.833 21 -269.5c0 -12 -0.333008 -26.667 -1 -44s-1.5 -35.333 -2.5 -54s-2.16699 -36.667 -3.5 -54s-3 -32 -5 -44h-1331
c4.66699 -70.667 18.334 -134.834 41.001 -192.501s55.667 -106.834 99 -147.501s98.333 -72 165 -94s146.667 -33 240 -33c62.667 0 124.834 2.5 186.501 7.5s121.5 12 179.5 21s113.5 20.167 166.5 33.5s102.167 28 147.5 44v-442zM1507 1286
c-5.33301 68.667 -17.166 130.334 -35.499 185.001s-43.833 101.167 -76.5 139.5s-72.334 67.666 -119.001 87.999s-100.667 30.5 -162 30.5s-115 -10.167 -161 -30.5s-84.667 -49.666 -116 -87.999s-55.833 -84.833 -73.5 -139.5s-29.167 -116.334 -34.5 -185.001h778z" />
    <glyph glyph-name="f" unicode="f" horiz-adv-x="1638" 
d="M426 0l0.00390625 1634h-344v467h344v246c0 132.667 19 249.5 57 350.5s93 185.167 165 252.5s160 118.166 264 152.5c104 34.333 222 51.5 354 51.5c44 0 86.833 -1.5 128.5 -4.5s81.167 -7 118.5 -12s72.166 -11 104.499 -18s61.166 -14.5 86.499 -22.5v-435
c-18.667 4 -40 8 -64 12s-50.333 7.5 -79 10.5s-58.834 5.5 -90.501 7.5s-64.5 3 -98.5 3c-63.333 0 -118.833 -7.16699 -166.5 -21.5s-87.334 -37 -119.001 -68s-55.5 -70.833 -71.5 -119.5s-24 -107.334 -24 -176v-209h631v-467h-631v-1634h-565z" />
    <glyph glyph-name="g" unicode="g" horiz-adv-x="2556" 
d="M1659 143c-32.667 -32 -68.667 -60.8311 -108 -86.498s-82.666 -47.5 -129.999 -65.5s-99.166 -32 -155.499 -42s-117.833 -15 -184.5 -15c-140 0 -266 25.667 -378 77s-207 125 -285 221s-137.833 212.5 -179.5 349.5s-62.5 291.167 -62.5 462.5
c0 179.333 21.5 338.666 64.5 477.999s105.667 256.833 188 352.5s183.166 168.334 302.499 218.001s255.333 74.5 408 74.5c59.333 0 115 -4.16699 167 -12.5s100.833 -20.666 146.5 -37c45.667 -16.333 88.667 -36.833 129 -61.5s78.5 -53.334 114.5 -86.001l37 131h487
v-2044c0 -178 -24.667 -332.333 -74 -463s-120.833 -238.667 -214.5 -324s-208.334 -148.833 -344.001 -190.5s-289.5 -62.5 -461.5 -62.5c-85.333 0 -165.5 3.5 -240.5 10.5s-145.333 17.167 -211 30.5s-126.334 29.666 -182.001 48.999s-106.5 41.333 -152.5 66v458
c44 -18 93 -35 147 -51s111.833 -30 173.5 -42s126.167 -21.333 193.5 -28s136.333 -10 207 -10c100 0 187.5 9.16699 262.5 27.5s137.333 48.5 187 90.5s86.834 97.167 111.501 165.5s37 152.833 37 253.5v106zM1659 1585c-30 18.667 -61.501 34.666 -94.501 47.999
s-67.667 24.333 -104 33s-74.166 15.167 -113.499 19.5s-80 6.5 -122 6.5c-84 0 -156 -16.333 -216 -49s-109.167 -77.667 -147.5 -135s-66.5 -124.666 -84.5 -201.999s-27 -160.333 -27 -249c0 -89.333 10 -173.333 30 -252s50.5 -147.167 91.5 -205.5
s92.5 -104.5 154.5 -138.5s135 -51 219 -51c42 0 82 2 120 6s74.167 10.167 108.5 18.5s66.833 19 97.5 32s60 28.167 88 45.5v1073z" />
    <glyph glyph-name="h" unicode="h" horiz-adv-x="2568" 
d="M1720 0v1303c0 64.667 -8.16699 120.5 -24.5 167.5s-40.666 86 -72.999 117s-72.5 54 -120.5 69s-103.667 22.5 -167 22.5c-43.333 0 -84.833 -2.5 -124.5 -7.5s-77.834 -12.333 -114.501 -22s-71.5 -21.667 -104.5 -36s-64.5 -30.5 -94.5 -48.5v-1565h-561v3105h561
v-1147c40.667 34.667 83.834 65 129.501 91s94.167 47.833 145.5 65.5s106.166 30.834 164.499 39.5c58.333 8.66699 120.833 13 187.5 13c88.667 0 169 -8.5 241 -25.5s136 -41.667 192 -74s104.333 -71.666 145 -117.999s74.334 -98.833 101 -157.5
c26.667 -58.667 46.334 -122.834 59 -192.501c12.667 -69.667 19 -144.167 19 -223.5v-1376h-561z" />
    <glyph glyph-name="i" unicode="i" horiz-adv-x="1233" 
d="M336 0v2101h561v-2101h-561zM336 2417v549h561v-549h-561z" />
    <glyph glyph-name="j" unicode="j" horiz-adv-x="1233" 
d="M-274 -471c20.667 -4 44.6689 -7.66699 72.002 -11s60.666 -5 99.999 -5c66.667 0 127 10.333 181 31s100 53.834 138 99.501s67.333 104.5 88 176.5s31 159.333 31 262v2019h561v-2015c0 -182 -22.333 -338.833 -67 -470.5s-108.167 -240 -190.5 -325
s-181.5 -147.667 -297.5 -188s-245 -60.5 -387 -60.5c-19.333 0 -39.833 1 -61.5 3s-42.834 4.5 -63.501 7.5s-40.167 6.66699 -58.5 11s-33.5 9.16602 -45.5 14.499v451zM336.002 2417v549h561v-549h-561z" />
    <glyph glyph-name="k" unicode="k" horiz-adv-x="2363" 
d="M1647 0l-750.003 950.001v-950h-561v3105h561v-1852l733 848h668l-676 -782c-17.333 -19.333 -35.166 -38 -53.499 -56s-37.166 -35.333 -56.499 -52s-38.833 -32.667 -58.5 -48l-60.5 -45c21.333 -15.333 42.333 -31.833 63 -49.5s40.834 -36.334 60.501 -56.001
l59 -61.5l58.5 -66l709 -885h-696z" />
    <glyph glyph-name="l" unicode="l" horiz-adv-x="1360" 
d="M1229 16c-23.333 -8 -48.8301 -15.001 -76.4971 -21.001s-57.334 -11.167 -89.001 -15.5s-65.167 -7.5 -100.5 -9.5s-72.333 -3 -111 -3c-90 0 -167.667 12.5 -233 37.5s-119.333 61 -162 108s-74.167 104.5 -94.5 172.5s-30.5 145 -30.5 231v2589h561v-2515
c0 -26.667 2.83301 -49.167 8.5 -67.5s14.667 -33.166 27 -44.499s28 -19.5 47 -24.5s41.833 -7.5 68.5 -7.5c31.333 0 62.166 1.33301 92.499 4s61.166 7 92.499 13v-447z" />
    <glyph glyph-name="m" unicode="m" horiz-adv-x="3953" 
d="M3105 0v1303c0 64.667 -8.16699 120.5 -24.5 167.5s-40.666 86 -73 117c-32.333 31 -72.5 54 -120.5 69s-103.667 22.5 -167 22.5c-43.333 0 -84.833 -2.5 -124.5 -7.5s-77.834 -12.333 -114.5 -22c-36.667 -9.66699 -71.667 -21.667 -105 -36s-65 -30.5 -95 -48.5v-123
v-123v-1319h-561v1303c0 64.667 -8.16699 120.5 -24.5 167.5s-40.666 86 -72.999 117s-72.5 54 -120.5 69s-103.667 22.5 -167 22.5c-43.333 0 -84.833 -2.5 -124.5 -7.5s-77.834 -12.333 -114.501 -22s-71.5 -21.667 -104.5 -36s-64.5 -30.5 -94.5 -48.5v-1565h-561v2101
h487l45 -172c42.667 38.667 87.667 72.834 135 102.501s97.833 54.5 151.5 74.5s111 35.167 172 45.5s126.833 15.5 197.5 15.5c76.667 0 147.167 -6.5 211.5 -19.5s122.5 -32 174.5 -57s98.333 -55.5 139 -91.5s75.667 -77 105 -123c46 46 96.5 87 151.5 123
s114 66.5 177 91.5s130 44 201 57s145.833 19.5 224.5 19.5c88.667 0 169 -8.5 241 -25.5s136.167 -41.667 192.5 -74s104.833 -71.666 145.5 -117.999s74.334 -98.833 101 -157.5c26.667 -58.667 46.334 -122.834 59 -192.501c12.667 -69.667 19 -144.167 19 -223.5v-1376
h-561z" />
    <glyph glyph-name="n" unicode="n" horiz-adv-x="2568" 
d="M1720 0v1303c0 64.667 -8.16699 120.5 -24.5 167.5s-40.666 86 -72.999 117s-72.5 54 -120.5 69s-103.667 22.5 -167 22.5c-43.333 0 -84.833 -2.5 -124.5 -7.5s-77.834 -12.333 -114.501 -22s-71.5 -21.667 -104.5 -36s-64.5 -30.5 -94.5 -48.5v-1565h-561v2101h487
l45 -172c42.667 38.667 87.667 72.834 135 102.501s97.833 54.5 151.5 74.5s111 35.167 172 45.5s126.833 15.5 197.5 15.5c88.667 0 169 -8.5 241 -25.5s136 -41.667 192 -74s104.333 -71.666 145 -117.999s74.334 -98.833 101 -157.5
c26.667 -58.667 46.334 -122.834 59 -192.501c12.667 -69.667 19 -144.167 19 -223.5v-1376h-561z" />
    <glyph glyph-name="o" unicode="o" horiz-adv-x="2433" 
d="M1217 -66c-125.333 0 -238.501 12.501 -339.501 37.501s-190.333 60.833 -268 107.5s-144.334 103.167 -200.001 169.5s-101.334 140.833 -137.001 223.5s-62 172.5 -79 269.5s-25.5 199.5 -25.5 307.5c0 108.667 8.83301 211.667 26.5 309s45 187.333 82 270
s83.833 157.334 140.5 224.001s123.834 123.334 201.501 170.001s166.167 82.5 265.5 107.5s210.333 37.5 333 37.5c125.333 0 238.333 -12.5 339 -37.5s189.834 -60.833 267.501 -107.5s144.334 -103.167 200.001 -169.5s101.334 -140.666 137.001 -222.999
s62 -172 79 -269s25.5 -199.5 25.5 -307.5c0 -108.667 -8.83301 -211.834 -26.5 -309.501s-45 -187.834 -82 -270.501s-83.833 -157.334 -140.5 -224.001s-123.834 -123.334 -201.501 -170.001s-166.167 -82.5 -265.5 -107.5s-210 -37.5 -332 -37.5zM1217 389.001
c88 0 162 17.5029 222 52.5029s108.5 82.5 145.5 142.5s63.5 130.333 79.5 211s24 166.667 24 258c0 90.667 -8 176.167 -24 256.5s-42.5 150.166 -79.5 209.499s-85.5 106.333 -145.5 141s-134 52 -222 52s-162.167 -17.5 -222.5 -52.5s-109 -82.5 -146 -142.5
s-63.5 -130.333 -79.5 -211s-24 -166.334 -24 -257.001c0 -91.333 8 -177 24 -257s42.5 -149.833 79.5 -209.5s85.667 -106.834 146 -141.501s134.5 -52 222.5 -52z" />
    <glyph glyph-name="p" unicode="p" horiz-adv-x="2552" 
d="M336 -934l-0.000976562 3035h487l45 -176c32.667 36.667 69.667 70 111 100s87.333 55.5 138 76.5s106.334 37.167 167.001 48.5s127 17 199 17c140 0 265.5 -24.667 376.5 -74s205 -121.166 282 -215.499s136 -210.5 177 -348.5s61.5 -295.333 61.5 -472
c0 -173.333 -22 -329.166 -66 -467.499s-107.667 -256.166 -191 -353.499s-185 -172 -305 -224s-256.333 -78 -409 -78c-52 0 -101.5 3.16699 -148.5 9.5s-91.667 15.666 -134 27.999s-82.5 27.666 -120.5 45.999s-74.333 39.833 -109 64.5v-1016h-561zM896.999 511.999
c28.667 -17.333 58.9971 -32.501 90.9971 -45.501s65.667 -23.667 101 -32s72.333 -14.5 111 -18.5s79.667 -6 123 -6c84 0 156.333 16.333 217 49s110.834 77.5 150.501 134.5s68.834 124 87.501 201s28 160.167 28 249.5s-9.66699 173.333 -29 252
s-48.833 147.334 -88.5 206.001s-90.167 105 -151.5 139s-134 51 -218 51c-43.333 0 -84.166 -2.16699 -122.499 -6.5s-75 -10.833 -110 -19.5s-68.167 -19.667 -99.5 -33s-61.333 -29.333 -90 -48v-1073z" />
    <glyph glyph-name="q" unicode="q" horiz-adv-x="2556" 
d="M1659 -934l-0.000976562 1077c-32.667 -32 -68.667 -60.833 -108 -86.5s-82.666 -47.5 -129.999 -65.5s-99.166 -32 -155.499 -42s-117.833 -15 -184.5 -15c-140 0 -266 25.667 -378 77s-207 125 -285 221s-137.833 212.5 -179.5 349.5s-62.5 291.167 -62.5 462.5
c0 179.333 21.5 338.666 64.5 477.999s105.667 256.833 188 352.5s183.166 168.334 302.499 218.001s255.333 74.5 408 74.5c59.333 0 115 -4.16699 167 -12.5s100.833 -20.666 146.5 -36.999s88.667 -36.833 129 -61.5s78.5 -53.334 114.5 -86.001l37 131h487v-3035h-561z
M1659 1585c-30 18.667 -61.501 34.666 -94.501 47.999s-67.667 24.333 -104 33s-74.166 15.167 -113.499 19.5s-80 6.5 -122 6.5c-84 0 -156 -16.333 -216 -49s-109.167 -77.667 -147.5 -135s-66.5 -124.666 -84.5 -201.999s-27 -160.333 -27 -249
c0 -89.333 10 -173.333 30 -252s50.5 -147.167 91.5 -205.5s92.5 -104.5 154.5 -138.5s135 -51 219 -51c42 0 82 2 120 6s74.167 10.167 108.5 18.5s66.833 19 97.5 32s60 28.167 88 45.5v1073z" />
    <glyph glyph-name="r" unicode="r" horiz-adv-x="1667" 
d="M336 0l-0.000976562 2101h528l21 -262c30.667 47.333 64.834 90.833 102.501 130.5s79 73.834 124 102.501s94 51 147 67s110.167 24 171.5 24c28.667 0 58.667 -2.16699 90 -6.5s58.666 -10.5 81.999 -18.5v-536c-28.667 6 -53.5 10.833 -74.5 14.5s-41.333 6.5 -61 8.5
s-40 3.33301 -61 4s-45.833 1 -74.5 1c-30.667 0 -60.167 -1.83301 -88.5 -5.5s-55.666 -8.83398 -81.999 -15.501s-51.5 -14.834 -75.5 -24.501s-47 -20.667 -69 -33s-42.833 -26 -62.5 -41s-38.5 -31.167 -56.5 -48.5v-1462h-561z" />
    <glyph glyph-name="s" unicode="s" horiz-adv-x="1991" 
d="M188 524c24 -10.667 52.4961 -21.1709 85.4961 -31.5039s68.667 -20 107 -29s78.666 -17.333 120.999 -25s85 -14.334 128 -20.001s85.5 -10 127.5 -13s82 -4.5 120 -4.5c62 0 117.667 3.5 167 10.5s91 18.333 125 34s60 35.667 78 60s27 53.833 27 88.5
c0 36 -7.66699 66.167 -23 90.5s-39.5 45.666 -72.5 63.999s-75.5 35.166 -127.5 50.499s-114.333 31.666 -187 48.999c-116 27.333 -215.333 59.833 -298 97.5s-150.5 83 -203.5 136s-91.833 115.167 -116.5 186.5s-37 154 -37 248c0 96 16.833 183.833 50.5 263.5
s86.334 147.834 158.001 204.501s163.334 100.667 275.001 132.001c111.667 31.333 245.5 47 401.5 47c40.667 0 82.5 -1.5 125.5 -4.5s85.667 -7.5 128 -13.5s83.5 -13.167 123.5 -21.5s77.667 -17.666 113 -28c35.333 -10.333 67.333 -21.666 96 -33.999
s53 -25.166 73 -38.499v-450c-24.667 11.333 -53.167 22.333 -85.5 33s-67.166 20.834 -104.499 30.501s-76.166 18.334 -116.499 26.001s-80.833 14.334 -121.5 20.001s-80.667 10 -120 13s-76.333 4.5 -111 4.5c-45.333 0 -86.833 -3.5 -124.5 -10.5
s-70.167 -17.833 -97.5 -32.5s-48.5 -33.667 -63.5 -57s-22.5 -51.333 -22.5 -84c0 -36 7.66699 -65.833 23 -89.5s39.5 -44.167 72.5 -61.5s75 -33.166 126 -47.499s112.5 -30.166 184.5 -47.499c114.667 -28 213.5 -60.667 296.5 -98s151.333 -82.333 205 -135
s93.334 -114.5 119.001 -185.5s38.5 -154.167 38.5 -249.5s-20 -183.5 -60 -264.5s-99.5 -151 -178.5 -210s-176.833 -105.167 -293.5 -138.5s-252 -50 -406 -50c-70.667 0 -142.167 3.5 -214.5 10.5s-141 16.667 -206 29s-124 26.666 -177 42.999s-95.5 33.833 -127.5 52.5
v450z" />
    <glyph glyph-name="t" unicode="t" horiz-adv-x="1757" 
d="M1659 25c-39.333 -14.667 -78.999 -27.334 -118.999 -38.001s-81 -19.5 -123 -26.5s-85.167 -12.333 -129.5 -16s-89.833 -5.5 -136.5 -5.5c-145.333 0 -265.333 17.167 -360 51.5s-169.667 84 -225 149s-93.833 144.333 -115.5 238s-32.5 199.834 -32.5 318.501v938
h-328v467h328v652h561v-652h688v-467h-688v-901c0 -53.333 4.16699 -99.333 12.5 -138s24.166 -70.5 47.499 -95.5s55.333 -43.5 96 -55.5s93.667 -18 159 -18c32 0 63.333 0.833008 94 2.5s61.167 4 91.5 7s60.333 6.83301 90 11.5s59.5 10 89.5 16v-438z" />
    <glyph glyph-name="u" unicode="u" horiz-adv-x="2531" 
d="M1708 0l-44.9971 168.002c-41.333 -38 -84.333 -71.5 -129 -100.5s-92.334 -53.5 -143.001 -73.5s-104.667 -35 -162 -45s-119 -15 -185 -15c-88.667 0 -169 8.5 -241 25.5s-136 41.667 -192 74s-104.333 71.666 -145 117.999s-74.334 98.833 -101.001 157.5
s-46.334 122.834 -59.001 192.501s-19 144.167 -19 223.5v1376h561v-1302c0 -64.667 8.16699 -120.834 24.5 -168.501s40.666 -87.334 72.999 -119.001s72.5 -55.167 120.5 -70.5s103.667 -23 167 -23c38 0 74.833 2.5 110.5 7.5s70.334 12.167 104.001 21.5
s66 20.833 97 34.5s60.833 29.167 89.5 46.5v1573h561v-2101h-487z" />
    <glyph glyph-name="v" unicode="v" horiz-adv-x="2150" 
d="M778 0l-762 2101h611l381 -1245c12 -43.333 24.667 -92.5 38 -147.5s25 -112.167 35 -171.5c12.667 59.333 26 116.5 40 171.5s28 104.167 42 147.5l402 1245h569l-750 -2101h-606z" />
    <glyph glyph-name="w" unicode="w" horiz-adv-x="3346" 
d="M2060 0l-315 1114c-16.667 52 -31 104.167 -43 156.5s-22.333 105.5 -31 159.5c-10 -52 -21.167 -104.667 -33.5 -158s-25.833 -106 -40.5 -158l-319 -1114h-561l-684 2101h585l316 -1151c12 -45.333 24 -96.333 36 -153s23.333 -114.667 34 -174
c12 59.333 24.333 117.333 37 174s26 107.667 40 153l328 1151h528l320 -1151l38.5 -160.5c13.667 -57.667 26.834 -117.5 39.5 -179.5c10 62 21.167 122.333 33.5 181s25.5 111.667 39.5 159l324 1151h582l-688 -2101h-566z" />
    <glyph glyph-name="x" unicode="x" horiz-adv-x="2183" 
d="M1511 0l-426 692l-430 -692h-635l754 1065l-733 1036h655l406 -651l409 651h635l-741 -1032l758 -1069h-652z" />
    <glyph glyph-name="y" unicode="y" horiz-adv-x="2150" 
d="M0 -471c30.667 -6 61.501 -10.167 92.501 -12.5s62.833 -3.5 95.5 -3.5c49.333 0 95.333 2.33301 138 7s82.667 13 120 25s72 28.5 104 49.5s62 47.5 90 79.5s54 70.5 78 115.5s46.667 97.5 68 157.5l9 20l-779 2134h611l381 -1241
c12 -43.333 24.667 -93.166 38 -149.499s25 -114.166 35 -173.499c12.667 59.333 26 117.166 40 173.499s28 106.166 42 149.499l402 1241h569l-754 -2121c-40.667 -114 -83.667 -216.333 -129 -307s-94.333 -170.834 -147 -240.501s-109.667 -129.167 -171 -178.5
s-128.333 -89.666 -201 -120.999s-152 -54.333 -238 -69s-179.667 -22 -281 -22c-18.667 0 -37.834 0.666992 -57.501 2s-39 3.33301 -58 6s-37 5.66699 -54 9s-31.5 7 -43.5 11v459z" />
    <glyph glyph-name="z" unicode="z" horiz-adv-x="2105" 
d="M180 0v344l1004 1290h-979v467h1720v-344l-1007 -1290h1048v-467h-1786z" />
    <glyph glyph-name="braceleft" unicode="{" horiz-adv-x="1860" 
d="M1335 -381c-74 0 -141.833 4.16602 -203.5 12.499s-117.334 21.666 -167.001 39.999s-93.334 42.5 -131.001 72.5s-69 66.833 -94 110.5s-43.833 94.334 -56.5 152.001s-19 123.834 -19 198.501v663c0 60.667 -6 112.5 -18 155.5s-30.833 78.167 -56.5 105.5
s-58.167 47.333 -97.5 60s-86 19 -140 19h-106v312h106c54 0 100.667 6.33301 140 19s71.833 32.667 97.5 60s44.5 62.5 56.5 105.5s18 94.833 18 155.5v659c0 74.667 6.33301 140.834 19 198.5c12.667 57.667 31.5 108.334 56.5 152c25 43.667 56.333 80.5 94 110.5
s81.334 54.167 131.001 72.5s105.334 31.666 167.001 39.999s129.5 12.5 203.5 12.5h246v-307h-151c-54.667 0 -99.834 -7.83301 -135.501 -23.5s-64.167 -39 -85.5 -70s-36.333 -69.5 -45 -115.5s-13 -99.333 -13 -160v-569c0 -66.667 -6 -126.167 -18 -178.5
s-29.667 -98.666 -53 -138.999s-52 -75 -86 -104s-73 -53.833 -117 -74.5c44 -19.333 83 -43.5 117 -72.5s62.667 -63.667 86 -104s41 -86.5 53 -138.5s18 -111 18 -177v-577c0 -60.667 4.33301 -114 13 -160s23.667 -84.5 45 -115.5s49.833 -54.333 85.5 -70
s80.834 -23.5 135.501 -23.5h151v-307h-246z" />
    <glyph glyph-name="bar" unicode="|" horiz-adv-x="1458" 
d="M508 -934v4039h442v-4039h-442z" />
    <glyph glyph-name="braceright" unicode="}" horiz-adv-x="1860" 
d="M279 -381v307.001h151c54 0 99 7.83301 135 23.5s64.667 39 86 70s36.333 69.5 45 115.5s13 99.333 13 160v577c0 66 5.83301 125 17.5 177s28.834 98.167 51.501 138.5s50.834 75 84.501 104s72.5 53.167 116.5 72.5c-44 20.667 -82.833 45.5 -116.5 74.5
s-61.834 63.667 -84.501 104s-39.834 86.666 -51.501 138.999s-17.5 111.833 -17.5 178.5v569c0 60.667 -4.33301 114 -13 160s-23.667 84.5 -45 115.5s-50 54.333 -86 70s-81 23.5 -135 23.5h-151v307h245c110.667 0 208 -9.5 292 -28.5s154.167 -51.167 210.5 -96.5
s98.666 -105.5 126.999 -180.5s42.5 -168.5 42.5 -280.5v-659c0 -60.667 6 -112.5 18 -155.5s30.667 -78.167 56 -105.5s57.666 -47.333 96.999 -60s86 -19 140 -19h107v-312h-107c-54 0 -100.667 -6.33301 -140 -19s-71.666 -32.667 -96.999 -60s-44 -62.5 -56 -105.5
s-18 -94.833 -18 -155.5v-663c0 -112 -14.167 -205.5 -42.5 -280.5s-70.666 -135.167 -126.999 -180.5s-126.5 -77.5 -210.5 -96.5s-181.333 -28.5 -292 -28.5h-245z" />
    <glyph glyph-name="asciitilde" unicode="~" horiz-adv-x="2171" 
d="M1999 1565c0 -105.333 -15.3369 -200.498 -46.0039 -285.498s-72 -157.333 -124 -217s-112.833 -105.5 -182.5 -137.5s-143.5 -48 -221.5 -48c-51.333 0 -98.5 4.66699 -141.5 14s-83.167 21 -120.5 35s-72.5 29 -105.5 45l-96.5 45
c-31.333 14 -62.666 25.667 -93.999 35s-63.666 14 -96.999 14c-30 0 -57 -4.33301 -81 -13s-44.833 -20.834 -62.5 -36.501s-31.5 -34.334 -41.5 -56.001s-15.333 -45.167 -16 -70.5h-397c0 70 6.83301 135.667 20.5 197s32.667 117.5 57 168.5s53.833 96.5 88.5 136.5
s72.834 73.833 114.501 101.5s86.5 48.667 134.5 63s98 21.5 150 21.5c51.333 0 98.666 -4.66699 141.999 -14s84 -21 122 -35s74 -29 108 -45l99 -45c32 -14 63.833 -25.667 95.5 -35s64.167 -14 97.5 -14c30 0 57.333 4 82 12s45.834 19.5 63.501 34.5
s31.334 33.333 41.001 55s14.5 46.5 14.5 74.5h397z" />
    <glyph glyph-name="uni00A0" unicode="&#xa0;" horiz-adv-x="1049" 
 />
    <glyph glyph-name="exclamdown" unicode="&#xa1;" horiz-adv-x="1446" 
d="M418 -864l-0.00195312 770.001c0 48 1.5 99.333 4.5 154s7 110.5 12 167.5s10.833 113.833 17.5 170.5l20 162.5c6.66699 51.667 13.167 99.667 19.5 144l16.5 114.5l57 389h316l61 -385c5.33301 -32.667 11.166 -71.334 17.499 -116.001s12.833 -93 19.5 -145
s12.834 -106.5 18.501 -163.5s10.834 -114 15.501 -171s8.33398 -112.833 11.001 -167.5s4 -106 4 -154v-770h-610zM400.998 1495v606h643v-606h-643z" />
    <glyph glyph-name="cent" unicode="&#xa2;" horiz-adv-x="2716" 
d="M1233 -131l-0.00195312 463.004c-158.667 19.333 -296.834 59.666 -414.501 120.999s-215.167 141.333 -292.5 240s-135.166 215 -173.499 349s-57.5 283.667 -57.5 449c0 151.333 19.333 291.333 58 420s96.834 242.167 174.501 340.501
c77.667 98.333 175.167 179.666 292.5 243.999s255 107.833 413 130.5v471h450v-459c60.667 -4 118.5 -10.167 173.5 -18.5s107.333 -18 157 -29s96.167 -23.667 139.5 -38s83.333 -29.5 120 -45.5v-459c-46 18.667 -95 35.5 -147 50.5s-108.167 27.833 -168.5 38.5
s-125 19 -194 25s-143.5 9 -223.5 9c-103.333 0 -197 -13.833 -281 -41.5s-155.5 -69.667 -214.5 -126s-104.5 -127.166 -136.5 -212.499s-48 -185.333 -48 -300c0 -82 7.33301 -156.167 22 -222.5s36 -125.166 64 -176.499s62.333 -95.833 103 -133.5s87 -68.5 139 -92.5
s109.167 -41.833 171.5 -53.5s129.5 -17.5 201.5 -17.5c82.667 0 157.334 2.33301 224.001 7s129 11.667 187 21s113.833 21.166 167.5 35.499s109.167 31.166 166.5 50.499v-458c-45.333 -16.667 -90.666 -31.834 -136 -45.501c-45.333 -13.667 -93 -25.834 -143 -36.501
s-103.167 -19.834 -159.5 -27.501s-117.833 -13.5 -184.5 -17.5v-455h-450z" />
    <glyph glyph-name="sterling" unicode="&#xa3;" horiz-adv-x="2716" 
d="M319 0l-0.000976562 418h74c60.667 0 113.334 10.833 158.001 32.5s81.667 51.667 111 90s51.333 83.833 66 136.5s22 109.667 22 171v409h-357v426h357v500c0 88.667 9.5 171.334 28.5 248c19 76.667 46.833 146.334 83.5 209c36.667 62.667 81.667 118.334 135 167
c53.333 48.667 114.166 89.5 182.499 122.5s143.666 58.167 225.999 75.5s170.833 26 265.5 26c54 0 106.833 -2.83301 158.5 -8.5s100 -12.834 145 -21.5c45 -8.66699 86 -18.334 123 -29c37 -10.667 68.167 -21 93.5 -31v-442c-20.667 6.66699 -46.334 13.834 -77 21.5
c-30.667 7.66699 -64.167 14.834 -100.5 21.501s-74.666 12 -114.999 16s-80.5 6 -120.5 6c-74 0 -139 -9.33301 -195 -28s-103 -46 -141 -82s-66.667 -80.5 -86 -133.5s-29 -113.833 -29 -182.5v-455h807v-426h-807v-434c0 -38.667 -3 -76 -9 -112
s-15.167 -69.333 -27.5 -100s-27.666 -58.334 -45.999 -83.001s-39.833 -45 -64.5 -61h1278v-467h-2139z" />
    <glyph glyph-name="currency" unicode="&#xa4;" horiz-adv-x="2716" 
d="M1835 700c-70 -38.667 -145.167 -68.667 -225.5 -90s-164.833 -32 -253.5 -32s-173.334 10.667 -254.001 32s-157.334 51.333 -230.001 90l-262 -282l-336 336l279 258c-41.333 70 -72.833 145.5 -94.5 226.5s-32.5 167.833 -32.5 260.5s10.833 179.334 32.5 260.001
s53.167 155 94.5 223l-279 263l336 335l262 -286c72.667 41.333 149.334 72.833 230.001 94.5s165.334 32.5 254.001 32.5s173.167 -10.833 253.5 -32.5s155.5 -53.167 225.5 -94.5l266 286l336 -335l-283 -263c41.333 -68 73.666 -142.333 97 -223
c23.333 -80.667 35 -167.334 35 -260.001s-11.667 -179.5 -35 -260.5s-55.666 -156.5 -97 -226.5l283 -258l-336 -336zM1356 1016c67.333 0 129.5 12.5 186.5 37.5s106.333 59.167 148 102.5s74.167 94.5 97.5 153.5s35 122.167 35 189.5s-11.667 130.333 -35 189
s-55.833 109.834 -97.5 153.501s-91 78 -148 103s-119.167 37.5 -186.5 37.5c-68 0 -130.5 -12.5 -187.5 -37.5s-106.167 -59.333 -147.5 -103s-73.666 -94.834 -96.999 -153.501s-35 -121.667 -35 -189s11.667 -130.5 35 -189.5s55.666 -110.167 96.999 -153.5
s90.5 -77.5 147.5 -102.5s119.5 -37.5 187.5 -37.5z" />
    <glyph glyph-name="yen" unicode="&#xa5;" horiz-adv-x="2716" 
d="M1647 578l-0.00195312 -578h-578v578h-836v393h836v151l-115 209h-721v393h508l-675 1242h667l438 -934l103.5 -228c31.667 -71.333 58.834 -140.333 81.501 -207c22.667 66.667 49.834 135.667 81.501 207s67.167 147.333 106.5 228l438 934h668l-676 -1242h496v-393
h-713l-110 -209v-151h823v-393h-823z" />
    <glyph glyph-name="brokenbar" unicode="&#xa6;" horiz-adv-x="1458" 
d="M508 -381v1274h442v-1274h-442zM508 1831v1274h442v-1274h-442z" />
    <glyph glyph-name="section" unicode="&#xa7;" horiz-adv-x="2716" 
d="M1516 2568c-76 0 -140.668 -5.67285 -194.001 -17.0059s-97 -27.166 -131 -47.5c-34 -20.333 -58.667 -44.833 -74 -73.5s-23 -60.334 -23 -95c0 -32.667 7.83301 -61.667 23.5 -87s37.5 -47.833 65.5 -67.5s61.5 -37.167 100.5 -52.5s82.167 -29.666 129.5 -42.999
l471 -131c88 -26 169.333 -56.833 244 -92.5s139 -77.834 193 -126.501s96.333 -104.834 127 -168.501s46 -136.5 46 -218.5c0 -62.667 -11 -122.834 -33 -180.501s-52.167 -111.334 -90.5 -161.001s-83.5 -94 -135.5 -133s-107.667 -70.833 -167 -95.5
c50 -51.333 89.833 -108.5 119.5 -171.5s44.5 -132.833 44.5 -209.5c0 -80 -11.833 -153.167 -35.5 -219.5s-57.167 -126 -100.5 -179s-95.666 -99.333 -156.999 -139s-129.833 -72.667 -205.5 -99s-157.5 -46.166 -245.5 -59.499s-180 -20 -276 -20
c-78.667 0 -158.167 3.83301 -238.5 11.5s-156.833 18.167 -229.5 31.5s-139.334 28.833 -200.001 46.5s-111 36.834 -151 57.501v451c51.333 -18.667 106.5 -36.167 165.5 -52.5s121 -30.666 186 -42.999s132.5 -22.166 202.5 -29.499s142 -11 216 -11
c82 0 152.167 5.66699 210.5 17s106.333 27.333 144 48s65.167 45.334 82.5 74.001s26 60.334 26 95.001c0 32.667 -8.66699 61.334 -26 86.001s-41 46.667 -71 66s-65.5 36.5 -106.5 51.5s-85.167 29.167 -132.5 42.5l-471 135c-88 25.333 -168.5 55.833 -241.5 91.5
s-135.5 78 -187.5 127s-92.5 105.333 -121.5 169s-43.5 136.5 -43.5 218.5c0 61.333 11 120.833 33 178.5s52.333 111.334 91 161.001s83.834 93.834 135.501 132.501s107.167 69.667 166.5 93c-49.333 52 -89 110.167 -119 174.5s-45 134.5 -45 210.5
c0 80 11.333 153.167 34 219.5s55 126 97 179s92.5 99.5 151.5 139.5s124.667 73.167 197 99.5s150.666 46.166 234.999 59.5c84.333 13.333 172.5 20 264.5 20c72.667 0 147.5 -3.33301 224.5 -10s150.833 -16.167 221.5 -28.5s135 -27 193 -44s104.667 -35.833 140 -56.5
v-451c-103.333 37.333 -216.666 67.833 -339.999 91.5s-253 35.5 -389 35.5zM1581 1052.99c39.333 -12.667 77.502 -26.3369 114.502 -41.0039s73.833 -31 110.5 -49c20.667 16 39.667 34.167 57 54.5s32.5 42.166 45.5 65.499s23.167 48.333 30.5 75s11 54.334 11 83.001
c0 36.667 -5.5 68.334 -16.5 95.001s-27.333 49.667 -49 69s-48.334 36.166 -80.001 50.499s-67.834 27.5 -108.501 39.5l-553 164c-39.333 10 -78.833 22.833 -118.5 38.5s-78.167 32.834 -115.5 51.501c-41.333 -33.333 -74.833 -74.166 -100.5 -122.499
s-38.5 -100.5 -38.5 -156.5c0 -36.667 5.66699 -68.167 17 -94.5s28 -49.166 50 -68.499s49 -36.166 81 -50.499s68.667 -27.5 110 -39.5z" />
    <glyph glyph-name="dieresis" unicode="&#xa8;" 
d="M258 2482v500h537v-500h-537zM1073 2482v500h537v-500h-537z" />
    <glyph glyph-name="copyright" unicode="&#xa9;" horiz-adv-x="3564" 
d="M2363 733c-40 -16 -78.8311 -30.668 -116.498 -44.001s-78.334 -24.5 -122 -33.5c-43.667 -9 -92.334 -16 -146.001 -21s-116.5 -7.5 -188.5 -7.5c-90.667 0 -173 9.83301 -247 29.5s-140 47.834 -198 84.501s-108.167 81 -150.5 133s-77.333 110.333 -105 175
s-48.167 134.834 -61.5 210.501s-20 155.5 -20 239.5c0 81.333 7.83301 158.666 23.5 231.999s38.834 141.166 69.501 203.499s69 118.833 115 169.499c46 50.667 99.333 93.667 160 129s128.667 62.5 204 81.5s157.666 28.5 246.999 28.5c58 0 111.167 -2.5 159.5 -7.5
s93.333 -12.333 134.999 -22c41.667 -9.66699 80.5 -21.334 116.5 -35c36 -13.667 71 -29.167 105 -46.5v-352c-32.667 14 -66.167 26.667 -100.5 38s-71 20.833 -110 28.5s-81.5 13.5 -127.5 17.5s-97.333 6 -154 6c-60 0 -113.833 -11 -161.5 -33s-88 -53.5 -121 -94.5
s-58.333 -90.5 -76 -148.5s-26.5 -123 -26.5 -195c0 -91.333 7.33301 -168.666 22 -231.999s37.834 -114.833 69.501 -154.5s72.667 -68.5 123 -86.5s111.5 -27 183.5 -27c57.333 0 108.166 1.83301 152.499 5.5s85.5 9.33398 123.5 17.001s74.667 17.5 110 29.5
s73 26.333 113 43v-361zM1782 3031c159.333 0 307.834 -17.666 445.5 -52.999c137.667 -35.333 263.167 -85.666 376.5 -151c113.333 -65.333 213.833 -144.333 301.5 -237s161.5 -196.334 221.5 -311c60 -114.667 105.5 -239 136.5 -373s46.5 -275 46.5 -423
s-15.5 -289.167 -46.5 -423.5s-76.5 -258.833 -136.5 -373.5s-133.833 -218.334 -221.5 -311.001s-188.167 -171.667 -301.5 -237s-238.833 -115.666 -376.5 -150.999s-286.167 -53 -445.5 -53c-160 0 -308.833 17.667 -446.5 53s-263 85.666 -376 150.999
s-213.333 144.333 -301 237s-161.5 196.334 -221.5 311.001s-105.5 239.167 -136.5 373.5s-46.5 275.5 -46.5 423.5s15.5 289 46.5 423s76.5 258.333 136.5 373s133.833 218.334 221.5 311c87.667 92.667 188 171.667 301 237s238.333 115.666 376 150.999
s286.5 53 446.5 53zM1782 2703c-126.667 0 -242.167 -13.333 -346.5 -40s-198.166 -65 -281.499 -115s-156 -111 -218 -183s-113.5 -153.167 -154.5 -243.5s-71.667 -189.166 -92 -296.499s-30.5 -221.333 -30.5 -342s10.167 -234.667 30.5 -342s51 -206.166 92 -296.499
s92.5 -171.5 154.5 -243.5s134.667 -133.167 218 -183.5s177.166 -88.833 281.499 -115.5s219.833 -40 346.5 -40c126 0 241.333 13.333 346 40s198.5 65.167 281.5 115.5s155.5 111.5 217.5 183.5s113.5 153.167 154.5 243.5s71.667 189.166 92 296.499
s30.5 221.333 30.5 342s-10.167 234.667 -30.5 342s-51 206.166 -92 296.499s-92.5 171.5 -154.5 243.5s-134.5 133 -217.5 183s-176.833 88.333 -281.5 115s-220 40 -346 40z" />
    <glyph glyph-name="ordfeminine" unicode="&#xaa;" horiz-adv-x="2068" 
d="M1348 1212l-29.0029 147.999c-34.667 -28.667 -71.667 -54.667 -111 -78s-81.166 -43.166 -125.499 -59.499s-91.833 -29 -142.5 -38s-104.667 -13.5 -162 -13.5c-86 0 -164.167 12.5 -234.5 37.5s-130.666 60.333 -180.999 106s-89.166 100.5 -116.499 164.5
s-41 135 -41 213c0 68 9.5 129.167 28.5 183.5s46.833 102.333 83.5 144s82.167 77.167 136.5 106.5s116.833 53.5 187.5 72.5s149.167 32.833 235.5 41.5s180.5 13 282.5 13c20.667 0 44.167 -0.666992 70.5 -2s52.166 -2 77.499 -2v16c0 51.333 -7.16699 96.333 -21.5 135
s-37.166 71 -68.499 97s-71.666 45.667 -120.999 59s-108.666 20 -177.999 20c-56.667 0 -111.167 -2.16699 -163.5 -6.5s-102.5 -10.833 -150.5 -19.5s-94 -19.334 -138 -32c-44 -12.667 -86 -27.334 -126 -44v377c38.667 20.667 82.334 39.5 131.001 56.5
s100.667 31.667 156 44s113.666 21.833 174.999 28.5s124.333 10 189 10c126 0 237.667 -12.667 335 -38s179.166 -65.666 245.499 -121c66.333 -55.333 116.666 -127.166 150.999 -215.5c34.333 -88.333 51.5 -195.5 51.5 -321.5v-1082h-426zM179.997 339.999v451h1635
v-451h-1635zM1307 1942h-50c-97.333 0 -182.333 -3.66699 -255 -11s-133.167 -19.333 -181.5 -36s-84.5 -38.5 -108.5 -65.5s-36 -60.5 -36 -100.5c0 -30 5.66699 -57 17 -81s28.333 -44.667 51 -62s51.167 -30.666 85.5 -39.999s74.5 -14 120.5 -14
c34.667 0 68.167 2.5 100.5 7.5s63.333 12 93 21s58.167 19.667 85.5 32s53.333 26.166 78 41.499v308z" />
    <glyph glyph-name="guillemotleft" unicode="&#xab;" horiz-adv-x="2671" 
d="M950 467l-696 762l696 762h484l-562 -762l562 -762h-484zM1933 467l-696 762l696 762h484l-562 -762l562 -762h-484z" />
    <glyph glyph-name="logicalnot" unicode="&#xac;" horiz-adv-x="2458" 
d="M1819 401v574h-1696v491h2212v-1065h-516z" />
    <glyph glyph-name="uni00AD" unicode="&#xad;" horiz-adv-x="1511" 
d="M201 946v553h1110v-553h-1110z" />
    <glyph glyph-name="registered" unicode="&#xae;" horiz-adv-x="2761" 
d="M2527 2015c0 -113.333 -13.665 -220.166 -40.998 -320.499s-66 -192.666 -116 -276.999s-110 -159.833 -180 -226.5s-147.5 -123.334 -232.5 -170.001s-176.167 -82.334 -273.5 -107.001s-198.666 -37 -303.999 -37c-104.667 0 -205.834 12.333 -303.501 37
s-189 60.334 -274 107.001s-162.5 103.334 -232.5 170.001s-130 142.167 -180 226.5s-88.667 176.666 -116 276.999s-41 207.166 -41 320.499s13.667 220.166 41 320.5c27.333 100.333 66 192.666 116 277c50 84.333 110 160 180 227s147.5 123.833 232.5 170.5
s176.167 82.334 273.5 107c97.333 24.667 198.666 37 303.999 37s206.666 -12.333 303.999 -37s188.5 -60.334 273.5 -107c85 -46.667 162.5 -103.5 232.5 -170.5s130 -142.667 180 -227s88.667 -176.666 116 -277c27.333 -100.333 41 -207.166 41 -320.5zM1380 1126
c84 0 163.667 10.333 239 31s144.833 49.834 208.5 87.501s121 83.334 172 137.001s94.333 113.334 130 179.001s63.167 136.834 82.5 213.501s29 157 29 241s-9.66699 164.333 -29 241s-46.833 147.834 -82.5 213.5c-35.667 65.667 -79 125.334 -130 179
c-51 53.667 -108.333 99.334 -172 137c-63.667 37.667 -133.167 66.834 -208.5 87.5c-75.333 20.667 -155 31 -239 31s-163.5 -10.333 -238.5 -31s-144.333 -49.834 -208 -87.5c-63.667 -37.667 -121 -83.334 -172 -137c-51 -53.667 -94.333 -113.334 -130 -179
c-35.667 -65.667 -63.167 -136.834 -82.5 -213.5c-19.333 -76.667 -29 -157 -29 -241s9.66699 -164.333 29 -241s46.833 -147.834 82.5 -213.501s79 -125.334 130 -179.001s108.333 -99.334 172 -137.001s133 -66.834 208 -87.501s154.5 -31 238.5 -31zM1651 1438
l-238.002 371.999c-10 16.667 -19.667 29.834 -29 39.501s-19 17 -29 22s-20.833 8.33301 -32.5 10s-25.167 2.5 -40.5 2.5h-86v-446h-283v1183h484c67.333 0 129.333 -7 186 -21s105.5 -35.5 146.5 -64.5s73 -65.5 96 -109.5s34.5 -96.333 34.5 -157
c0 -45.333 -5.5 -85.333 -16.5 -120s-27 -65 -48 -91s-46.333 -48.167 -76 -66.5s-63.5 -33.5 -101.5 -45.5c18.667 -10.667 33.334 -23 44.001 -37s19.334 -25 26.001 -33l282 -438h-319zM1352 2101c34.667 0 65.666 3.16602 92.999 9.49902s50.5 16.333 69.5 30
s33.5 31 43.5 52s15 46.5 15 76.5c0 44.667 -17.167 78.334 -51.5 101.001s-88.166 34 -161.499 34h-164v-303h156z" />
    <glyph glyph-name="macron" unicode="&#xaf;" 
d="M307 2503v426h1254v-426h-1254z" />
    <glyph glyph-name="degree" unicode="&#xb0;" horiz-adv-x="2064" 
d="M1827 2232c0 -72 -9.16406 -140.5 -27.4971 -205.5s-44.5 -125.5 -78.5 -181.5s-74.833 -106.833 -122.5 -152.5s-101 -84.667 -160 -117s-122.667 -57.166 -191 -74.499s-140.166 -26 -215.499 -26c-74.667 0 -146.334 8.66699 -215.001 26
s-132.334 42.166 -191.001 74.499s-111.834 71.333 -159.501 117s-88.5 96.5 -122.5 152.5s-60.167 116.5 -78.5 181.5s-27.5 133.5 -27.5 205.5c0 71.333 9.16699 139.5 27.5 204.5s44.5 125.5 78.5 181.5s74.833 106.833 122.5 152.5s100.834 84.834 159.501 117.5
c58.667 32.667 122.167 57.834 190.5 75.5c68.333 17.667 140.166 26.5 215.499 26.5s147.166 -8.83301 215.499 -26.5s132 -42.834 191 -75.5c59 -32.667 112.333 -71.834 160 -117.5c47.667 -45.667 88.5 -96.5 122.5 -152.5s60.167 -116.667 78.5 -182
s27.5 -133.333 27.5 -204zM1032 1868c57.333 0 108.5 9.83301 153.5 29.5s82.833 46 113.5 79s54 71.5 70 115.5s24 90.667 24 140c0 47.333 -8 93 -24 137s-39.333 82.833 -70 116.5s-68.5 60.667 -113.5 81s-96.167 30.5 -153.5 30.5s-108.333 -10.167 -153 -30.5
s-82.334 -47.333 -113.001 -81s-54 -72.5 -70 -116.5s-24 -89.667 -24 -137c0 -49.333 8 -96 24 -140s39.333 -82.5 70 -115.5s68.334 -59.333 113.001 -79s95.667 -29.5 153 -29.5z" />
    <glyph glyph-name="plusminus" unicode="&#xb1;" horiz-adv-x="2458" 
d="M1487 1389v-627h-516v627h-807v491h807v610h516v-610h807v-491h-807zM164 0v492h2130v-492h-2130z" />
    <glyph glyph-name="twosuperior" unicode="&#xb2;" horiz-adv-x="1794" 
d="M197 1503l0.00195312 303l290 189c101.333 65.333 188 124.666 260 178c72 53.333 131 103.333 177 150s79.667 91.834 101 135.5c21.333 43.667 32 88.5 32 134.5c0 28.667 -6.16699 55.167 -18.5 79.5s-31.5 45.5 -57.5 63.5s-59.5 32 -100.5 42s-90.167 15 -147.5 15
c-50 0 -98.333 -3.16699 -145 -9.5s-91.334 -14.833 -134.001 -25.5s-83 -23.167 -121 -37.5s-74 -29.5 -108 -45.5v311c24.667 14 55.667 29.333 93 46s80 32.167 128 46.5s100.5 26.333 157.5 36s117.833 14.5 182.5 14.5c87.333 0 165.666 -6.83301 234.999 -20.5
s130.333 -32.5 183 -56.5s97.667 -52.5 135 -85.5s67.833 -68.667 91.5 -107s41 -78.5 52 -120.5s16.5 -84 16.5 -126c0 -52 -8 -102.667 -24 -152s-38.333 -97.333 -67 -144s-62.667 -91.834 -102 -135.5c-39.333 -43.667 -82.5 -85.5 -129.5 -125.5
s-97 -78.167 -150 -114.5s-107.167 -70.5 -162.5 -102.5v0h725v-336h-1392z" />
    <glyph glyph-name="threesuperior" unicode="&#xb3;" horiz-adv-x="1794" 
d="M270 1900c34 -14 72.5068 -26.665 115.507 -37.998s87.833 -20.833 134.5 -28.5s94.167 -13.5 142.5 -17.5s95.166 -6 140.499 -6c55.333 0 104.333 4 147 12s78.667 19.5 108 34.5s51.5 33 66.5 54s22.5 44.833 22.5 71.5c0 28.667 -7.33301 55.5 -22 80.5
s-37.334 46.667 -68.001 65s-69.834 32.833 -117.501 43.5s-104.167 16 -169.5 16h-225v295h225c42.667 0 85.5 2.66699 128.5 8s81.667 14 116 26s62.166 27.667 83.499 47s32 43 32 71c0 36.667 -9.33301 65.834 -28 87.5c-18.667 21.667 -43 38.167 -73 49.5
s-64.167 18.666 -102.5 22c-38.333 3.33301 -76.833 5 -115.5 5c-48 0 -95.167 -2.5 -141.5 -7.5s-90.833 -11.667 -133.5 -20s-83.334 -18.333 -122.001 -30s-74.334 -24.167 -107.001 -37.5v312c32.667 15.333 68.667 29.833 108 43.5s81.833 25.834 127.5 36.5
c45.667 10.667 94.334 19 146.001 25s106.167 9 163.5 9c116 0 218.667 -11.5 308 -34.5s164.666 -54.167 225.999 -93.5s107.833 -85.333 139.5 -138s47.5 -108.667 47.5 -168c0 -49.333 -6.66699 -93.333 -20 -132s-32.166 -73 -56.499 -103s-53.666 -56 -87.999 -78
s-72.5 -40.667 -114.5 -56c47.333 -16 89.166 -35.167 125.499 -57.5s66.666 -48.5 90.999 -78.5s42.833 -64.833 55.5 -104.5s19 -84.834 19 -135.501c0 -74 -17.333 -140 -52 -198s-84 -107.333 -148 -148s-141.333 -71.667 -232 -93s-192.334 -32 -305.001 -32
c-64.667 0 -125.834 2.5 -183.501 7.5s-111.167 12 -160.5 21s-93.666 19.667 -132.999 32s-73 26.166 -101 41.499v319z" />
    <glyph glyph-name="acute" unicode="&#xb4;" 
d="M418 2408l385 648h647l-606 -648h-426z" />
    <glyph glyph-name="mu" unicode="&#xb5;" horiz-adv-x="2621" 
d="M1094 -49c-82.667 0 -160.672 12.3301 -234.005 36.9971c14.667 -61.333 24.5 -128.166 29.5 -200.499s7.5 -155.833 7.5 -250.5v-471h-561v3035h561v-1294c0 -129.333 32.333 -223.833 97 -283.5s160.667 -89.5 288 -89.5c76.667 0 148.334 7.66699 215.001 23
s128.667 40.333 186 75v1569h562v-1511c0 -53.333 9.83301 -90.666 29.5 -111.999s52.167 -32 97.5 -32c30.667 0 58.667 1.16699 84 3.5s50.333 5.5 75 9.5v-447c-47.333 -16 -99.833 -27.5 -157.5 -34.5s-122.5 -10.5 -194.5 -10.5
c-109.333 0 -199.666 19.833 -270.999 59.5s-125.666 97.834 -162.999 174.501c-43.333 -40 -88.5 -75.5 -135.5 -106.5s-97.167 -57.167 -150.5 -78.5s-110.166 -37.5 -170.499 -48.5s-125.166 -16.5 -194.499 -16.5z" />
    <glyph glyph-name="paragraph" unicode="&#xb6;" horiz-adv-x="3170" 
d="M2208 -934v3502h-365v-3502h-454v2204h-5c-132 0 -250.5 10 -355.5 30s-197.5 48.167 -277.5 84.5s-148.333 80 -205 131s-103 108 -139 171s-62.333 130.833 -79 203.5s-25 148.667 -25 228s8.16699 155.333 24.5 228s42.5 140.334 78.5 203
c36 62.667 82.333 119.667 139 171s125.167 95.166 205.5 131.5c80.333 36.333 173.333 64.5 279 84.5s225.5 30 359.5 30h1273v-3900h-454z" />
    <glyph glyph-name="periodcentered" unicode="&#xb7;" horiz-adv-x="1536" 
d="M447 922v606h643v-606h-643z" />
    <glyph glyph-name="cedilla" unicode="&#xb8;" 
d="M586 -586c26.667 -6 54 -10.833 82 -14.5s60.667 -5.5 98 -5.5c24.667 0 48.667 2.33301 72 7s44.333 12.167 63 22.5s33.667 23.5 45 39.5s17 35.333 17 58c0 24.667 -8.5 46.834 -25.5 66.501s-39.333 36.834 -67 51.501s-59.167 26.5 -94.5 35.5
s-71.333 15.167 -108 18.5l204 348h291l-114 -238c40.667 -4 79.5 -14.5 116.5 -31.5s69.667 -39.167 98 -66.5s50.833 -58.833 67.5 -94.5s25 -73.834 25 -114.501c0 -62.667 -14 -117.334 -42 -164.001s-66.167 -85.5 -114.5 -116.5s-105.166 -54.167 -170.499 -69.5
s-135.333 -23 -210 -23c-45.333 0 -87.333 2.83301 -126 8.5s-74.334 12.5 -107.001 20.5v262z" />
    <glyph glyph-name="onesuperior" unicode="&#xb9;" horiz-adv-x="1794" 
d="M283 1503v336h405v889l-405 -90v352l553 115h278v-1266h406v-336h-1237z" />
    <glyph glyph-name="ordmasculine" unicode="&#xba;" horiz-adv-x="2228" 
d="M1114 1171c-106.667 0 -202.833 10.002 -288.5 30.002s-162 48.667 -229 86s-124.667 82.833 -173 136.5s-88 114.167 -119 181.5s-54 141 -69 221s-22.5 165 -22.5 255c0 134.667 18 257.834 54 369.5c36 111.667 91 207.5 165 287.5s167.5 142 280.5 186
s246.833 66 401.5 66c106 0 201.833 -10 287.5 -30s161.834 -48.5 228.501 -85.5s124.167 -82.333 172.5 -136s88.333 -114 120 -181s55 -140.167 70 -219.5s22.5 -163.666 22.5 -252.999c0 -90.667 -8 -176.334 -24 -257.001s-40.167 -154.834 -72.5 -222.501
s-73 -128.334 -122 -182.001s-106.833 -99.167 -173.5 -136.5s-142.334 -66 -227.001 -86s-178.667 -30 -282 -30zM1114 1565c78 0 143.5 13.5 196.5 40.5s96 63.833 129 110.5s56.667 101.667 71 165s21.5 131.333 21.5 204s-7.16699 140.5 -21.5 203.5
s-38 117.667 -71 164s-76 82.666 -129 108.999s-118.5 39.5 -196.5 39.5s-143.5 -13.5 -196.5 -40.5s-96 -63.833 -129 -110.5s-56.667 -101.667 -71 -165s-21.5 -131.333 -21.5 -204s7.16699 -140.5 21.5 -203.5s38 -117.667 71 -164s76 -82.666 129 -108.999
s118.5 -39.5 196.5 -39.5zM188.001 340.002v451h1852v-451h-1852z" />
    <glyph glyph-name="guillemotright" unicode="&#xbb;" horiz-adv-x="2671" 
d="M254 467l561 762l-561 762h483l697 -762l-697 -762h-483zM1237 467l561 762l-561 762h483l697 -762l-697 -762h-483z" />
    <glyph glyph-name="onequarter" unicode="&#xbc;" horiz-adv-x="4108" 
d="M971 0l1724 2966h434l-1720 -2966h-438zM283 1364v336h405v889l-405 -90v352l553 115h278v-1266h406v-336h-1237zM3252 0v250h-832v246l869 1106h389v-1069h295v-283h-295v-250h-426zM3252 852c0 45.333 1.16699 87.3311 3.5 125.998s6.5 74.667 12.5 108
c-22.667 -43.333 -49.5 -89.166 -80.5 -137.499s-68.167 -98.166 -111.5 -149.499l-213 -266h389v319z" />
    <glyph glyph-name="onehalf" unicode="&#xbd;" horiz-adv-x="4108" 
d="M283 1364v336h405v889l-405 -90v352l553 115h278v-1266h406v-336h-1237zM971 0l1724 2966h434l-1720 -2966h-438zM2511 0v303.001l290 189c101.333 65.333 188 124.666 260 177.999s131 103.333 177 150s79.667 91.834 101 135.501s32 88.5 32 134.5
c0 28.667 -6.16699 55.167 -18.5 79.5s-31.5 45.5 -57.5 63.5s-59.5 32 -100.5 42s-90.167 15 -147.5 15c-50 0 -98.333 -3.16699 -145 -9.5s-91.334 -14.833 -134 -25.5c-42.667 -10.667 -83 -23.167 -121 -37.5s-74 -29.5 -108 -45.5v311c24.667 14 55.667 29.333 93 46
s80 32.167 128 46.5s100.5 26.333 157.5 36s117.833 14.5 182.5 14.5c87.333 0 165.666 -6.83301 235 -20.5c69.333 -13.667 130.333 -32.5 183 -56.5s97.667 -52.5 135 -85.5s67.833 -68.667 91.5 -107s41 -78.5 52 -120.5s16.5 -84 16.5 -126c0 -52 -8 -102.667 -24 -152
s-38.333 -97.333 -67 -144s-62.667 -91.834 -102 -135.501s-82.5 -85.5 -129.5 -125.5s-97 -78.167 -150 -114.5s-107.167 -70.5 -162.5 -102.5v0h725v-336h-1392z" />
    <glyph glyph-name="threequarters" unicode="&#xbe;" horiz-adv-x="4108" 
d="M971 0l1724 2966h434l-1720 -2966h-438zM270 1761c34 -14 72.5068 -26.665 115.507 -37.998s87.833 -20.833 134.5 -28.5s94.167 -13.5 142.5 -17.5s95.166 -6 140.499 -6c55.333 0 104.333 4 147 12s78.667 19.5 108 34.5s51.5 33 66.5 54s22.5 44.833 22.5 71.5
c0 28.667 -7.33301 55.5 -22 80.5s-37.334 46.667 -68.001 65s-69.834 32.833 -117.501 43.5s-104.167 16 -169.5 16h-225v295h225c42.667 0 85.5 2.66699 128.5 8s81.667 14 116 26s62.166 27.667 83.499 47s32 43 32 71c0 36.667 -9.33301 65.834 -28 87.5
c-18.667 21.667 -43 38.167 -73 49.5s-64.167 18.666 -102.5 22c-38.333 3.33301 -76.833 5 -115.5 5c-48 0 -95.167 -2.5 -141.5 -7.5s-90.833 -11.667 -133.5 -20s-83.334 -18.333 -122.001 -30s-74.334 -24.167 -107.001 -37.5v312c32.667 15.333 68.667 29.833 108 43.5
s81.833 25.834 127.5 36.5c45.667 10.667 94.334 19 146.001 25s106.167 9 163.5 9c116 0 218.667 -11.5 308 -34.5s164.666 -54.167 225.999 -93.5s107.833 -85.333 139.5 -138s47.5 -108.667 47.5 -168c0 -49.333 -6.66699 -93.333 -20 -132s-32.166 -73 -56.499 -103
s-53.666 -56 -87.999 -78s-72.5 -40.667 -114.5 -56c47.333 -16 89.166 -35.167 125.499 -57.5s66.666 -48.5 90.999 -78.5s42.833 -64.833 55.5 -104.5s19 -84.834 19 -135.501c0 -74 -17.333 -140 -52 -198s-84 -107.333 -148 -148s-141.333 -71.667 -232 -93
s-192.334 -32 -305.001 -32c-64.667 0 -125.834 2.5 -183.501 7.5s-111.167 12 -160.5 21s-93.666 19.667 -132.999 32s-73 26.166 -101 41.499v319zM3252.01 0.00195312v250h-832v246l869 1106h389v-1069h295v-283h-295v-250h-426zM3252.01 852.002
c0 45.333 1.16699 87.3311 3.5 125.998s6.5 74.667 12.5 108c-22.667 -43.333 -49.5 -89.166 -80.5 -137.499s-68.167 -98.166 -111.5 -149.499l-213 -266h389v319z" />
    <glyph glyph-name="questiondown" unicode="&#xbf;" horiz-adv-x="2195" 
d="M2015 -733c-43.333 -28 -93.4951 -53.667 -150.495 -77s-119 -43.666 -186 -60.999s-137.5 -30.833 -211.5 -40.5s-149.333 -14.5 -226 -14.5c-100.667 0 -196.167 8.33301 -286.5 25s-173.5 40.834 -249.5 72.501s-144.333 70.5 -205 116.5
s-112.334 98.167 -155.001 156.5s-75.334 122.333 -98.001 192s-34 144.5 -34 224.5s9.66699 154.833 29 224.5s46 135.334 80 197.001s74 119.5 120 173.5s95.833 105.167 149.5 153.5s110 94.166 169 137.499l177.5 125l94 62l41 278h479l62 -446l-307 -205
c-78 -52 -147.667 -102.333 -209 -151s-113.333 -98.334 -156 -149.001s-75.167 -103.834 -97.5 -159.501s-33.5 -116.834 -33.5 -183.501c0 -58 11.5 -109.167 34.5 -153.5s55.5 -81.5 97.5 -111.5s92.5 -52.667 151.5 -68s124.167 -23 195.5 -23
c63.333 0 128.166 4.83301 194.499 14.5s131.166 22.667 194.499 39s123.666 35.333 180.999 57s109 44.834 155 69.501v-475zM979.005 1499v606h643v-606h-643z" />
    <glyph glyph-name="Agrave" unicode="&#xc0;" horiz-adv-x="2822" 
d="M2171 0l-213 639h-1127l-208 -639h-590l1069 2966h618l1069 -2966h-618zM1536 1917c-28.667 88.667 -54.8311 177 -78.498 265s-43.834 178.667 -60.501 272c-16.667 -93.333 -36.834 -184 -60.501 -272s-50.167 -176.333 -79.5 -265l-270 -811h815zM1257 3162l-606 648
h647l385 -648h-426z" />
    <glyph glyph-name="Aacute" unicode="&#xc1;" horiz-adv-x="2822" 
d="M2171 0l-213 639h-1127l-208 -639h-590l1069 2966h618l1069 -2966h-618zM1536 1917c-28.667 88.667 -54.8311 177 -78.498 265s-43.834 178.667 -60.501 272c-16.667 -93.333 -36.834 -184 -60.501 -272s-50.167 -176.333 -79.5 -265l-270 -811h815zM1118 3162l385 648
h647l-606 -648h-426z" />
    <glyph glyph-name="Acircumflex" unicode="&#xc2;" horiz-adv-x="2822" 
d="M2171 0l-213 639h-1127l-208 -639h-590l1069 2966h618l1069 -2966h-618zM1536 1917c-28.667 88.667 -54.8311 177 -78.498 265s-43.834 178.667 -60.501 272c-16.667 -93.333 -36.834 -184 -60.501 -272s-50.167 -176.333 -79.5 -265l-270 -811h815zM1684 3162l-283 336
l-279 -336h-409l434 648h512l434 -648h-409z" />
    <glyph glyph-name="Atilde" unicode="&#xc3;" horiz-adv-x="2822" 
d="M2171 0l-213 639h-1127l-208 -639h-590l1069 2966h618l1069 -2966h-618zM1536 1917c-28.667 88.667 -54.8311 177 -78.498 265s-43.834 178.667 -60.501 272c-16.667 -93.333 -36.834 -184 -60.501 -272s-50.167 -176.333 -79.5 -265l-270 -811h815zM2175 3769
c0 -93.333 -12.4971 -176.666 -37.4971 -250c-25 -73.333 -59.667 -135.5 -104 -186.5s-96.833 -90 -157.5 -117s-126.334 -40.5 -197.001 -40.5c-40.667 0 -78.667 4.66699 -114 14s-68.666 21.166 -99.999 35.5c-31.333 14.333 -61 29.833 -89 46.5l-81.5 46.5
c-26.333 14.333 -51.833 26.166 -76.5 35.5c-24.667 9.33301 -49.667 14 -75 14c-28.667 0 -54 -4 -76 -12s-40.5 -19.667 -55.5 -35s-26.667 -34.166 -35 -56.5c-8.33301 -22.333 -12.833 -47.833 -13.5 -76.5h-336c0 93.333 12.167 176.666 36.5 250
c24.333 73.333 58.166 135.5 101.499 186.5s94.666 90 153.999 117s124.333 40.5 195 40.5c40.667 0 79 -4.83301 115 -14.5s70 -21.5 102 -35.5s62.333 -29.5 91 -46.5s56.334 -32.5 83.001 -46.5s52.667 -25.833 78 -35.5s50.666 -14.5 75.999 -14.5
c28.667 0 54.167 3.83301 76.5 11.5s41.166 19.167 56.499 34.5s27 34.166 35 56.5c8 22.333 12 48.5 12 78.5h336z" />
    <glyph glyph-name="Adieresis" unicode="&#xc4;" horiz-adv-x="2822" 
d="M2171 0l-213 639h-1127l-208 -639h-590l1069 2966h618l1069 -2966h-618zM1536 1917c-28.667 88.667 -54.8311 177 -78.498 265s-43.834 178.667 -60.501 272c-16.667 -93.333 -36.834 -184 -60.501 -272s-50.167 -176.333 -79.5 -265l-270 -811h815zM725.003 3236v500
h537v-500h-537zM1540 3236v500h537v-500h-537z" />
    <glyph glyph-name="Aring" unicode="&#xc5;" horiz-adv-x="2822" 
d="M2171 0l-213 639h-1127l-208 -639h-590l1069 2966h618l1069 -2966h-618zM1536 1917c-28.667 88.667 -54.8311 177 -78.498 265s-43.834 178.667 -60.501 272c-16.667 -93.333 -36.834 -184 -60.501 -272s-50.167 -176.333 -79.5 -265l-270 -811h815zM1892 3547
c0 -66.667 -12.5 -128.5 -37.5 -185.5s-59.5 -106.333 -103.5 -148s-96 -74.334 -156 -98c-60 -23.667 -124.667 -35.5 -194 -35.5c-70 0 -135 11.833 -195 35.5s-112 56.334 -156 98c-44 41.667 -78.5 91 -103.5 148s-37.5 118.833 -37.5 185.5s12.5 128.5 37.5 185.5
s59.5 106.333 103.5 148s96 74.334 156 98c60 23.667 125 35.5 195 35.5c69.333 0 134 -11.833 194 -35.5s112 -56.334 156 -98c44 -41.667 78.5 -91 103.5 -148s37.5 -118.833 37.5 -185.5zM1401 3342c30 0 57.333 5.5 82 16.5s45.834 25.833 63.501 44.5
s31.334 40.334 41.001 65c9.66699 24.667 14.5 51 14.5 79c0 26.667 -4.83301 52.167 -14.5 76.5s-23.334 45.666 -41.001 64c-17.667 18.333 -38.834 33 -63.501 44s-52 16.5 -82 16.5s-57.5 -5.5 -82.5 -16.5s-46.5 -25.667 -64.5 -44s-32.167 -39.666 -42.5 -64
c-10.333 -24.333 -15.5 -49.833 -15.5 -76.5c0 -28 5.16699 -54.333 15.5 -79s24.5 -46.334 42.5 -65c18 -18.667 39.5 -33.5 64.5 -44.5s52.5 -16.5 82.5 -16.5z" />
    <glyph glyph-name="AE" unicode="&#xc6;" horiz-adv-x="3932" 
d="M1823 0v639h-951l-249 -639h-590l1163 2966h2499v-476h-1295v-733h1114v-475h-1114v-807h1311v-475h-1888zM1823 2490h-226l-540 -1384h766v1384z" />
    <glyph glyph-name="Ccedilla" unicode="&#xc7;" horiz-adv-x="2544" 
d="M1081 -586c27.333 -6 54.9961 -10.834 82.9961 -14.501s60.667 -5.5 98 -5.5c24.667 0 48.667 2.33301 72 7s44.166 12.167 62.499 22.5s33.166 23.5 44.499 39.5s17 35.333 17 58c0 24.667 -8.5 46.834 -25.5 66.501s-39.167 36.834 -66.5 51.501
s-58.833 26.5 -94.5 35.5s-71.834 15.167 -108.501 18.5l148 250c-123.333 12 -236.166 37.833 -338.499 77.5s-194.166 92 -275.499 157s-152.333 142 -213 231s-111 189 -151 300s-70 232.333 -90 364s-30 272.5 -30 422.5c0 150.667 11.833 293.334 35.5 428.001
s59.5 258.834 107.5 372.5c48 113.667 108 216 180 307s156.167 168.167 252.5 231.5s205.166 112 326.499 146s255 51 401 51c90 0 175.333 -4.16699 256 -12.5s156.5 -20.333 227.5 -36s136.833 -34.667 197.5 -57s116 -47.166 166 -74.5v-479
c-50 24.667 -104.5 46.834 -163.5 66.5c-59 19.667 -122.333 36.334 -190 50c-67.667 13.667 -140 24.167 -217 31.5s-158.5 11 -244.5 11c-83.333 0 -159.166 -10.667 -227.499 -32s-129.666 -52.5 -183.999 -93.5s-101.666 -91.5 -141.999 -151.5
s-73.833 -128.333 -100.5 -205s-46.5 -161.334 -59.5 -254.001s-19.5 -192.667 -19.5 -300c0 -128 6.83301 -243.333 20.5 -346s34.334 -193.5 62.001 -272.5s62.334 -146.667 104.001 -203s90.5 -102.5 146.5 -138.5s119 -62.5 189 -79.5s147.333 -25.5 232 -25.5
c90 0 172.167 3.16699 246.5 9.5s144.166 15.666 209.499 27.999s128.166 28 188.5 47c60.333 19 121.166 41.5 182.5 67.5v-480c-36 -16 -72.167 -31.167 -108.5 -45.5s-73.833 -27.166 -112.5 -38.499s-78.834 -21.666 -120.5 -30.999
c-41.667 -9.33301 -85.667 -17.333 -132 -24s-95.666 -12 -147.999 -16s-108.5 -6.66699 -168.5 -8l-62 -136c40.667 -4 79.667 -14.5 117 -31.5s70 -39.167 98 -66.5s50.333 -58.833 67 -94.5s25 -73.834 25 -114.501c0 -62.667 -13.833 -117.334 -41.5 -164.001
s-65.667 -85.5 -114 -116.5s-105.166 -54.167 -170.499 -69.5s-135.333 -23 -210 -23c-45.333 0 -87.333 2.83301 -126 8.5s-74.667 12.5 -108 20.5v262z" />
    <glyph glyph-name="Egrave" unicode="&#xc8;" horiz-adv-x="2478" 
d="M369 0v2966h1872v-476h-1295v-733h1114v-475h-1114v-807h1311v-475h-1888zM1167 3162l-606 648h647l385 -648h-426z" />
    <glyph glyph-name="Eacute" unicode="&#xc9;" horiz-adv-x="2478" 
d="M369 0v2966h1872v-476h-1295v-733h1114v-475h-1114v-807h1311v-475h-1888zM1028 3162l385 648h647l-606 -648h-426z" />
    <glyph glyph-name="Ecircumflex" unicode="&#xca;" horiz-adv-x="2478" 
d="M369 0v2966h1872v-476h-1295v-733h1114v-475h-1114v-807h1311v-475h-1888zM1594 3162l-283 336l-279 -336h-409l434 648h512l434 -648h-409z" />
    <glyph glyph-name="Edieresis" unicode="&#xcb;" horiz-adv-x="2478" 
d="M369 0v2966h1872v-476h-1295v-733h1114v-475h-1114v-807h1311v-475h-1888zM635 3236v500h537v-500h-537zM1450 3236v500h537v-500h-537z" />
    <glyph glyph-name="Igrave" unicode="&#xcc;" horiz-adv-x="1749" 
d="M246 0v459h340v2048h-340v459h1257v-459h-340v-2048h340v-459h-1257zM730 3162l-606 648h647l385 -648h-426z" />
    <glyph glyph-name="Iacute" unicode="&#xcd;" horiz-adv-x="1749" 
d="M246 0v459h340v2048h-340v459h1257v-459h-340v-2048h340v-459h-1257zM590 3162l385 648h647l-606 -648h-426z" />
    <glyph glyph-name="Icircumflex" unicode="&#xce;" horiz-adv-x="1749" 
d="M246 0v459h340v2048h-340v459h1257v-459h-340v-2048h340v-459h-1257zM1157 3162l-283 336l-279 -336h-409l434 648h512l434 -648h-409z" />
    <glyph glyph-name="Idieresis" unicode="&#xcf;" horiz-adv-x="1749" 
d="M246 0v459h340v2048h-340v459h1257v-459h-340v-2048h340v-459h-1257zM198 3236v500h537v-500h-537zM1013 3236v500h537v-500h-537z" />
    <glyph glyph-name="Eth" unicode="&#xd0;" horiz-adv-x="3047" 
d="M410 0v1217h-254v491h254v1258h1048c172 0 325 -17 459 -51s251.333 -82.333 352 -145s186 -138.5 256 -227.5s126.667 -188.333 170 -298s74.666 -228.667 94 -357c19.333 -128.333 29 -263.166 29 -404.499s-10.5 -276.166 -31.5 -404.499s-54 -247.333 -99 -357
s-103.167 -209 -174.5 -298s-157.333 -164.833 -258 -227.5s-217 -111 -349 -145s-281.333 -51 -448 -51h-1048zM1438 474.998c82.667 0 159.334 9.00098 230.001 27.001s135 45.167 193 81.5s109.333 82.166 154 137.499s82.167 120.333 112.5 195s53.333 159.167 69 253.5
s23.5 198.833 23.5 313.5s-7.83301 219.167 -23.5 313.5s-38.667 178.833 -69 253.5s-67.833 139.5 -112.5 194.5s-96 100.667 -154 137s-122.333 63.5 -193 81.5s-147.334 27 -230.001 27h-451v-782h569v-491h-569v-742h451z" />
    <glyph glyph-name="Ntilde" unicode="&#xd1;" horiz-adv-x="3142" 
d="M2187 0l-1073 1712c-35.333 56 -72.5 123 -111.5 201s-78.167 161.333 -117.5 250l14 -131c4.66699 -43.333 8.66699 -84.666 12 -123.999s6 -75.666 8 -108.999s3 -62.333 3 -87v-1712h-553v2966h585l1074 -1713c17.333 -27.333 35.333 -58.166 53.999 -92.499
c18.667 -34.333 37.5 -70.833 56.5 -109.5l57.5 -121l57 -127c-5.33301 42.667 -10 85.5 -14 128.5s-7.5 84 -10.5 123s-5.16699 75.5 -6.5 109.5s-2 63.667 -2 89v1713h553v-2966h-586zM2343 3769c0 -93.333 -12.4971 -176.665 -37.4971 -249.999
c-25 -73.333 -59.667 -135.5 -104 -186.5s-96.833 -90 -157.5 -117s-126.334 -40.5 -197.001 -40.5c-40.667 0 -78.667 4.66699 -114 14s-68.666 21.166 -99.999 35.5c-31.333 14.333 -61 29.833 -89 46.5l-81.5 46.5c-26.333 14.333 -51.833 26.166 -76.5 35.5
c-24.667 9.33301 -49.667 14 -75 14c-28.667 0 -54 -4 -76 -12s-40.5 -19.667 -55.5 -35s-26.667 -34.166 -35 -56.5c-8.33301 -22.333 -12.833 -47.833 -13.5 -76.5h-336c0 93.333 12.167 176.666 36.5 250c24.333 73.333 58.166 135.5 101.499 186.5
s94.666 90 153.999 117s124.333 40.5 195 40.5c40.667 0 79 -4.83301 115 -14.5s70 -21.5 102 -35.5s62.333 -29.5 91 -46.5s56.334 -32.5 83.001 -46.5s52.667 -25.833 78 -35.5s50.666 -14.5 75.999 -14.5c28.667 0 54.167 3.83301 76.5 11.5s41.166 19.167 56.499 34.5
s27 34.166 35 56.499s12 48.5 12 78.5h336z" />
    <glyph glyph-name="Ograve" unicode="&#xd2;" horiz-adv-x="3056" 
d="M1528 -66c-172 0 -323.502 18.668 -454.502 56.001s-244.667 89.833 -341 157.5s-176.666 148.667 -240.999 243s-116 199 -155 314s-66.667 238.167 -83 369.5s-24.5 267.666 -24.5 408.999s9 277.666 27 408.999s47.333 254.333 88 368.999
c40.667 114.667 93.834 219.334 159.501 314c65.667 94.667 146.667 175.667 243 243s209 119.666 338 157c129 37.333 276.833 56 443.5 56c172 0 323.5 -18.667 454.5 -56s244.5 -89.666 340.5 -157c96 -67.333 176.333 -148.333 241 -243s116.334 -199.334 155.001 -314
c38.667 -114.667 66.167 -237.667 82.5 -369s24.5 -267.666 24.5 -408.999s-9 -277.666 -27 -408.999s-47.167 -254.5 -87.5 -369.5s-93.5 -219.667 -159.5 -314s-147.167 -175.333 -243.5 -243s-208.833 -120.167 -337.5 -157.5s-276.334 -56 -443.001 -56zM1528 422.001
c82.667 0 157.334 10.667 224.001 32s125.834 52.833 177.501 94.5s96.334 92.834 134.001 153.501s68.667 130.334 93 209.001s42.333 165.834 54 261.501s17.5 199.167 17.5 310.5s-5.83301 214.833 -17.5 310.5s-29.667 182.667 -54 261s-55.333 148 -93 209
s-82.334 112.167 -134.001 153.5s-110.834 72.833 -177.501 94.5s-141.334 32.5 -224.001 32.5s-157.334 -10.833 -224.001 -32.5s-126 -53.167 -178 -94.5s-96.833 -92.5 -134.5 -153.5s-68.667 -130.667 -93 -209s-42.333 -165.333 -54 -261s-17.5 -199.167 -17.5 -310.5
s5.83301 -214.833 17.5 -310.5s29.667 -182.834 54 -261.501s55.333 -148.334 93 -209.001s82.5 -111.834 134.5 -153.501s111.333 -73.167 178 -94.5s141.334 -32 224.001 -32zM1384 3162l-606 648h647l385 -648h-426z" />
    <glyph glyph-name="Oacute" unicode="&#xd3;" horiz-adv-x="3056" 
d="M1528 -66c-172 0 -323.502 18.668 -454.502 56.001s-244.667 89.833 -341 157.5s-176.666 148.667 -240.999 243s-116 199 -155 314s-66.667 238.167 -83 369.5s-24.5 267.666 -24.5 408.999s9 277.666 27 408.999s47.333 254.333 88 368.999
c40.667 114.667 93.834 219.334 159.501 314c65.667 94.667 146.667 175.667 243 243s209 119.666 338 157c129 37.333 276.833 56 443.5 56c172 0 323.5 -18.667 454.5 -56s244.5 -89.666 340.5 -157c96 -67.333 176.333 -148.333 241 -243s116.334 -199.334 155.001 -314
c38.667 -114.667 66.167 -237.667 82.5 -369s24.5 -267.666 24.5 -408.999s-9 -277.666 -27 -408.999s-47.167 -254.5 -87.5 -369.5s-93.5 -219.667 -159.5 -314s-147.167 -175.333 -243.5 -243s-208.833 -120.167 -337.5 -157.5s-276.334 -56 -443.001 -56zM1528 422.001
c82.667 0 157.334 10.667 224.001 32s125.834 52.833 177.501 94.5s96.334 92.834 134.001 153.501s68.667 130.334 93 209.001s42.333 165.834 54 261.501s17.5 199.167 17.5 310.5s-5.83301 214.833 -17.5 310.5s-29.667 182.667 -54 261s-55.333 148 -93 209
s-82.334 112.167 -134.001 153.5s-110.834 72.833 -177.501 94.5s-141.334 32.5 -224.001 32.5s-157.334 -10.833 -224.001 -32.5s-126 -53.167 -178 -94.5s-96.833 -92.5 -134.5 -153.5s-68.667 -130.667 -93 -209s-42.333 -165.333 -54 -261s-17.5 -199.167 -17.5 -310.5
s5.83301 -214.833 17.5 -310.5s29.667 -182.834 54 -261.501s55.333 -148.334 93 -209.001s82.5 -111.834 134.5 -153.501s111.333 -73.167 178 -94.5s141.334 -32 224.001 -32zM1245 3162l385 648h647l-606 -648h-426z" />
    <glyph glyph-name="Ocircumflex" unicode="&#xd4;" horiz-adv-x="3056" 
d="M1528 -66c-172 0 -323.502 18.668 -454.502 56.001s-244.667 89.833 -341 157.5s-176.666 148.667 -240.999 243s-116 199 -155 314s-66.667 238.167 -83 369.5s-24.5 267.666 -24.5 408.999s9 277.666 27 408.999s47.333 254.333 88 368.999
c40.667 114.667 93.834 219.334 159.501 314c65.667 94.667 146.667 175.667 243 243s209 119.666 338 157c129 37.333 276.833 56 443.5 56c172 0 323.5 -18.667 454.5 -56s244.5 -89.666 340.5 -157c96 -67.333 176.333 -148.333 241 -243s116.334 -199.334 155.001 -314
c38.667 -114.667 66.167 -237.667 82.5 -369s24.5 -267.666 24.5 -408.999s-9 -277.666 -27 -408.999s-47.167 -254.5 -87.5 -369.5s-93.5 -219.667 -159.5 -314s-147.167 -175.333 -243.5 -243s-208.833 -120.167 -337.5 -157.5s-276.334 -56 -443.001 -56zM1528 422.001
c82.667 0 157.334 10.667 224.001 32s125.834 52.833 177.501 94.5s96.334 92.834 134.001 153.501s68.667 130.334 93 209.001s42.333 165.834 54 261.501s17.5 199.167 17.5 310.5s-5.83301 214.833 -17.5 310.5s-29.667 182.667 -54 261s-55.333 148 -93 209
s-82.334 112.167 -134.001 153.5s-110.834 72.833 -177.501 94.5s-141.334 32.5 -224.001 32.5s-157.334 -10.833 -224.001 -32.5s-126 -53.167 -178 -94.5s-96.833 -92.5 -134.5 -153.5s-68.667 -130.667 -93 -209s-42.333 -165.333 -54 -261s-17.5 -199.167 -17.5 -310.5
s5.83301 -214.833 17.5 -310.5s29.667 -182.834 54 -261.501s55.333 -148.334 93 -209.001s82.5 -111.834 134.5 -153.501s111.333 -73.167 178 -94.5s141.334 -32 224.001 -32zM1811 3162l-283 336l-279 -336h-409l434 648h512l434 -648h-409z" />
    <glyph glyph-name="Otilde" unicode="&#xd5;" horiz-adv-x="3056" 
d="M1528 -66c-172 0 -323.502 18.668 -454.502 56.001s-244.667 89.833 -341 157.5s-176.666 148.667 -240.999 243s-116 199 -155 314s-66.667 238.167 -83 369.5s-24.5 267.666 -24.5 408.999s9 277.666 27 408.999s47.333 254.333 88 368.999
c40.667 114.667 93.834 219.334 159.501 314c65.667 94.667 146.667 175.667 243 243s209 119.666 338 157c129 37.333 276.833 56 443.5 56c172 0 323.5 -18.667 454.5 -56s244.5 -89.666 340.5 -157c96 -67.333 176.333 -148.333 241 -243s116.334 -199.334 155.001 -314
c38.667 -114.667 66.167 -237.667 82.5 -369s24.5 -267.666 24.5 -408.999s-9 -277.666 -27 -408.999s-47.167 -254.5 -87.5 -369.5s-93.5 -219.667 -159.5 -314s-147.167 -175.333 -243.5 -243s-208.833 -120.167 -337.5 -157.5s-276.334 -56 -443.001 -56zM1528 422.001
c82.667 0 157.334 10.667 224.001 32s125.834 52.833 177.501 94.5s96.334 92.834 134.001 153.501s68.667 130.334 93 209.001s42.333 165.834 54 261.501s17.5 199.167 17.5 310.5s-5.83301 214.833 -17.5 310.5s-29.667 182.667 -54 261s-55.333 148 -93 209
s-82.334 112.167 -134.001 153.5s-110.834 72.833 -177.501 94.5s-141.334 32.5 -224.001 32.5s-157.334 -10.833 -224.001 -32.5s-126 -53.167 -178 -94.5s-96.833 -92.5 -134.5 -153.5s-68.667 -130.667 -93 -209s-42.333 -165.333 -54 -261s-17.5 -199.167 -17.5 -310.5
s5.83301 -214.833 17.5 -310.5s29.667 -182.834 54 -261.501s55.333 -148.334 93 -209.001s82.5 -111.834 134.5 -153.501s111.333 -73.167 178 -94.5s141.334 -32 224.001 -32zM2302 3769c0 -93.333 -12.4971 -176.665 -37.4971 -249.999
c-25 -73.333 -59.667 -135.5 -104 -186.5s-96.833 -90 -157.5 -117s-126.334 -40.5 -197.001 -40.5c-40.667 0 -78.667 4.66699 -114 14s-68.666 21.166 -99.999 35.5c-31.333 14.333 -61 29.833 -89 46.5l-81.5 46.5c-26.333 14.333 -51.833 26.166 -76.5 35.5
c-24.667 9.33301 -49.667 14 -75 14c-28.667 0 -54 -4 -76 -12s-40.5 -19.667 -55.5 -35s-26.667 -34.166 -35 -56.5c-8.33301 -22.333 -12.833 -47.833 -13.5 -76.5h-336c0 93.333 12.167 176.666 36.5 250c24.333 73.333 58.166 135.5 101.499 186.5
s94.666 90 153.999 117s124.333 40.5 195 40.5c40.667 0 79 -4.83301 115 -14.5s70 -21.5 102 -35.5s62.333 -29.5 91 -46.5s56.334 -32.5 83.001 -46.5s52.667 -25.833 78 -35.5s50.666 -14.5 75.999 -14.5c28.667 0 54.167 3.83301 76.5 11.5s41.166 19.167 56.499 34.5
s27 34.166 35 56.499s12 48.5 12 78.5h336z" />
    <glyph glyph-name="Odieresis" unicode="&#xd6;" horiz-adv-x="3056" 
d="M1528 -66c-172 0 -323.502 18.668 -454.502 56.001s-244.667 89.833 -341 157.5s-176.666 148.667 -240.999 243s-116 199 -155 314s-66.667 238.167 -83 369.5s-24.5 267.666 -24.5 408.999s9 277.666 27 408.999s47.333 254.333 88 368.999
c40.667 114.667 93.834 219.334 159.501 314c65.667 94.667 146.667 175.667 243 243s209 119.666 338 157c129 37.333 276.833 56 443.5 56c172 0 323.5 -18.667 454.5 -56s244.5 -89.666 340.5 -157c96 -67.333 176.333 -148.333 241 -243s116.334 -199.334 155.001 -314
c38.667 -114.667 66.167 -237.667 82.5 -369s24.5 -267.666 24.5 -408.999s-9 -277.666 -27 -408.999s-47.167 -254.5 -87.5 -369.5s-93.5 -219.667 -159.5 -314s-147.167 -175.333 -243.5 -243s-208.833 -120.167 -337.5 -157.5s-276.334 -56 -443.001 -56zM1528 422.001
c82.667 0 157.334 10.667 224.001 32s125.834 52.833 177.501 94.5s96.334 92.834 134.001 153.501s68.667 130.334 93 209.001s42.333 165.834 54 261.501s17.5 199.167 17.5 310.5s-5.83301 214.833 -17.5 310.5s-29.667 182.667 -54 261s-55.333 148 -93 209
s-82.334 112.167 -134.001 153.5s-110.834 72.833 -177.501 94.5s-141.334 32.5 -224.001 32.5s-157.334 -10.833 -224.001 -32.5s-126 -53.167 -178 -94.5s-96.833 -92.5 -134.5 -153.5s-68.667 -130.667 -93 -209s-42.333 -165.333 -54 -261s-17.5 -199.167 -17.5 -310.5
s5.83301 -214.833 17.5 -310.5s29.667 -182.834 54 -261.501s55.333 -148.334 93 -209.001s82.5 -111.834 134.5 -153.501s111.333 -73.167 178 -94.5s141.334 -32 224.001 -32zM851.998 3236v500h537v-500h-537zM1667 3236v500h537v-500h-537z" />
    <glyph glyph-name="multiply" unicode="&#xd7;" horiz-adv-x="2458" 
d="M1229 856l-598 -598l-365 365l598 598l-598 598l365 364l598 -598l598 598l364 -364l-598 -598l598 -598l-364 -365z" />
    <glyph glyph-name="Oslash" unicode="&#xd8;" horiz-adv-x="3056" 
d="M205 -41l294.999 418.004c-50 70.667 -92.333 147.667 -127 231s-62.667 171.666 -84 264.999s-36.666 191.166 -45.999 293.499s-14 207.833 -14 316.5c0 141.333 9 277.666 27 408.999s47.333 254.333 88 368.999c40.667 114.667 93.834 219.334 159.501 314
c65.667 94.667 146.667 175.667 243 243s209 119.666 338 157c129 37.333 276.833 56 443.5 56c161.333 0 305 -16.833 431 -50.5s236.333 -80.834 331 -141.5l123 167h446l-303 -426c50 -70.667 92.333 -147.5 127 -230.5s62.5 -171 83.5 -264s36.167 -190 45.5 -291
s14 -204.833 14 -311.5c0 -141.333 -9 -277.666 -27 -408.999s-47.167 -254.5 -87.5 -369.5s-93.5 -219.667 -159.5 -314s-147.167 -175.333 -243.5 -243s-208.833 -120.167 -337.5 -157.5s-276.334 -56 -443.001 -56c-162 0 -305.333 16.667 -430 50
s-234 79.666 -328 138.999l-115 -164h-450zM1942 2404c-53.333 44.667 -114.167 79.167 -182.5 103.5s-145.5 36.5 -231.5 36.5c-82.667 0 -157.334 -10.833 -224.001 -32.5s-126 -53.167 -178 -94.5s-96.833 -92.5 -134.5 -153.5s-68.667 -130.667 -93 -209
s-42.333 -165.333 -54 -261s-17.5 -199.167 -17.5 -310.5c0 -107.333 5.33301 -207.333 16 -300s27.334 -177 50.001 -253zM1118 553.004c51.333 -43.333 110.997 -76.0039 178.997 -98.0039s145 -33 231 -33c82.667 0 157.334 10.667 224.001 32
s125.834 52.833 177.501 94.5s96.334 92.834 134.001 153.501s68.667 130.334 93 209.001s42.333 165.834 54 261.501s17.5 199.167 17.5 310.5c0 105.333 -5.16699 203.333 -15.5 294s-26.833 174.334 -49.5 251.001z" />
    <glyph glyph-name="Ugrave" unicode="&#xd9;" horiz-adv-x="2941" 
d="M2044 2966l576.998 0.00195312v-1954c0 -100.667 -6.16699 -197.334 -18.5 -290.001s-34.5 -179 -66.5 -259s-75.5 -152.5 -130.5 -217.5s-125.167 -120.5 -210.5 -166.5s-187.5 -81.667 -306.5 -107s-258.5 -38 -418.5 -38c-159.333 0 -298.5 12.667 -417.5 38
s-221.167 61 -306.5 107s-155.5 101.5 -210.5 166.5s-98.667 137.5 -131 217.5s-54.666 166.167 -66.999 258.5s-18.5 189.166 -18.5 290.499v1954h578v-1872c0 -127.333 10.667 -233.833 32 -319.5s55 -154.667 101 -207s105.333 -89.666 178 -111.999s160 -33.5 262 -33.5
c102.667 0 190.334 11.167 263.001 33.5s132 59.666 178 111.999s79.667 121.333 101 207s32 192.167 32 319.5v1872zM1327 3162l-606 648h647l385 -648h-426z" />
    <glyph glyph-name="Uacute" unicode="&#xda;" horiz-adv-x="2941" 
d="M2044 2966l576.998 0.00195312v-1954c0 -100.667 -6.16699 -197.334 -18.5 -290.001s-34.5 -179 -66.5 -259s-75.5 -152.5 -130.5 -217.5s-125.167 -120.5 -210.5 -166.5s-187.5 -81.667 -306.5 -107s-258.5 -38 -418.5 -38c-159.333 0 -298.5 12.667 -417.5 38
s-221.167 61 -306.5 107s-155.5 101.5 -210.5 166.5s-98.667 137.5 -131 217.5s-54.666 166.167 -66.999 258.5s-18.5 189.166 -18.5 290.499v1954h578v-1872c0 -127.333 10.667 -233.833 32 -319.5s55 -154.667 101 -207s105.333 -89.666 178 -111.999s160 -33.5 262 -33.5
c102.667 0 190.334 11.167 263.001 33.5s132 59.666 178 111.999s79.667 121.333 101 207s32 192.167 32 319.5v1872zM1188 3162l385 648h647l-606 -648h-426z" />
    <glyph glyph-name="Ucircumflex" unicode="&#xdb;" horiz-adv-x="2941" 
d="M2044 2966l576.998 0.00195312v-1954c0 -100.667 -6.16699 -197.334 -18.5 -290.001s-34.5 -179 -66.5 -259s-75.5 -152.5 -130.5 -217.5s-125.167 -120.5 -210.5 -166.5s-187.5 -81.667 -306.5 -107s-258.5 -38 -418.5 -38c-159.333 0 -298.5 12.667 -417.5 38
s-221.167 61 -306.5 107s-155.5 101.5 -210.5 166.5s-98.667 137.5 -131 217.5s-54.666 166.167 -66.999 258.5s-18.5 189.166 -18.5 290.499v1954h578v-1872c0 -127.333 10.667 -233.833 32 -319.5s55 -154.667 101 -207s105.333 -89.666 178 -111.999s160 -33.5 262 -33.5
c102.667 0 190.334 11.167 263.001 33.5s132 59.666 178 111.999s79.667 121.333 101 207s32 192.167 32 319.5v1872zM1754 3162l-283 336l-279 -336h-409l434 648h512l434 -648h-409z" />
    <glyph glyph-name="Udieresis" unicode="&#xdc;" horiz-adv-x="2941" 
d="M2044 2966l576.998 0.00195312v-1954c0 -100.667 -6.16699 -197.334 -18.5 -290.001s-34.5 -179 -66.5 -259s-75.5 -152.5 -130.5 -217.5s-125.167 -120.5 -210.5 -166.5s-187.5 -81.667 -306.5 -107s-258.5 -38 -418.5 -38c-159.333 0 -298.5 12.667 -417.5 38
s-221.167 61 -306.5 107s-155.5 101.5 -210.5 166.5s-98.667 137.5 -131 217.5s-54.666 166.167 -66.999 258.5s-18.5 189.166 -18.5 290.499v1954h578v-1872c0 -127.333 10.667 -233.833 32 -319.5s55 -154.667 101 -207s105.333 -89.666 178 -111.999s160 -33.5 262 -33.5
c102.667 0 190.334 11.167 263.001 33.5s132 59.666 178 111.999s79.667 121.333 101 207s32 192.167 32 319.5v1872zM794.998 3236v500h537v-500h-537zM1610 3236v500h537v-500h-537z" />
    <glyph glyph-name="Yacute" unicode="&#xdd;" horiz-adv-x="2617" 
d="M1020 0l-0.00195312 1126l-1004 1840h668l438 -934l54 -117l49.5 -111c15.667 -36 30.334 -71.333 44.001 -106s26.167 -68.334 37.5 -101.001c11.333 32.667 23.833 66.334 37.5 101.001s28.334 70 44.001 106l50.5 111l56 117l438 934h668l-1004 -1840v-1126h-577z
M1032 3162l385 648h647l-606 -648h-426z" />
    <glyph glyph-name="Thorn" unicode="&#xde;" horiz-adv-x="2556" 
d="M369 0v2966h573v-451h459c116 0 221.833 -9.5 317.5 -28.5s181.5 -47 257.5 -84s142 -82.667 198 -137s102.667 -117.166 140 -188.5c37.333 -71.333 65.166 -150.833 83.5 -238.5c18.333 -87.667 27.5 -183.167 27.5 -286.5c0 -154.667 -21.5 -292.667 -64.5 -414
s-108.5 -223.833 -196.5 -307.5s-199.167 -147.5 -333.5 -191.5s-292.5 -66 -474.5 -66h-414v-573h-573zM1298 1024c95.333 0 176.834 12.499 244.501 37.499s123.167 60.5 166.5 106.5s75.166 101.5 95.499 166.5s30.5 137.5 30.5 217.5
c0 78.667 -9.83301 149.834 -29.5 213.501s-49.667 118 -90 163s-91 79.5 -152 103.5s-132.833 36 -215.5 36h-406v-1044h356z" />
    <glyph glyph-name="germandbls" unicode="&#xdf;" horiz-adv-x="2662" 
d="M1679 -61c-63.333 0 -121.665 2.99121 -174.998 8.99121s-102.5 14.5 -147.5 25.5s-86.5 24.333 -124.5 40s-73.333 33.167 -106 52.5v454c78.667 -39.333 164.5 -69.666 257.5 -90.999s188.833 -32 287.5 -32c61.333 0 113.333 7.66699 156 23
s77.334 36.666 104.001 63.999s46 59.333 58 96s18 76.667 18 120c0 42 -5.16699 82.167 -15.5 120.5s-28.5 75.333 -54.5 111s-60.833 70.334 -104.5 104.001s-98.834 66.834 -165.501 99.501l-541 266v381l230 94c78 32 143.167 66.333 195.5 103
s94.333 75.334 126 116.001s54.167 82.5 67.5 125.5s20 86.5 20 130.5c0 40 -7 80.667 -21 122s-37 78.666 -69 112c-32 33.333 -73.833 60.666 -125.5 82c-51.667 21.333 -114.834 32 -189.501 32c-72.667 0 -137.667 -10.333 -195 -31s-105.833 -53 -145.5 -97
s-70 -100.333 -91 -169s-31.5 -151.334 -31.5 -248v-2154h-561v2208c0 106.667 12.333 204 37 292s59.667 167 105 237s99.5 131.167 162.5 183.5s132.667 95.833 209 130.5s158.333 60.5 246 77.5s178.5 25.5 272.5 25.5c152.667 0 288.667 -20.833 408 -62.5
s220.166 -98.167 302.499 -169.5s145 -154.666 188 -250c43 -95.333 64.5 -197 64.5 -305c0 -87.333 -13.667 -168.166 -41 -242.499s-64.333 -141.5 -111 -201.5s-101 -112.5 -163 -157.5s-127.667 -81.833 -197 -110.5l-144 -58l172 -73
c114.667 -49.333 217 -100.166 307 -152.499s166 -110.333 228 -174s109.167 -135.167 141.5 -214.5s48.5 -170.666 48.5 -273.999s-17.833 -201.666 -53.5 -294.999s-90.334 -175.166 -164 -245.499c-73.667 -70.333 -166.5 -126.166 -278.5 -167.499
s-244.333 -62 -397 -62z" />
    <glyph glyph-name="agrave" unicode="&#xe0;" horiz-adv-x="2286" 
d="M1483 0l-29.0029 160.001c-40 -34 -82.833 -64.833 -128.5 -92.5s-94.667 -51.334 -147 -71.001s-108 -35 -167 -46s-121.833 -16.5 -188.5 -16.5c-98 0 -187.5 15 -268.5 45s-150.5 72.333 -208.5 127s-102.833 120.667 -134.5 198s-47.5 163 -47.5 257
c0 82 10.833 156 32.5 222s53.834 124.667 96.501 176s95.334 95.5 158.001 132.5s135 67.5 217 91.5s173.333 41.667 274 53s210 17 328 17c22.667 0 43.834 -0.166992 63.501 -0.5s37.667 -0.833008 54 -1.5s31.833 -1.33398 46.5 -2.00098v45c0 68 -8 126 -24 174
s-41.667 87.333 -77 118s-80.833 53.167 -136.5 67.5s-122.834 21.5 -201.501 21.5c-64.667 0 -127.334 -3 -188.001 -9s-119.167 -14.667 -175.5 -26s-110.166 -25 -161.499 -41s-100 -34.333 -146 -55v447c44 24.667 94 47.5 150 68.5s116.333 39.167 181 54.5
s132.834 27.333 204.501 36s145.5 13 221.5 13c147.333 0 277.833 -15.5 391.5 -46.5s209.167 -80.167 286.5 -147.5s136 -154.166 176 -260.499s60 -234.833 60 -385.5v-1323h-512zM1434 889.001l-44.998 0.000976562c-110 0 -205.833 -4.83301 -287.5 -14.5
s-149.5 -25.334 -203.5 -47.001s-94.333 -49.667 -121 -84s-40 -76.166 -40 -125.499c0 -34.667 5.83301 -67.334 17.5 -98.001s29.667 -57.5 54 -80.5s55.333 -41.167 93 -54.5s82.5 -20 134.5 -20c38.667 0 76.167 2.83301 112.5 8.5s71.166 13.834 104.499 24.501
s65.166 23.167 95.499 37.5s58.833 30.166 85.5 47.499v406zM987.999 2408l-606 648h647l385 -648h-426z" />
    <glyph glyph-name="aacute" unicode="&#xe1;" horiz-adv-x="2286" 
d="M1483 0l-29.0029 160.001c-40 -34 -82.833 -64.833 -128.5 -92.5s-94.667 -51.334 -147 -71.001s-108 -35 -167 -46s-121.833 -16.5 -188.5 -16.5c-98 0 -187.5 15 -268.5 45s-150.5 72.333 -208.5 127s-102.833 120.667 -134.5 198s-47.5 163 -47.5 257
c0 82 10.833 156 32.5 222s53.834 124.667 96.501 176s95.334 95.5 158.001 132.5s135 67.5 217 91.5s173.333 41.667 274 53s210 17 328 17c22.667 0 43.834 -0.166992 63.501 -0.5s37.667 -0.833008 54 -1.5s31.833 -1.33398 46.5 -2.00098v45c0 68 -8 126 -24 174
s-41.667 87.333 -77 118s-80.833 53.167 -136.5 67.5s-122.834 21.5 -201.501 21.5c-64.667 0 -127.334 -3 -188.001 -9s-119.167 -14.667 -175.5 -26s-110.166 -25 -161.499 -41s-100 -34.333 -146 -55v447c44 24.667 94 47.5 150 68.5s116.333 39.167 181 54.5
s132.834 27.333 204.501 36s145.5 13 221.5 13c147.333 0 277.833 -15.5 391.5 -46.5s209.167 -80.167 286.5 -147.5s136 -154.166 176 -260.499s60 -234.833 60 -385.5v-1323h-512zM1434 889.001l-44.998 0.000976562c-110 0 -205.833 -4.83301 -287.5 -14.5
s-149.5 -25.334 -203.5 -47.001s-94.333 -49.667 -121 -84s-40 -76.166 -40 -125.499c0 -34.667 5.83301 -67.334 17.5 -98.001s29.667 -57.5 54 -80.5s55.333 -41.167 93 -54.5s82.5 -20 134.5 -20c38.667 0 76.167 2.83301 112.5 8.5s71.166 13.834 104.499 24.501
s65.166 23.167 95.499 37.5s58.833 30.166 85.5 47.499v406zM847.999 2408l385 648h647l-606 -648h-426z" />
    <glyph glyph-name="acircumflex" unicode="&#xe2;" horiz-adv-x="2286" 
d="M1483 0l-29.0029 160.001c-40 -34 -82.833 -64.833 -128.5 -92.5s-94.667 -51.334 -147 -71.001s-108 -35 -167 -46s-121.833 -16.5 -188.5 -16.5c-98 0 -187.5 15 -268.5 45s-150.5 72.333 -208.5 127s-102.833 120.667 -134.5 198s-47.5 163 -47.5 257
c0 82 10.833 156 32.5 222s53.834 124.667 96.501 176s95.334 95.5 158.001 132.5s135 67.5 217 91.5s173.333 41.667 274 53s210 17 328 17c22.667 0 43.834 -0.166992 63.501 -0.5s37.667 -0.833008 54 -1.5s31.833 -1.33398 46.5 -2.00098v45c0 68 -8 126 -24 174
s-41.667 87.333 -77 118s-80.833 53.167 -136.5 67.5s-122.834 21.5 -201.501 21.5c-64.667 0 -127.334 -3 -188.001 -9s-119.167 -14.667 -175.5 -26s-110.166 -25 -161.499 -41s-100 -34.333 -146 -55v447c44 24.667 94 47.5 150 68.5s116.333 39.167 181 54.5
s132.834 27.333 204.501 36s145.5 13 221.5 13c147.333 0 277.833 -15.5 391.5 -46.5s209.167 -80.167 286.5 -147.5s136 -154.166 176 -260.499s60 -234.833 60 -385.5v-1323h-512zM1434 889.001l-44.998 0.000976562c-110 0 -205.833 -4.83301 -287.5 -14.5
s-149.5 -25.334 -203.5 -47.001s-94.333 -49.667 -121 -84s-40 -76.166 -40 -125.499c0 -34.667 5.83301 -67.334 17.5 -98.001s29.667 -57.5 54 -80.5s55.333 -41.167 93 -54.5s82.5 -20 134.5 -20c38.667 0 76.167 2.83301 112.5 8.5s71.166 13.834 104.499 24.501
s65.166 23.167 95.499 37.5s58.833 30.166 85.5 47.499v406zM1414 2408l-283 336l-279 -336h-409l434 648h512l434 -648h-409z" />
    <glyph glyph-name="atilde" unicode="&#xe3;" horiz-adv-x="2286" 
d="M1483 0l-29.0029 160.001c-40 -34 -82.833 -64.833 -128.5 -92.5s-94.667 -51.334 -147 -71.001s-108 -35 -167 -46s-121.833 -16.5 -188.5 -16.5c-98 0 -187.5 15 -268.5 45s-150.5 72.333 -208.5 127s-102.833 120.667 -134.5 198s-47.5 163 -47.5 257
c0 82 10.833 156 32.5 222s53.834 124.667 96.501 176s95.334 95.5 158.001 132.5s135 67.5 217 91.5s173.333 41.667 274 53s210 17 328 17c22.667 0 43.834 -0.166992 63.501 -0.5s37.667 -0.833008 54 -1.5s31.833 -1.33398 46.5 -2.00098v45c0 68 -8 126 -24 174
s-41.667 87.333 -77 118s-80.833 53.167 -136.5 67.5s-122.834 21.5 -201.501 21.5c-64.667 0 -127.334 -3 -188.001 -9s-119.167 -14.667 -175.5 -26s-110.166 -25 -161.499 -41s-100 -34.333 -146 -55v447c44 24.667 94 47.5 150 68.5s116.333 39.167 181 54.5
s132.834 27.333 204.501 36s145.5 13 221.5 13c147.333 0 277.833 -15.5 391.5 -46.5s209.167 -80.167 286.5 -147.5s136 -154.166 176 -260.499s60 -234.833 60 -385.5v-1323h-512zM1434 889.001l-44.998 0.000976562c-110 0 -205.833 -4.83301 -287.5 -14.5
s-149.5 -25.334 -203.5 -47.001s-94.333 -49.667 -121 -84s-40 -76.166 -40 -125.499c0 -34.667 5.83301 -67.334 17.5 -98.001s29.667 -57.5 54 -80.5s55.333 -41.167 93 -54.5s82.5 -20 134.5 -20c38.667 0 76.167 2.83301 112.5 8.5s71.166 13.834 104.499 24.501
s65.166 23.167 95.499 37.5s58.833 30.166 85.5 47.499v406zM1905 3015c0 -93.333 -12.4971 -176.666 -37.4971 -250c-25 -73.333 -59.667 -135.5 -104 -186.5s-96.833 -90 -157.5 -117s-126.334 -40.5 -197.001 -40.5c-40.667 0 -78.667 4.66699 -114 14
s-68.666 21.166 -99.999 35.5c-31.333 14.333 -61 29.833 -89 46.5l-81.5 46.5c-26.333 14.333 -51.833 26.166 -76.5 35.5c-24.667 9.33301 -49.667 14 -75 14c-28.667 0 -54 -4 -76 -12s-40.5 -19.667 -55.5 -35s-26.667 -34.166 -35 -56.5
c-8.33301 -22.333 -12.833 -47.833 -13.5 -76.5h-336c0 93.333 12.167 176.666 36.5 250c24.333 73.333 58.166 135.5 101.499 186.5s94.666 90 153.999 117s124.333 40.5 195 40.5c40.667 0 79 -4.83301 115 -14.5s70 -21.5 102 -35.5s62.333 -29.5 91 -46.5
s56.334 -32.5 83.001 -46.5s52.667 -25.833 78 -35.5s50.666 -14.5 75.999 -14.5c28.667 0 54.167 3.83301 76.5 11.5s41.166 19.167 56.499 34.5s27 34.166 35 56.5c8 22.333 12 48.5 12 78.5h336z" />
    <glyph glyph-name="adieresis" unicode="&#xe4;" horiz-adv-x="2286" 
d="M1483 0l-29.0029 160.001c-40 -34 -82.833 -64.833 -128.5 -92.5s-94.667 -51.334 -147 -71.001s-108 -35 -167 -46s-121.833 -16.5 -188.5 -16.5c-98 0 -187.5 15 -268.5 45s-150.5 72.333 -208.5 127s-102.833 120.667 -134.5 198s-47.5 163 -47.5 257
c0 82 10.833 156 32.5 222s53.834 124.667 96.501 176s95.334 95.5 158.001 132.5s135 67.5 217 91.5s173.333 41.667 274 53s210 17 328 17c22.667 0 43.834 -0.166992 63.501 -0.5s37.667 -0.833008 54 -1.5s31.833 -1.33398 46.5 -2.00098v45c0 68 -8 126 -24 174
s-41.667 87.333 -77 118s-80.833 53.167 -136.5 67.5s-122.834 21.5 -201.501 21.5c-64.667 0 -127.334 -3 -188.001 -9s-119.167 -14.667 -175.5 -26s-110.166 -25 -161.499 -41s-100 -34.333 -146 -55v447c44 24.667 94 47.5 150 68.5s116.333 39.167 181 54.5
s132.834 27.333 204.501 36s145.5 13 221.5 13c147.333 0 277.833 -15.5 391.5 -46.5s209.167 -80.167 286.5 -147.5s136 -154.166 176 -260.499s60 -234.833 60 -385.5v-1323h-512zM1434 889.001l-44.998 0.000976562c-110 0 -205.833 -4.83301 -287.5 -14.5
s-149.5 -25.334 -203.5 -47.001s-94.333 -49.667 -121 -84s-40 -76.166 -40 -125.499c0 -34.667 5.83301 -67.334 17.5 -98.001s29.667 -57.5 54 -80.5s55.333 -41.167 93 -54.5s82.5 -20 134.5 -20c38.667 0 76.167 2.83301 112.5 8.5s71.166 13.834 104.499 24.501
s65.166 23.167 95.499 37.5s58.833 30.166 85.5 47.499v406zM454.999 2482v500h537v-500h-537zM1270 2482v500h537v-500h-537z" />
    <glyph glyph-name="aring" unicode="&#xe5;" horiz-adv-x="2286" 
d="M1483 0l-29.0029 160.001c-40 -34 -82.833 -64.833 -128.5 -92.5s-94.667 -51.334 -147 -71.001s-108 -35 -167 -46s-121.833 -16.5 -188.5 -16.5c-98 0 -187.5 15 -268.5 45s-150.5 72.333 -208.5 127s-102.833 120.667 -134.5 198s-47.5 163 -47.5 257
c0 82 10.833 156 32.5 222s53.834 124.667 96.501 176s95.334 95.5 158.001 132.5s135 67.5 217 91.5s173.333 41.667 274 53s210 17 328 17c22.667 0 43.834 -0.166992 63.501 -0.5s37.667 -0.833008 54 -1.5s31.833 -1.33398 46.5 -2.00098v45c0 68 -8 126 -24 174
s-41.667 87.333 -77 118s-80.833 53.167 -136.5 67.5s-122.834 21.5 -201.501 21.5c-64.667 0 -127.334 -3 -188.001 -9s-119.167 -14.667 -175.5 -26s-110.166 -25 -161.499 -41s-100 -34.333 -146 -55v447c44 24.667 94 47.5 150 68.5s116.333 39.167 181 54.5
s132.834 27.333 204.501 36s145.5 13 221.5 13c147.333 0 277.833 -15.5 391.5 -46.5s209.167 -80.167 286.5 -147.5s136 -154.166 176 -260.499s60 -234.833 60 -385.5v-1323h-512zM1434 889.001l-44.998 0.000976562c-110 0 -205.833 -4.83301 -287.5 -14.5
s-149.5 -25.334 -203.5 -47.001s-94.333 -49.667 -121 -84s-40 -76.166 -40 -125.499c0 -34.667 5.83301 -67.334 17.5 -98.001s29.667 -57.5 54 -80.5s55.333 -41.167 93 -54.5s82.5 -20 134.5 -20c38.667 0 76.167 2.83301 112.5 8.5s71.166 13.834 104.499 24.501
s65.166 23.167 95.499 37.5s58.833 30.166 85.5 47.499v406zM1622 2859c0 -66.667 -12.5 -128.5 -37.5 -185.5s-59.5 -106.333 -103.5 -148s-96 -74.334 -156 -98c-60 -23.667 -124.667 -35.5 -194 -35.5c-70 0 -135 11.833 -195 35.5s-112 56.334 -156 98
c-44 41.667 -78.5 91 -103.5 148s-37.5 118.833 -37.5 185.5s12.5 128.5 37.5 185.5s59.5 106.333 103.5 148s96 74.334 156 98c60 23.667 125 35.5 195 35.5c69.333 0 134 -11.833 194 -35.5s112 -56.334 156 -98c44 -41.667 78.5 -91 103.5 -148
s37.5 -118.833 37.5 -185.5zM1131 2654c30 0 57.333 5.5 82 16.5s45.834 25.833 63.501 44.5s31.334 40.334 41.001 65c9.66699 24.667 14.5 51 14.5 79c0 26.667 -4.83301 52.167 -14.5 76.5s-23.334 45.666 -41.001 64c-17.667 18.333 -38.834 33 -63.501 44
s-52 16.5 -82 16.5s-57.5 -5.5 -82.5 -16.5s-46.5 -25.667 -64.5 -44s-32.167 -39.666 -42.5 -64c-10.333 -24.333 -15.5 -49.833 -15.5 -76.5c0 -28 5.16699 -54.333 15.5 -79s24.5 -46.334 42.5 -65c18 -18.667 39.5 -33.5 64.5 -44.5s52.5 -16.5 82.5 -16.5z" />
    <glyph glyph-name="ae" unicode="&#xe6;" horiz-adv-x="3494" 
d="M3219 82c-48 -22.667 -98.1729 -43 -150.506 -61s-108.833 -33.5 -169.5 -46.5s-126 -23 -196 -30s-146.333 -10.5 -229 -10.5c-86 0 -166.833 6.83301 -242.5 20.5s-146.167 33.5 -211.5 59.5s-125.333 57.833 -180 95.5s-104 80.5 -148 128.5
c-44 -47.333 -93 -89.833 -147 -127.5s-114 -69.5 -180 -95.5s-138.667 -46 -218 -60s-166.666 -21 -261.999 -21c-112 0 -212.5 15 -301.5 45s-164.5 72.333 -226.5 127s-109.667 120.667 -143 198s-50 163 -50 257c0 81.333 10.833 154.833 32.5 220.5
s53.834 124.167 96.501 175.5s95.334 95.666 158.001 132.999s135 68 217 92s173.333 41.833 274 53.5s210 17.5 328 17.5c22.667 0 48.334 -0.666992 77.001 -2s57.667 -2 87 -2v45c0 64.667 -8.33301 120.834 -25 168.501s-42.834 87.167 -78.501 118.5
s-81.834 54.833 -138.501 70.5s-125 23.5 -205 23.5c-64.667 0 -126.834 -3 -186.501 -9s-117.167 -14.667 -172.5 -26s-108.333 -25 -159 -41s-99 -34.333 -145 -55v447c44 24.667 94 47.5 150 68.5s116.333 39.167 181 54.5s132.834 27.333 204.501 36s145.5 13 221.5 13
c74.667 0 145.834 -5.83301 213.501 -17.5s130.334 -28.167 188.001 -49.5s110 -47.5 157 -78.5s87.5 -65.833 121.5 -104.5c34 38.667 72.667 73.667 116 105s91 58 143 80s108.5 39 169.5 51s125.833 18 194.5 18c119.333 0 225.833 -14.167 319.5 -42.5
s175.834 -67.333 246.501 -117s130.667 -108.667 180 -177s89.333 -142.5 120 -222.5s53 -164.5 67 -253.5s21 -178.833 21 -269.5c0 -12 -0.333008 -26.667 -1 -44s-1.5 -35.333 -2.5 -54s-2.16699 -36.667 -3.5 -54s-3 -32 -5 -44h-1331
c4.66699 -70.667 18.334 -135 41.001 -193s55.667 -107.5 99 -148.5s98.333 -72.833 165 -95.5s146.667 -34 240 -34c62 0 123.833 2.5 185.5 7.5s121.5 12 179.5 21s113.5 20.167 166.5 33.5s102.167 28 147.5 44v-442zM1388.99 889
c-110 0 -205.831 -4.83301 -287.498 -14.5s-149.5 -25.334 -203.5 -47.001s-94.333 -49.667 -121 -84s-40 -76.166 -40 -125.499c0 -34.667 5.83301 -67.334 17.5 -98.001s29.667 -57.5 54 -80.5s55.333 -41.167 93 -54.5s82.5 -20 134.5 -20
c38.667 0 76.167 2.66699 112.5 8s71.166 12.833 104.499 22.5s65.166 21.334 95.499 35.001s58.833 28.5 85.5 44.5v200.5v213.5h-45zM2777 1286c-6 68.667 -18.5 130.334 -37.5 185.001s-44.833 101.167 -77.5 139.5s-72 67.666 -118 87.999s-99.333 30.5 -160 30.5
s-113.834 -10.167 -159.5 -30.5c-45.667 -20.333 -84.334 -49.666 -116 -87.999c-31.667 -38.333 -56.667 -84.833 -75 -139.5s-29.833 -116.334 -34.5 -185.001h778z" />
    <glyph glyph-name="ccedilla" unicode="&#xe7;" horiz-adv-x="1913" 
d="M709 -586c26.667 -6 54.0039 -10.8281 82.0039 -14.4951s60.667 -5.5 98 -5.5c24.667 0 48.667 2.33301 72 7s44.166 12.167 62.499 22.5s33.166 23.5 44.499 39.5s17 35.333 17 58c0 24.667 -8.5 46.834 -25.5 66.501s-39.167 36.834 -66.5 51.501
s-58.666 26.5 -93.999 35.5s-71.333 15.167 -108 18.5l151 258c-126 17.333 -237.167 55.166 -333.5 113.499s-177.166 134.5 -242.499 228.5s-114.666 204.333 -147.999 331s-50 266.667 -50 420c0 119.333 9.16699 229.833 27.5 331.5s45.833 194 82.5 277
s82.334 156.333 137.001 220s118.167 117 190.5 160s153.666 75.5 243.999 97.5s189.5 33 297.5 33c53.333 0 109.666 -2.66699 168.999 -8s117.166 -12.833 173.499 -22.5s108.666 -21.334 156.999 -35c48.333 -13.667 87.833 -28.834 118.5 -45.501v-459
c-36.667 13.333 -75 25.166 -115 35.499s-82 19 -126 26s-90.167 12.167 -138.5 15.5s-99.166 5 -152.499 5c-84 0 -156.833 -15.333 -218.5 -46s-112.834 -73.167 -153.501 -127.5s-70.834 -119.166 -90.501 -194.499s-29.5 -157.333 -29.5 -246
c0 -89.333 10 -172.833 30 -250.5s50.5 -145.167 91.5 -202.5s92.667 -102.666 155 -135.999s135.5 -50 219.5 -50c54 0 105.833 1.83301 155.5 5.5s97.167 9 142.5 16s88.5 15.5 129.5 25.5s80.167 21.667 117.5 35v-447c-32.667 -15.333 -69.334 -29.333 -110.001 -42
s-84.167 -23.834 -130.5 -33.501s-95.166 -17.834 -146.499 -24.501s-104 -11.334 -158 -14.001l-66 -140c40.667 -4 79.667 -14.5 117 -31.5s70.166 -39.167 98.499 -66.5s50.833 -58.833 67.5 -94.5s25 -73.834 25 -114.501c0 -42 -6.33301 -80.167 -19 -114.5
s-30.667 -65.333 -54 -93s-51.166 -51.834 -83.499 -72.501s-68.5 -37.834 -108.5 -51.501s-82.833 -24 -128.5 -31s-93.5 -10.5 -143.5 -10.5c-45.333 0 -87.333 2.83301 -126 8.5s-74.334 12.5 -107.001 20.5v262z" />
    <glyph glyph-name="egrave" unicode="&#xe8;" horiz-adv-x="2224" 
d="M1950 86c-48 -22.667 -98.335 -42.998 -151.002 -60.998s-109.334 -33.333 -170.001 -46s-126 -22.5 -196 -29.5s-146.333 -10.5 -229 -10.5c-114.667 0 -220 11.5 -316 34.5s-182.5 56.667 -259.5 101s-144.5 98.333 -202.5 162s-106.333 136.334 -145 218.001
s-67.834 171.5 -87.501 269.5s-29.5 203.333 -29.5 316c0 102 7.33301 200.667 22 296s37.834 184.666 69.501 267.999s72.5 159.5 122.5 228.5s110.167 128.333 180.5 178s151.5 88.167 243.5 115.5s196 41 312 41c119.333 0 225.833 -14.167 319.5 -42.5
s175.834 -67.333 246.501 -117s130.667 -108.667 180 -177s89.333 -142.5 120 -222.5s53 -164.5 67 -253.5s21 -178.833 21 -269.5c0 -12 -0.333008 -26.667 -1 -44s-1.5 -35.333 -2.5 -54s-2.16699 -36.667 -3.5 -54s-3 -32 -5 -44h-1331
c4.66699 -70.667 18.334 -134.834 41.001 -192.501s55.667 -106.834 99 -147.501s98.333 -72 165 -94s146.667 -33 240 -33c62.667 0 124.834 2.5 186.501 7.5s121.5 12 179.5 21s113.5 20.167 166.5 33.5s102.167 28 147.5 44v-442zM1507 1286
c-5.33301 68.667 -17.166 130.334 -35.499 185.001s-43.833 101.167 -76.5 139.5s-72.334 67.666 -119.001 87.999s-100.667 30.5 -162 30.5s-115 -10.167 -161 -30.5s-84.667 -49.666 -116 -87.999s-55.833 -84.833 -73.5 -139.5s-29.167 -116.334 -34.5 -185.001h778z
M971.998 2408l-606 648h647l385 -648h-426z" />
    <glyph glyph-name="eacute" unicode="&#xe9;" horiz-adv-x="2224" 
d="M1950 86c-48 -22.667 -98.335 -42.998 -151.002 -60.998s-109.334 -33.333 -170.001 -46s-126 -22.5 -196 -29.5s-146.333 -10.5 -229 -10.5c-114.667 0 -220 11.5 -316 34.5s-182.5 56.667 -259.5 101s-144.5 98.333 -202.5 162s-106.333 136.334 -145 218.001
s-67.834 171.5 -87.501 269.5s-29.5 203.333 -29.5 316c0 102 7.33301 200.667 22 296s37.834 184.666 69.501 267.999s72.5 159.5 122.5 228.5s110.167 128.333 180.5 178s151.5 88.167 243.5 115.5s196 41 312 41c119.333 0 225.833 -14.167 319.5 -42.5
s175.834 -67.333 246.501 -117s130.667 -108.667 180 -177s89.333 -142.5 120 -222.5s53 -164.5 67 -253.5s21 -178.833 21 -269.5c0 -12 -0.333008 -26.667 -1 -44s-1.5 -35.333 -2.5 -54s-2.16699 -36.667 -3.5 -54s-3 -32 -5 -44h-1331
c4.66699 -70.667 18.334 -134.834 41.001 -192.501s55.667 -106.834 99 -147.501s98.333 -72 165 -94s146.667 -33 240 -33c62.667 0 124.834 2.5 186.501 7.5s121.5 12 179.5 21s113.5 20.167 166.5 33.5s102.167 28 147.5 44v-442zM1507 1286
c-5.33301 68.667 -17.166 130.334 -35.499 185.001s-43.833 101.167 -76.5 139.5s-72.334 67.666 -119.001 87.999s-100.667 30.5 -162 30.5s-115 -10.167 -161 -30.5s-84.667 -49.666 -116 -87.999s-55.833 -84.833 -73.5 -139.5s-29.167 -116.334 -34.5 -185.001h778z
M831.998 2408l385 648h647l-606 -648h-426z" />
    <glyph glyph-name="ecircumflex" unicode="&#xea;" horiz-adv-x="2224" 
d="M1950 86c-48 -22.667 -98.335 -42.998 -151.002 -60.998s-109.334 -33.333 -170.001 -46s-126 -22.5 -196 -29.5s-146.333 -10.5 -229 -10.5c-114.667 0 -220 11.5 -316 34.5s-182.5 56.667 -259.5 101s-144.5 98.333 -202.5 162s-106.333 136.334 -145 218.001
s-67.834 171.5 -87.501 269.5s-29.5 203.333 -29.5 316c0 102 7.33301 200.667 22 296s37.834 184.666 69.501 267.999s72.5 159.5 122.5 228.5s110.167 128.333 180.5 178s151.5 88.167 243.5 115.5s196 41 312 41c119.333 0 225.833 -14.167 319.5 -42.5
s175.834 -67.333 246.501 -117s130.667 -108.667 180 -177s89.333 -142.5 120 -222.5s53 -164.5 67 -253.5s21 -178.833 21 -269.5c0 -12 -0.333008 -26.667 -1 -44s-1.5 -35.333 -2.5 -54s-2.16699 -36.667 -3.5 -54s-3 -32 -5 -44h-1331
c4.66699 -70.667 18.334 -134.834 41.001 -192.501s55.667 -106.834 99 -147.501s98.333 -72 165 -94s146.667 -33 240 -33c62.667 0 124.834 2.5 186.501 7.5s121.5 12 179.5 21s113.5 20.167 166.5 33.5s102.167 28 147.5 44v-442zM1507 1286
c-5.33301 68.667 -17.166 130.334 -35.499 185.001s-43.833 101.167 -76.5 139.5s-72.334 67.666 -119.001 87.999s-100.667 30.5 -162 30.5s-115 -10.167 -161 -30.5s-84.667 -49.666 -116 -87.999s-55.833 -84.833 -73.5 -139.5s-29.167 -116.334 -34.5 -185.001h778z
M1397 2408l-283 336l-279 -336h-409l434 648h512l434 -648h-409z" />
    <glyph glyph-name="edieresis" unicode="&#xeb;" horiz-adv-x="2224" 
d="M1950 86c-48 -22.667 -98.335 -42.998 -151.002 -60.998s-109.334 -33.333 -170.001 -46s-126 -22.5 -196 -29.5s-146.333 -10.5 -229 -10.5c-114.667 0 -220 11.5 -316 34.5s-182.5 56.667 -259.5 101s-144.5 98.333 -202.5 162s-106.333 136.334 -145 218.001
s-67.834 171.5 -87.501 269.5s-29.5 203.333 -29.5 316c0 102 7.33301 200.667 22 296s37.834 184.666 69.501 267.999s72.5 159.5 122.5 228.5s110.167 128.333 180.5 178s151.5 88.167 243.5 115.5s196 41 312 41c119.333 0 225.833 -14.167 319.5 -42.5
s175.834 -67.333 246.501 -117s130.667 -108.667 180 -177s89.333 -142.5 120 -222.5s53 -164.5 67 -253.5s21 -178.833 21 -269.5c0 -12 -0.333008 -26.667 -1 -44s-1.5 -35.333 -2.5 -54s-2.16699 -36.667 -3.5 -54s-3 -32 -5 -44h-1331
c4.66699 -70.667 18.334 -134.834 41.001 -192.501s55.667 -106.834 99 -147.501s98.333 -72 165 -94s146.667 -33 240 -33c62.667 0 124.834 2.5 186.501 7.5s121.5 12 179.5 21s113.5 20.167 166.5 33.5s102.167 28 147.5 44v-442zM1507 1286
c-5.33301 68.667 -17.166 130.334 -35.499 185.001s-43.833 101.167 -76.5 139.5s-72.334 67.666 -119.001 87.999s-100.667 30.5 -162 30.5s-115 -10.167 -161 -30.5s-84.667 -49.666 -116 -87.999s-55.833 -84.833 -73.5 -139.5s-29.167 -116.334 -34.5 -185.001h778z
M437.998 2482v500h537v-500h-537zM1253 2482v500h537v-500h-537z" />
    <glyph glyph-name="igrave" unicode="&#xec;" horiz-adv-x="1233" 
d="M336 0v2101h561v-2101h-561zM472 2408l-606 648h647l385 -648h-426z" />
    <glyph glyph-name="iacute" unicode="&#xed;" horiz-adv-x="1233" 
d="M336 0v2101h561v-2101h-561zM333 2408l385 648h647l-606 -648h-426z" />
    <glyph glyph-name="icircumflex" unicode="&#xee;" horiz-adv-x="1233" 
d="M336 0v2101h561v-2101h-561zM899 2408l-283 336l-279 -336h-409l434 648h512l434 -648h-409z" />
    <glyph glyph-name="idieresis" unicode="&#xef;" horiz-adv-x="1233" 
d="M336 0v2101h561v-2101h-561zM-60 2482v500h537v-500h-537zM755 2482v500h537v-500h-537z" />
    <glyph glyph-name="eth" unicode="&#xf0;" horiz-adv-x="2433" 
d="M1602 2486c97.333 -91.333 186.672 -190.498 268.005 -297.498s151.166 -221 209.499 -342s103.833 -248 136.5 -381s49 -270.5 49 -412.5c0 -108.667 -8.33301 -211.834 -25 -309.501s-42.834 -187.834 -78.501 -270.501s-81.167 -157.334 -136.5 -224.001
s-121.833 -123.334 -199.5 -170.001s-167 -82.5 -268 -107.5s-214.5 -37.5 -340.5 -37.5c-130 0 -246.167 11.833 -348.5 35.5s-192.333 57.5 -270 101.5s-143.834 97 -198.501 159s-99.167 131.333 -133.5 208s-59.333 159.834 -75 249.501s-23.5 184.167 -23.5 283.5
s9.5 193 28.5 281s46.667 168.667 83 242s81.166 139 134.499 197s114.333 107 183 147s144.5 70.667 227.5 92s172.833 32 269.5 32c46 0 89.333 -3.16699 130 -9.5s79 -15.333 115 -27s70 -25.5 102 -41.5s62.333 -33.667 91 -53c-56 90.667 -116 174.834 -180 252.501
s-131 150.5 -201 218.5l-594 -242v353l303 122c-60 41.333 -118.833 79.166 -176.5 113.5c-57.667 34.333 -113.5 64.833 -167.5 91.5l229 266c48 -17.333 96 -36.166 144 -56.5c48 -20.333 95.833 -42.333 143.5 -66s94.667 -49.167 141 -76.5s92.166 -56.333 137.499 -87
l647 262v-352zM1217.01 389.002c86 0 158.834 14.499 218.501 43.499s108.334 69.5 146.001 121.5s64.834 113.5 81.501 184.5s25 148.5 25 232.5s-8.33301 161.667 -25 233s-43.834 133.166 -81.501 185.499s-86.334 93.166 -146.001 122.499s-132.5 44 -218.5 44
s-159 -14.667 -219 -44s-108.833 -70.166 -146.5 -122.499s-64.834 -114.166 -81.501 -185.499s-25 -149 -25 -233c0 -56 3.66699 -109.333 11 -160s18.833 -97.5 34.5 -140.5s36 -81.833 61 -116.5s55 -64.167 90 -88.5s75.333 -43.166 121 -56.499s97.167 -20 154.5 -20z
" />
    <glyph glyph-name="ntilde" unicode="&#xf1;" horiz-adv-x="2568" 
d="M1720 0v1303c0 64.667 -8.16699 120.5 -24.5 167.5s-40.666 86 -72.999 117s-72.5 54 -120.5 69s-103.667 22.5 -167 22.5c-43.333 0 -84.833 -2.5 -124.5 -7.5s-77.834 -12.333 -114.501 -22s-71.5 -21.667 -104.5 -36s-64.5 -30.5 -94.5 -48.5v-1565h-561v2101h487
l45 -172c42.667 38.667 87.667 72.834 135 102.501s97.833 54.5 151.5 74.5s111 35.167 172 45.5s126.833 15.5 197.5 15.5c88.667 0 169 -8.5 241 -25.5s136 -41.667 192 -74s104.333 -71.666 145 -117.999s74.334 -98.833 101 -157.5
c26.667 -58.667 46.334 -122.834 59 -192.501c12.667 -69.667 19 -144.167 19 -223.5v-1376h-561zM2081 3015c0 -93.333 -12.4971 -176.665 -37.4971 -249.999c-25 -73.333 -59.667 -135.5 -104 -186.5s-96.833 -90 -157.5 -117s-126.334 -40.5 -197.001 -40.5
c-40.667 0 -78.667 4.66699 -114 14s-68.666 21.166 -99.999 35.5c-31.333 14.333 -61 29.833 -89 46.5l-81.5 46.5c-26.333 14.333 -51.833 26.166 -76.5 35.5c-24.667 9.33301 -49.667 14 -75 14c-28.667 0 -54 -4 -76 -12s-40.5 -19.667 -55.5 -35
s-26.667 -34.166 -35 -56.5c-8.33301 -22.333 -12.833 -47.833 -13.5 -76.5h-336c0 93.333 12.167 176.666 36.5 250c24.333 73.333 58.166 135.5 101.499 186.5s94.666 90 153.999 117s124.333 40.5 195 40.5c40.667 0 79 -4.83301 115 -14.5s70 -21.5 102 -35.5
s62.333 -29.5 91 -46.5s56.334 -32.5 83.001 -46.5s52.667 -25.833 78 -35.5s50.666 -14.5 75.999 -14.5c28.667 0 54.167 3.83301 76.5 11.5s41.166 19.167 56.499 34.5s27 34.166 35 56.499s12 48.5 12 78.5h336z" />
    <glyph glyph-name="ograve" unicode="&#xf2;" horiz-adv-x="2433" 
d="M1217 -66c-125.333 0 -238.501 12.501 -339.501 37.501s-190.333 60.833 -268 107.5s-144.334 103.167 -200.001 169.5s-101.334 140.833 -137.001 223.5s-62 172.5 -79 269.5s-25.5 199.5 -25.5 307.5c0 108.667 8.83301 211.667 26.5 309s45 187.333 82 270
s83.833 157.334 140.5 224.001s123.834 123.334 201.501 170.001s166.167 82.5 265.5 107.5s210.333 37.5 333 37.5c125.333 0 238.333 -12.5 339 -37.5s189.834 -60.833 267.501 -107.5s144.334 -103.167 200.001 -169.5s101.334 -140.666 137.001 -222.999
s62 -172 79 -269s25.5 -199.5 25.5 -307.5c0 -108.667 -8.83301 -211.834 -26.5 -309.501s-45 -187.834 -82 -270.501s-83.833 -157.334 -140.5 -224.001s-123.834 -123.334 -201.501 -170.001s-166.167 -82.5 -265.5 -107.5s-210 -37.5 -332 -37.5zM1217 389.001
c88 0 162 17.5029 222 52.5029s108.5 82.5 145.5 142.5s63.5 130.333 79.5 211s24 166.667 24 258c0 90.667 -8 176.167 -24 256.5s-42.5 150.166 -79.5 209.499s-85.5 106.333 -145.5 141s-134 52 -222 52s-162.167 -17.5 -222.5 -52.5s-109 -82.5 -146 -142.5
s-63.5 -130.333 -79.5 -211s-24 -166.334 -24 -257.001c0 -91.333 8 -177 24 -257s42.5 -149.833 79.5 -209.5s85.667 -106.834 146 -141.501s134.5 -52 222.5 -52zM1073 2408l-606 648h647l385 -648h-426z" />
    <glyph glyph-name="oacute" unicode="&#xf3;" horiz-adv-x="2433" 
d="M1217 -66c-125.333 0 -238.501 12.501 -339.501 37.501s-190.333 60.833 -268 107.5s-144.334 103.167 -200.001 169.5s-101.334 140.833 -137.001 223.5s-62 172.5 -79 269.5s-25.5 199.5 -25.5 307.5c0 108.667 8.83301 211.667 26.5 309s45 187.333 82 270
s83.833 157.334 140.5 224.001s123.834 123.334 201.501 170.001s166.167 82.5 265.5 107.5s210.333 37.5 333 37.5c125.333 0 238.333 -12.5 339 -37.5s189.834 -60.833 267.501 -107.5s144.334 -103.167 200.001 -169.5s101.334 -140.666 137.001 -222.999
s62 -172 79 -269s25.5 -199.5 25.5 -307.5c0 -108.667 -8.83301 -211.834 -26.5 -309.501s-45 -187.834 -82 -270.501s-83.833 -157.334 -140.5 -224.001s-123.834 -123.334 -201.501 -170.001s-166.167 -82.5 -265.5 -107.5s-210 -37.5 -332 -37.5zM1217 389.001
c88 0 162 17.5029 222 52.5029s108.5 82.5 145.5 142.5s63.5 130.333 79.5 211s24 166.667 24 258c0 90.667 -8 176.167 -24 256.5s-42.5 150.166 -79.5 209.499s-85.5 106.333 -145.5 141s-134 52 -222 52s-162.167 -17.5 -222.5 -52.5s-109 -82.5 -146 -142.5
s-63.5 -130.333 -79.5 -211s-24 -166.334 -24 -257.001c0 -91.333 8 -177 24 -257s42.5 -149.833 79.5 -209.5s85.667 -106.834 146 -141.501s134.5 -52 222.5 -52zM933.999 2408l385 648h647l-606 -648h-426z" />
    <glyph glyph-name="ocircumflex" unicode="&#xf4;" horiz-adv-x="2433" 
d="M1217 -66c-125.333 0 -238.501 12.501 -339.501 37.501s-190.333 60.833 -268 107.5s-144.334 103.167 -200.001 169.5s-101.334 140.833 -137.001 223.5s-62 172.5 -79 269.5s-25.5 199.5 -25.5 307.5c0 108.667 8.83301 211.667 26.5 309s45 187.333 82 270
s83.833 157.334 140.5 224.001s123.834 123.334 201.501 170.001s166.167 82.5 265.5 107.5s210.333 37.5 333 37.5c125.333 0 238.333 -12.5 339 -37.5s189.834 -60.833 267.501 -107.5s144.334 -103.167 200.001 -169.5s101.334 -140.666 137.001 -222.999
s62 -172 79 -269s25.5 -199.5 25.5 -307.5c0 -108.667 -8.83301 -211.834 -26.5 -309.501s-45 -187.834 -82 -270.501s-83.833 -157.334 -140.5 -224.001s-123.834 -123.334 -201.501 -170.001s-166.167 -82.5 -265.5 -107.5s-210 -37.5 -332 -37.5zM1217 389.001
c88 0 162 17.5029 222 52.5029s108.5 82.5 145.5 142.5s63.5 130.333 79.5 211s24 166.667 24 258c0 90.667 -8 176.167 -24 256.5s-42.5 150.166 -79.5 209.499s-85.5 106.333 -145.5 141s-134 52 -222 52s-162.167 -17.5 -222.5 -52.5s-109 -82.5 -146 -142.5
s-63.5 -130.333 -79.5 -211s-24 -166.334 -24 -257.001c0 -91.333 8 -177 24 -257s42.5 -149.833 79.5 -209.5s85.667 -106.834 146 -141.501s134.5 -52 222.5 -52zM1500 2408l-283 336l-279 -336h-409l434 648h512l434 -648h-409z" />
    <glyph glyph-name="otilde" unicode="&#xf5;" horiz-adv-x="2433" 
d="M1217 -66c-125.333 0 -238.501 12.501 -339.501 37.501s-190.333 60.833 -268 107.5s-144.334 103.167 -200.001 169.5s-101.334 140.833 -137.001 223.5s-62 172.5 -79 269.5s-25.5 199.5 -25.5 307.5c0 108.667 8.83301 211.667 26.5 309s45 187.333 82 270
s83.833 157.334 140.5 224.001s123.834 123.334 201.501 170.001s166.167 82.5 265.5 107.5s210.333 37.5 333 37.5c125.333 0 238.333 -12.5 339 -37.5s189.834 -60.833 267.501 -107.5s144.334 -103.167 200.001 -169.5s101.334 -140.666 137.001 -222.999
s62 -172 79 -269s25.5 -199.5 25.5 -307.5c0 -108.667 -8.83301 -211.834 -26.5 -309.501s-45 -187.834 -82 -270.501s-83.833 -157.334 -140.5 -224.001s-123.834 -123.334 -201.501 -170.001s-166.167 -82.5 -265.5 -107.5s-210 -37.5 -332 -37.5zM1217 389.001
c88 0 162 17.5029 222 52.5029s108.5 82.5 145.5 142.5s63.5 130.333 79.5 211s24 166.667 24 258c0 90.667 -8 176.167 -24 256.5s-42.5 150.166 -79.5 209.499s-85.5 106.333 -145.5 141s-134 52 -222 52s-162.167 -17.5 -222.5 -52.5s-109 -82.5 -146 -142.5
s-63.5 -130.333 -79.5 -211s-24 -166.334 -24 -257.001c0 -91.333 8 -177 24 -257s42.5 -149.833 79.5 -209.5s85.667 -106.834 146 -141.501s134.5 -52 222.5 -52zM1991 3015c0 -93.333 -12.4971 -176.666 -37.4971 -250c-25 -73.333 -59.667 -135.5 -104 -186.5
s-96.833 -90 -157.5 -117s-126.334 -40.5 -197.001 -40.5c-40.667 0 -78.667 4.66699 -114 14s-68.666 21.166 -99.999 35.5c-31.333 14.333 -61 29.833 -89 46.5l-81.5 46.5c-26.333 14.333 -51.833 26.166 -76.5 35.5c-24.667 9.33301 -49.667 14 -75 14
c-28.667 0 -54 -4 -76 -12s-40.5 -19.667 -55.5 -35s-26.667 -34.166 -35 -56.5c-8.33301 -22.333 -12.833 -47.833 -13.5 -76.5h-336c0 93.333 12.167 176.666 36.5 250c24.333 73.333 58.166 135.5 101.499 186.5s94.666 90 153.999 117s124.333 40.5 195 40.5
c40.667 0 79 -4.83301 115 -14.5s70 -21.5 102 -35.5s62.333 -29.5 91 -46.5s56.334 -32.5 83.001 -46.5s52.667 -25.833 78 -35.5s50.666 -14.5 75.999 -14.5c28.667 0 54.167 3.83301 76.5 11.5s41.166 19.167 56.499 34.5s27 34.166 35 56.5c8 22.333 12 48.5 12 78.5
h336z" />
    <glyph glyph-name="odieresis" unicode="&#xf6;" horiz-adv-x="2433" 
d="M1217 -66c-125.333 0 -238.501 12.501 -339.501 37.501s-190.333 60.833 -268 107.5s-144.334 103.167 -200.001 169.5s-101.334 140.833 -137.001 223.5s-62 172.5 -79 269.5s-25.5 199.5 -25.5 307.5c0 108.667 8.83301 211.667 26.5 309s45 187.333 82 270
s83.833 157.334 140.5 224.001s123.834 123.334 201.501 170.001s166.167 82.5 265.5 107.5s210.333 37.5 333 37.5c125.333 0 238.333 -12.5 339 -37.5s189.834 -60.833 267.501 -107.5s144.334 -103.167 200.001 -169.5s101.334 -140.666 137.001 -222.999
s62 -172 79 -269s25.5 -199.5 25.5 -307.5c0 -108.667 -8.83301 -211.834 -26.5 -309.501s-45 -187.834 -82 -270.501s-83.833 -157.334 -140.5 -224.001s-123.834 -123.334 -201.501 -170.001s-166.167 -82.5 -265.5 -107.5s-210 -37.5 -332 -37.5zM1217 389.001
c88 0 162 17.5029 222 52.5029s108.5 82.5 145.5 142.5s63.5 130.333 79.5 211s24 166.667 24 258c0 90.667 -8 176.167 -24 256.5s-42.5 150.166 -79.5 209.499s-85.5 106.333 -145.5 141s-134 52 -222 52s-162.167 -17.5 -222.5 -52.5s-109 -82.5 -146 -142.5
s-63.5 -130.333 -79.5 -211s-24 -166.334 -24 -257.001c0 -91.333 8 -177 24 -257s42.5 -149.833 79.5 -209.5s85.667 -106.834 146 -141.501s134.5 -52 222.5 -52zM540.999 2482v500h537v-500h-537zM1356 2482v500h537v-500h-537z" />
    <glyph glyph-name="divide" unicode="&#xf7;" horiz-adv-x="2458" 
d="M123 987v467h2212v-467h-2212zM950 1778v549h561v-549h-561zM950 115v549h561v-549h-561z" />
    <glyph glyph-name="oslash" unicode="&#xf8;" horiz-adv-x="2433" 
d="M111 -41l265.999 328.002c-37.333 48.667 -69.166 101.5 -95.499 158.5s-47.833 117.5 -64.5 181.5s-29 131.333 -37 202s-12 144 -12 220c0 108.667 8.83301 211.667 26.5 309s45 187.333 82 270s83.833 157.334 140.5 224.001s123.834 123.334 201.501 170.001
s166.167 82.5 265.5 107.5s210.333 37.5 333 37.5c128.667 0 244.334 -13.833 347.001 -41.5s193 -65.834 271 -114.5l107 131h380l-270 -332c36.667 -48 68.5 -100.167 95.5 -156.5s49.167 -116.333 66.5 -180s30.166 -130.667 38.499 -201s12.5 -143.5 12.5 -219.5
c0 -108.667 -8.83301 -211.834 -26.5 -309.501s-45 -187.834 -82 -270.501s-83.833 -157.334 -140.5 -224.001s-123.834 -123.334 -201.501 -170.001s-166.167 -82.5 -265.5 -107.5s-210 -37.5 -332 -37.5c-129.333 0 -245.333 13.5 -348 40.5s-193 64.167 -271 111.5
l-102 -127h-385zM949.999 467.002c33.333 -24.667 72.167 -43.833 116.5 -57.5s94.5 -20.5 150.5 -20.5c88 0 162 17.5 222 52.5s108.5 82.5 145.5 142.5s63.5 130.333 79.5 211s24 166.667 24 258c0 51.333 -3 100.333 -9 147s-14 91.667 -24 135zM1483 1630
c-35.333 24.667 -74.668 44.501 -118.001 59.501s-92.666 22.5 -147.999 22.5c-88 0 -162.167 -17.5 -222.5 -52.5s-109 -82.5 -146 -142.5s-63.5 -130.333 -79.5 -211s-24 -166.334 -24 -257.001c0 -52 2.33301 -101.333 7 -148s12 -91.667 22 -135z" />
    <glyph glyph-name="ugrave" unicode="&#xf9;" horiz-adv-x="2531" 
d="M1708 0l-44.9971 168.002c-41.333 -38 -84.333 -71.5 -129 -100.5s-92.334 -53.5 -143.001 -73.5s-104.667 -35 -162 -45s-119 -15 -185 -15c-88.667 0 -169 8.5 -241 25.5s-136 41.667 -192 74s-104.333 71.666 -145 117.999s-74.334 98.833 -101.001 157.5
s-46.334 122.834 -59.001 192.501s-19 144.167 -19 223.5v1376h561v-1302c0 -64.667 8.16699 -120.834 24.5 -168.501s40.666 -87.334 72.999 -119.001s72.5 -55.167 120.5 -70.5s103.667 -23 167 -23c38 0 74.833 2.5 110.5 7.5s70.334 12.167 104.001 21.5
s66 20.833 97 34.5s60.833 29.167 89.5 46.5v1573h561v-2101h-487zM1098 2408l-606 648h647l385 -648h-426z" />
    <glyph glyph-name="uacute" unicode="&#xfa;" horiz-adv-x="2531" 
d="M1708 0l-44.9971 168.002c-41.333 -38 -84.333 -71.5 -129 -100.5s-92.334 -53.5 -143.001 -73.5s-104.667 -35 -162 -45s-119 -15 -185 -15c-88.667 0 -169 8.5 -241 25.5s-136 41.667 -192 74s-104.333 71.666 -145 117.999s-74.334 98.833 -101.001 157.5
s-46.334 122.834 -59.001 192.501s-19 144.167 -19 223.5v1376h561v-1302c0 -64.667 8.16699 -120.834 24.5 -168.501s40.666 -87.334 72.999 -119.001s72.5 -55.167 120.5 -70.5s103.667 -23 167 -23c38 0 74.833 2.5 110.5 7.5s70.334 12.167 104.001 21.5
s66 20.833 97 34.5s60.833 29.167 89.5 46.5v1573h561v-2101h-487zM959.003 2408l385 648h647l-606 -648h-426z" />
    <glyph glyph-name="ucircumflex" unicode="&#xfb;" horiz-adv-x="2531" 
d="M1708 0l-44.9971 168.002c-41.333 -38 -84.333 -71.5 -129 -100.5s-92.334 -53.5 -143.001 -73.5s-104.667 -35 -162 -45s-119 -15 -185 -15c-88.667 0 -169 8.5 -241 25.5s-136 41.667 -192 74s-104.333 71.666 -145 117.999s-74.334 98.833 -101.001 157.5
s-46.334 122.834 -59.001 192.501s-19 144.167 -19 223.5v1376h561v-1302c0 -64.667 8.16699 -120.834 24.5 -168.501s40.666 -87.334 72.999 -119.001s72.5 -55.167 120.5 -70.5s103.667 -23 167 -23c38 0 74.833 2.5 110.5 7.5s70.334 12.167 104.001 21.5
s66 20.833 97 34.5s60.833 29.167 89.5 46.5v1573h561v-2101h-487zM1524 2408l-283 336l-279 -336h-409l434 648h512l434 -648h-409z" />
    <glyph glyph-name="udieresis" unicode="&#xfc;" horiz-adv-x="2531" 
d="M1708 0l-44.9971 168.002c-41.333 -38 -84.333 -71.5 -129 -100.5s-92.334 -53.5 -143.001 -73.5s-104.667 -35 -162 -45s-119 -15 -185 -15c-88.667 0 -169 8.5 -241 25.5s-136 41.667 -192 74s-104.333 71.666 -145 117.999s-74.334 98.833 -101.001 157.5
s-46.334 122.834 -59.001 192.501s-19 144.167 -19 223.5v1376h561v-1302c0 -64.667 8.16699 -120.834 24.5 -168.501s40.666 -87.334 72.999 -119.001s72.5 -55.167 120.5 -70.5s103.667 -23 167 -23c38 0 74.833 2.5 110.5 7.5s70.334 12.167 104.001 21.5
s66 20.833 97 34.5s60.833 29.167 89.5 46.5v1573h561v-2101h-487zM565.003 2482v500h537v-500h-537zM1380 2482v500h537v-500h-537z" />
    <glyph glyph-name="yacute" unicode="&#xfd;" horiz-adv-x="2150" 
d="M0 -471c30.667 -6 61.501 -10.167 92.501 -12.5s62.833 -3.5 95.5 -3.5c49.333 0 95.333 2.33301 138 7s82.667 13 120 25s72 28.5 104 49.5s62 47.5 90 79.5s54 70.5 78 115.5s46.667 97.5 68 157.5l9 20l-779 2134h611l381 -1241
c12 -43.333 24.667 -93.166 38 -149.499s25 -114.166 35 -173.499c12.667 59.333 26 117.166 40 173.499s28 106.166 42 149.499l402 1241h569l-754 -2121c-40.667 -114 -83.667 -216.333 -129 -307s-94.333 -170.834 -147 -240.501s-109.667 -129.167 -171 -178.5
s-128.333 -89.666 -201 -120.999s-152 -54.333 -238 -69s-179.667 -22 -281 -22c-18.667 0 -37.834 0.666992 -57.501 2s-39 3.33301 -58 6s-37 5.66699 -54 9s-31.5 7 -43.5 11v459zM803.001 2408l385 648h647l-606 -648h-426z" />
    <glyph glyph-name="thorn" unicode="&#xfe;" horiz-adv-x="2552" 
d="M336 -934l0.000976562 4039h561v-1151c32.667 32.667 69.167 62.167 109.5 88.5s84.666 48.666 132.999 67c48.333 18.333 101 32.5 158 42.5s118.833 15 185.5 15c140 0 265.5 -24.667 376.5 -74s205 -121.166 282 -215.499s136 -210.5 177 -348.5
s61.5 -295.333 61.5 -472c0 -115.333 -9.83301 -223.166 -29.5 -323.499s-48.5 -192 -86.5 -275s-84.833 -157.167 -140.5 -222.5s-119.5 -120.333 -191.5 -165s-151.833 -78.667 -239.5 -102s-182.167 -35 -283.5 -35c-52 0 -101.5 3.16699 -148.5 9.5
s-91.667 15.666 -134 27.999s-82.5 27.666 -120.5 45.999s-74.333 39.833 -109 64.5v-1016h-561zM897.001 512c28.667 -17.333 58.9971 -32.501 90.9971 -45.501s65.667 -23.667 101 -32s72.333 -14.5 111 -18.5s79.667 -6 123 -6c84 0 156.333 16.333 217 49
s110.834 77.5 150.501 134.5s68.834 124 87.501 201s28 160.167 28 249.5s-9.66699 173.333 -29 252s-48.833 147.334 -88.5 206.001s-90.167 105 -151.5 139s-134 51 -218 51c-43.333 0 -84.166 -2.16699 -122.499 -6.5s-75 -10.833 -110 -19.5s-68.167 -19.667 -99.5 -33
s-61.333 -29.333 -90 -48v-1073z" />
    <glyph glyph-name="ydieresis" unicode="&#xff;" horiz-adv-x="2150" 
d="M0 -471c30.667 -6 61.501 -10.167 92.501 -12.5s62.833 -3.5 95.5 -3.5c49.333 0 95.333 2.33301 138 7s82.667 13 120 25s72 28.5 104 49.5s62 47.5 90 79.5s54 70.5 78 115.5s46.667 97.5 68 157.5l9 20l-779 2134h611l381 -1241
c12 -43.333 24.667 -93.166 38 -149.499s25 -114.166 35 -173.499c12.667 59.333 26 117.166 40 173.499s28 106.166 42 149.499l402 1241h569l-754 -2121c-40.667 -114 -83.667 -216.333 -129 -307s-94.333 -170.834 -147 -240.501s-109.667 -129.167 -171 -178.5
s-128.333 -89.666 -201 -120.999s-152 -54.333 -238 -69s-179.667 -22 -281 -22c-18.667 0 -37.834 0.666992 -57.501 2s-39 3.33301 -58 6s-37 5.66699 -54 9s-31.5 7 -43.5 11v459zM410.001 2482v500h537v-500h-537zM1225 2482v500h537v-500h-537z" />
    <glyph glyph-name="Amacron" unicode="&#x100;" horiz-adv-x="2822" 
d="M2171 0l-213 639h-1127l-208 -639h-590l1069 2966h618l1069 -2966h-618zM1536 1917c-28.667 88.667 -54.8311 177 -78.498 265s-43.834 178.667 -60.501 272c-16.667 -93.333 -36.834 -184 -60.501 -272s-50.167 -176.333 -79.5 -265l-270 -811h815zM774.003 3257v426
h1254v-426h-1254z" />
    <glyph glyph-name="amacron" unicode="&#x101;" horiz-adv-x="2286" 
d="M1483 0l-29.0029 160.001c-40 -34 -82.833 -64.833 -128.5 -92.5s-94.667 -51.334 -147 -71.001s-108 -35 -167 -46s-121.833 -16.5 -188.5 -16.5c-98 0 -187.5 15 -268.5 45s-150.5 72.333 -208.5 127s-102.833 120.667 -134.5 198s-47.5 163 -47.5 257
c0 82 10.833 156 32.5 222s53.834 124.667 96.501 176s95.334 95.5 158.001 132.5s135 67.5 217 91.5s173.333 41.667 274 53s210 17 328 17c22.667 0 43.834 -0.166992 63.501 -0.5s37.667 -0.833008 54 -1.5s31.833 -1.33398 46.5 -2.00098v45c0 68 -8 126 -24 174
s-41.667 87.333 -77 118s-80.833 53.167 -136.5 67.5s-122.834 21.5 -201.501 21.5c-64.667 0 -127.334 -3 -188.001 -9s-119.167 -14.667 -175.5 -26s-110.166 -25 -161.499 -41s-100 -34.333 -146 -55v447c44 24.667 94 47.5 150 68.5s116.333 39.167 181 54.5
s132.834 27.333 204.501 36s145.5 13 221.5 13c147.333 0 277.833 -15.5 391.5 -46.5s209.167 -80.167 286.5 -147.5s136 -154.166 176 -260.499s60 -234.833 60 -385.5v-1323h-512zM1434 889.001l-44.998 0.000976562c-110 0 -205.833 -4.83301 -287.5 -14.5
s-149.5 -25.334 -203.5 -47.001s-94.333 -49.667 -121 -84s-40 -76.166 -40 -125.499c0 -34.667 5.83301 -67.334 17.5 -98.001s29.667 -57.5 54 -80.5s55.333 -41.167 93 -54.5s82.5 -20 134.5 -20c38.667 0 76.167 2.83301 112.5 8.5s71.166 13.834 104.499 24.501
s65.166 23.167 95.499 37.5s58.833 30.166 85.5 47.499v406zM503.999 2503v426h1254v-426h-1254z" />
    <glyph glyph-name="Abreve" unicode="&#x102;" horiz-adv-x="2822" 
d="M2171 0l-213 639h-1127l-208 -639h-590l1069 2966h618l1069 -2966h-618zM1536 1917c-28.667 88.667 -54.8311 177 -78.498 265s-43.834 178.667 -60.501 272c-16.667 -93.333 -36.834 -184 -60.501 -272s-50.167 -176.333 -79.5 -265l-270 -811h815zM2097 3810
c-4 -91.333 -21.668 -177.5 -53.001 -258.5s-76 -151.833 -134 -212.5s-129.5 -108.667 -214.5 -144s-183.167 -53 -294.5 -53c-112 0 -210.5 17.667 -295.5 53s-156.5 83.333 -214.5 144s-102.5 131.5 -133.5 212.5s-48.5 167.167 -52.5 258.5h352
c2.66699 -37.333 11.834 -73.833 27.501 -109.5s37.667 -67.5 66 -95.5s63.333 -50.667 105 -68s90.167 -26 145.5 -26s103.5 8.83301 144.5 26.5s75.5 40.667 103.5 69s49.5 60.333 64.5 96s24.167 71.5 27.5 107.5h356z" />
    <glyph glyph-name="abreve" unicode="&#x103;" horiz-adv-x="2286" 
d="M1483 0l-29.0029 160.001c-40 -34 -82.833 -64.833 -128.5 -92.5s-94.667 -51.334 -147 -71.001s-108 -35 -167 -46s-121.833 -16.5 -188.5 -16.5c-98 0 -187.5 15 -268.5 45s-150.5 72.333 -208.5 127s-102.833 120.667 -134.5 198s-47.5 163 -47.5 257
c0 82 10.833 156 32.5 222s53.834 124.667 96.501 176s95.334 95.5 158.001 132.5s135 67.5 217 91.5s173.333 41.667 274 53s210 17 328 17c22.667 0 43.834 -0.166992 63.501 -0.5s37.667 -0.833008 54 -1.5s31.833 -1.33398 46.5 -2.00098v45c0 68 -8 126 -24 174
s-41.667 87.333 -77 118s-80.833 53.167 -136.5 67.5s-122.834 21.5 -201.501 21.5c-64.667 0 -127.334 -3 -188.001 -9s-119.167 -14.667 -175.5 -26s-110.166 -25 -161.499 -41s-100 -34.333 -146 -55v447c44 24.667 94 47.5 150 68.5s116.333 39.167 181 54.5
s132.834 27.333 204.501 36s145.5 13 221.5 13c147.333 0 277.833 -15.5 391.5 -46.5s209.167 -80.167 286.5 -147.5s136 -154.166 176 -260.499s60 -234.833 60 -385.5v-1323h-512zM1434 889.001l-44.998 0.000976562c-110 0 -205.833 -4.83301 -287.5 -14.5
s-149.5 -25.334 -203.5 -47.001s-94.333 -49.667 -121 -84s-40 -76.166 -40 -125.499c0 -34.667 5.83301 -67.334 17.5 -98.001s29.667 -57.5 54 -80.5s55.333 -41.167 93 -54.5s82.5 -20 134.5 -20c38.667 0 76.167 2.83301 112.5 8.5s71.166 13.834 104.499 24.501
s65.166 23.167 95.499 37.5s58.833 30.166 85.5 47.499v406zM1827 3056c-4 -91.333 -21.668 -177.5 -53.001 -258.5s-76 -151.833 -134 -212.5s-129.5 -108.667 -214.5 -144s-183.167 -53 -294.5 -53c-112 0 -210.5 17.667 -295.5 53s-156.5 83.333 -214.5 144
s-102.5 131.5 -133.5 212.5s-48.5 167.167 -52.5 258.5h352c2.66699 -37.333 11.834 -73.833 27.501 -109.5s37.667 -67.5 66 -95.5s63.333 -50.667 105 -68s90.167 -26 145.5 -26s103.5 8.83301 144.5 26.5s75.5 40.667 103.5 69s49.5 60.333 64.5 96
s24.167 71.5 27.5 107.5h356z" />
    <glyph glyph-name="Aogonek" unicode="&#x104;" horiz-adv-x="2822" 
d="M2597 -852c-33.333 -8 -68.666 -14.167 -106 -18.5c-37.333 -4.33301 -75.666 -6.5 -114.999 -6.5c-84 0 -159 8.83301 -225 26.5s-121.833 43.5 -167.5 77.5s-80.5 75.667 -104.5 125s-36 105.666 -36 168.999c0 48.667 9 95.334 27 140.001s42.167 87 72.5 127
s65.166 77.667 104.499 113s80.666 68.333 124 99l-213 639h-1127l-208 -639h-590l1069 2966h618l1069 -2966h-311c-34 -34.667 -64.5 -69.5 -91.5 -104.5s-50.167 -69.5 -69.5 -103.5s-34.166 -67.333 -44.5 -100c-10.333 -32.667 -15.5 -63.667 -15.5 -93
c0 -51.333 16.833 -92.833 50.5 -124.5s86.5 -47.5 158.5 -47.5c15.333 0 28.833 0.5 40.5 1.5s22.5 2.16699 32.5 3.5s19.667 3 29 5l29 6v-295zM1536 1917c-28.667 88.667 -54.8311 177 -78.498 265s-43.834 178.667 -60.501 272
c-16.667 -93.333 -36.834 -184 -60.501 -272s-50.167 -176.333 -79.5 -265l-270 -811h815z" />
    <glyph glyph-name="aogonek" unicode="&#x105;" horiz-adv-x="2286" 
d="M1909 -852c-33.333 -8 -68.834 -14.166 -106.501 -18.499s-75.834 -6.5 -114.501 -6.5c-84 0 -159 8.83301 -225 26.5s-121.833 43.5 -167.5 77.5s-80.5 75.667 -104.5 125s-36 105.666 -36 168.999c0 48.667 9 95.334 27 140.001s42.167 87 72.5 127
s65.166 77.667 104.499 113s80.666 68.333 123.999 99l-29 160c-40 -34 -82.833 -64.833 -128.5 -92.5s-94.667 -51.334 -147 -71.001s-108 -35 -167 -46s-121.833 -16.5 -188.5 -16.5c-98 0 -187.5 15 -268.5 45s-150.5 72.333 -208.5 127s-102.833 120.667 -134.5 198
s-47.5 163 -47.5 257c0 82 10.833 156 32.5 222s53.834 124.667 96.501 176s95.334 95.5 158.001 132.5s135 67.5 217 91.5s173.333 41.667 274 53s210 17 328 17c22.667 0 43.834 -0.166992 63.501 -0.5s37.667 -0.833008 54 -1.5s31.833 -1.33398 46.5 -2.00098v45
c0 68 -8 126 -24 174s-41.667 87.333 -77 118s-80.833 53.167 -136.5 67.5s-122.834 21.5 -201.501 21.5c-64.667 0 -127.334 -3 -188.001 -9s-119.167 -14.667 -175.5 -26s-110.166 -25 -161.499 -41s-100 -34.333 -146 -55v447c44 24.667 94 47.5 150 68.5
s116.333 39.167 181 54.5s132.834 27.333 204.501 36s145.5 13 221.5 13c147.333 0 277.833 -15.5 391.5 -46.5s209.167 -80.167 286.5 -147.5s136 -154.166 176 -260.499s60 -234.833 60 -385.5v-1323h-205c-34 -34.667 -64.5 -69.5 -91.5 -104.5
s-50.167 -69.5 -69.5 -103.5s-34.166 -67.333 -44.499 -100s-15.5 -63.667 -15.5 -93c0 -51.333 16.833 -92.833 50.5 -124.5s86.5 -47.5 158.5 -47.5c15.333 0 28.833 0.5 40.5 1.5s22.5 2.16699 32.5 3.5s19.667 3 29 5l29 6v-295zM1434 889.001l-44.998 0.000976562
c-110 0 -205.833 -4.83301 -287.5 -14.5s-149.5 -25.334 -203.5 -47.001s-94.333 -49.667 -121 -84s-40 -76.166 -40 -125.499c0 -34.667 5.83301 -67.334 17.5 -98.001s29.667 -57.5 54 -80.5s55.333 -41.167 93 -54.5s82.5 -20 134.5 -20
c38.667 0 76.167 2.83301 112.5 8.5s71.166 13.834 104.499 24.501s65.166 23.167 95.499 37.5s58.833 30.166 85.5 47.499v406z" />
    <glyph glyph-name="Cacute" unicode="&#x106;" horiz-adv-x="2544" 
d="M2396 102c-60.667 -26.667 -122.003 -50.333 -184.003 -71s-129 -38.167 -201 -52.5s-151.333 -25.333 -238 -33s-184.667 -11.5 -294 -11.5c-142.667 0 -273 16.167 -391 48.5s-223.833 79.5 -317.5 141.5s-175.5 138 -245.5 228s-128 192.833 -174 308.5
s-80.5 243.334 -103.5 383.001s-34.5 290.167 -34.5 451.5c0 150.667 11.833 293.334 35.5 428.001s59.5 258.834 107.5 372.5c48 113.667 108 216 180 307s156.167 168.167 252.5 231.5s205.166 112 326.499 146s255 51 401 51c90 0 175.333 -4.16699 256 -12.5
s156.5 -20.333 227.5 -36s136.833 -34.667 197.5 -57s116 -47.166 166 -74.5v-479c-50 24.667 -104.5 46.834 -163.5 66.5c-59 19.667 -122.333 36.334 -190 50c-67.667 13.667 -140 24.167 -217 31.5s-158.5 11 -244.5 11c-83.333 0 -159.166 -10.667 -227.499 -32
s-129.666 -52.5 -183.999 -93.5s-101.666 -91.5 -141.999 -151.5s-73.833 -128.333 -100.5 -205s-46.5 -161.334 -59.5 -254.001s-19.5 -192.667 -19.5 -300c0 -128 6.83301 -243.333 20.5 -346s34.334 -193.5 62.001 -272.5s62.334 -146.667 104.001 -203
s90.5 -102.5 146.5 -138.5s119 -62.5 189 -79.5s147.333 -25.5 232 -25.5c90 0 172.167 3.16699 246.5 9.5s144.166 15.666 209.499 27.999s128.166 28 188.5 47c60.333 19 121.166 41.5 182.5 67.5v-480zM1209 3162l385 648h647l-606 -648h-426z" />
    <glyph glyph-name="cacute" unicode="&#x107;" horiz-adv-x="1913" 
d="M1782 57c-39.333 -18 -84.1631 -34.334 -134.496 -49.001s-104.5 -27.167 -162.5 -37.5s-119 -18.166 -183 -23.499s-129.333 -8 -196 -8c-151.333 0 -285.333 25.833 -402 77.5s-214.667 125.5 -294 221.5s-139.5 212.167 -180.5 348.5s-61.5 288.833 -61.5 457.5
c0 119.333 9.16699 229.833 27.5 331.5s45.833 194 82.5 277s82.334 156.333 137.001 220s118.167 117 190.5 160s153.666 75.5 243.999 97.5s189.5 33 297.5 33c53.333 0 109.666 -2.66699 168.999 -8s117.166 -12.833 173.499 -22.5s108.666 -21.334 156.999 -35
c48.333 -13.667 87.833 -28.834 118.5 -45.501v-459c-36.667 13.333 -75 25.166 -115 35.499s-82 19 -126 26s-90.167 12.167 -138.5 15.5s-99.166 5 -152.499 5c-84 0 -156.833 -15.333 -218.5 -46s-112.834 -73.167 -153.501 -127.5s-70.834 -119.166 -90.501 -194.499
s-29.5 -157.333 -29.5 -246c0 -89.333 10 -172.833 30 -250.5s50.5 -145.167 91.5 -202.5s92.667 -102.666 155 -135.999s135.5 -50 219.5 -50c54 0 105.833 1.83301 155.5 5.5s97.167 9 142.5 16s88.5 15.5 129.5 25.5s80.167 21.667 117.5 35v-447zM832.003 2408l385 648
h647l-606 -648h-426z" />
    <glyph glyph-name="Ccircumflex" unicode="&#x108;" horiz-adv-x="2544" 
d="M2396 102c-60.667 -26.667 -122.003 -50.333 -184.003 -71s-129 -38.167 -201 -52.5s-151.333 -25.333 -238 -33s-184.667 -11.5 -294 -11.5c-142.667 0 -273 16.167 -391 48.5s-223.833 79.5 -317.5 141.5s-175.5 138 -245.5 228s-128 192.833 -174 308.5
s-80.5 243.334 -103.5 383.001s-34.5 290.167 -34.5 451.5c0 150.667 11.833 293.334 35.5 428.001s59.5 258.834 107.5 372.5c48 113.667 108 216 180 307s156.167 168.167 252.5 231.5s205.166 112 326.499 146s255 51 401 51c90 0 175.333 -4.16699 256 -12.5
s156.5 -20.333 227.5 -36s136.833 -34.667 197.5 -57s116 -47.166 166 -74.5v-479c-50 24.667 -104.5 46.834 -163.5 66.5c-59 19.667 -122.333 36.334 -190 50c-67.667 13.667 -140 24.167 -217 31.5s-158.5 11 -244.5 11c-83.333 0 -159.166 -10.667 -227.499 -32
s-129.666 -52.5 -183.999 -93.5s-101.666 -91.5 -141.999 -151.5s-73.833 -128.333 -100.5 -205s-46.5 -161.334 -59.5 -254.001s-19.5 -192.667 -19.5 -300c0 -128 6.83301 -243.333 20.5 -346s34.334 -193.5 62.001 -272.5s62.334 -146.667 104.001 -203
s90.5 -102.5 146.5 -138.5s119 -62.5 189 -79.5s147.333 -25.5 232 -25.5c90 0 172.167 3.16699 246.5 9.5s144.166 15.666 209.499 27.999s128.166 28 188.5 47c60.333 19 121.166 41.5 182.5 67.5v-480zM1774 3162l-283 336l-279 -336h-409l434 648h512l434 -648h-409z
" />
    <glyph glyph-name="ccircumflex" unicode="&#x109;" horiz-adv-x="1913" 
d="M1782 57c-39.333 -18 -84.1631 -34.334 -134.496 -49.001s-104.5 -27.167 -162.5 -37.5s-119 -18.166 -183 -23.499s-129.333 -8 -196 -8c-151.333 0 -285.333 25.833 -402 77.5s-214.667 125.5 -294 221.5s-139.5 212.167 -180.5 348.5s-61.5 288.833 -61.5 457.5
c0 119.333 9.16699 229.833 27.5 331.5s45.833 194 82.5 277s82.334 156.333 137.001 220s118.167 117 190.5 160s153.666 75.5 243.999 97.5s189.5 33 297.5 33c53.333 0 109.666 -2.66699 168.999 -8s117.166 -12.833 173.499 -22.5s108.666 -21.334 156.999 -35
c48.333 -13.667 87.833 -28.834 118.5 -45.501v-459c-36.667 13.333 -75 25.166 -115 35.499s-82 19 -126 26s-90.167 12.167 -138.5 15.5s-99.166 5 -152.499 5c-84 0 -156.833 -15.333 -218.5 -46s-112.834 -73.167 -153.501 -127.5s-70.834 -119.166 -90.501 -194.499
s-29.5 -157.333 -29.5 -246c0 -89.333 10 -172.833 30 -250.5s50.5 -145.167 91.5 -202.5s92.667 -102.666 155 -135.999s135.5 -50 219.5 -50c54 0 105.833 1.83301 155.5 5.5s97.167 9 142.5 16s88.5 15.5 129.5 25.5s80.167 21.667 117.5 35v-447zM1397 2408l-283 336
l-279 -336h-409l434 648h512l434 -648h-409z" />
    <glyph glyph-name="Cdotaccent" unicode="&#x10a;" horiz-adv-x="2544" 
d="M2396 102c-60.667 -26.667 -122.003 -50.333 -184.003 -71s-129 -38.167 -201 -52.5s-151.333 -25.333 -238 -33s-184.667 -11.5 -294 -11.5c-142.667 0 -273 16.167 -391 48.5s-223.833 79.5 -317.5 141.5s-175.5 138 -245.5 228s-128 192.833 -174 308.5
s-80.5 243.334 -103.5 383.001s-34.5 290.167 -34.5 451.5c0 150.667 11.833 293.334 35.5 428.001s59.5 258.834 107.5 372.5c48 113.667 108 216 180 307s156.167 168.167 252.5 231.5s205.166 112 326.499 146s255 51 401 51c90 0 175.333 -4.16699 256 -12.5
s156.5 -20.333 227.5 -36s136.833 -34.667 197.5 -57s116 -47.166 166 -74.5v-479c-50 24.667 -104.5 46.834 -163.5 66.5c-59 19.667 -122.333 36.334 -190 50c-67.667 13.667 -140 24.167 -217 31.5s-158.5 11 -244.5 11c-83.333 0 -159.166 -10.667 -227.499 -32
s-129.666 -52.5 -183.999 -93.5s-101.666 -91.5 -141.999 -151.5s-73.833 -128.333 -100.5 -205s-46.5 -161.334 -59.5 -254.001s-19.5 -192.667 -19.5 -300c0 -128 6.83301 -243.333 20.5 -346s34.334 -193.5 62.001 -272.5s62.334 -146.667 104.001 -203
s90.5 -102.5 146.5 -138.5s119 -62.5 189 -79.5s147.333 -25.5 232 -25.5c90 0 172.167 3.16699 246.5 9.5s144.166 15.666 209.499 27.999s128.166 28 188.5 47c60.333 19 121.166 41.5 182.5 67.5v-480zM1204 3236v533h570v-533h-570z" />
    <glyph glyph-name="cdotaccent" unicode="&#x10b;" horiz-adv-x="1913" 
d="M1782 57c-39.333 -18 -84.1631 -34.334 -134.496 -49.001s-104.5 -27.167 -162.5 -37.5s-119 -18.166 -183 -23.499s-129.333 -8 -196 -8c-151.333 0 -285.333 25.833 -402 77.5s-214.667 125.5 -294 221.5s-139.5 212.167 -180.5 348.5s-61.5 288.833 -61.5 457.5
c0 119.333 9.16699 229.833 27.5 331.5s45.833 194 82.5 277s82.334 156.333 137.001 220s118.167 117 190.5 160s153.666 75.5 243.999 97.5s189.5 33 297.5 33c53.333 0 109.666 -2.66699 168.999 -8s117.166 -12.833 173.499 -22.5s108.666 -21.334 156.999 -35
c48.333 -13.667 87.833 -28.834 118.5 -45.501v-459c-36.667 13.333 -75 25.166 -115 35.499s-82 19 -126 26s-90.167 12.167 -138.5 15.5s-99.166 5 -152.499 5c-84 0 -156.833 -15.333 -218.5 -46s-112.834 -73.167 -153.501 -127.5s-70.834 -119.166 -90.501 -194.499
s-29.5 -157.333 -29.5 -246c0 -89.333 10 -172.833 30 -250.5s50.5 -145.167 91.5 -202.5s92.667 -102.666 155 -135.999s135.5 -50 219.5 -50c54 0 105.833 1.83301 155.5 5.5s97.167 9 142.5 16s88.5 15.5 129.5 25.5s80.167 21.667 117.5 35v-447zM827.003 2482v533h570
v-533h-570z" />
    <glyph glyph-name="Ccaron" unicode="&#x10c;" horiz-adv-x="2544" 
d="M2396 102c-60.667 -26.667 -122.003 -50.333 -184.003 -71s-129 -38.167 -201 -52.5s-151.333 -25.333 -238 -33s-184.667 -11.5 -294 -11.5c-142.667 0 -273 16.167 -391 48.5s-223.833 79.5 -317.5 141.5s-175.5 138 -245.5 228s-128 192.833 -174 308.5
s-80.5 243.334 -103.5 383.001s-34.5 290.167 -34.5 451.5c0 150.667 11.833 293.334 35.5 428.001s59.5 258.834 107.5 372.5c48 113.667 108 216 180 307s156.167 168.167 252.5 231.5s205.166 112 326.499 146s255 51 401 51c90 0 175.333 -4.16699 256 -12.5
s156.5 -20.333 227.5 -36s136.833 -34.667 197.5 -57s116 -47.166 166 -74.5v-479c-50 24.667 -104.5 46.834 -163.5 66.5c-59 19.667 -122.333 36.334 -190 50c-67.667 13.667 -140 24.167 -217 31.5s-158.5 11 -244.5 11c-83.333 0 -159.166 -10.667 -227.499 -32
s-129.666 -52.5 -183.999 -93.5s-101.666 -91.5 -141.999 -151.5s-73.833 -128.333 -100.5 -205s-46.5 -161.334 -59.5 -254.001s-19.5 -192.667 -19.5 -300c0 -128 6.83301 -243.333 20.5 -346s34.334 -193.5 62.001 -272.5s62.334 -146.667 104.001 -203
s90.5 -102.5 146.5 -138.5s119 -62.5 189 -79.5s147.333 -25.5 232 -25.5c90 0 172.167 3.16699 246.5 9.5s144.166 15.666 209.499 27.999s128.166 28 188.5 47c60.333 19 121.166 41.5 182.5 67.5v-480zM1233 3162l-434 648h409l279 -340l282 340h410l-434 -648h-512z" />
    <glyph glyph-name="ccaron" unicode="&#x10d;" horiz-adv-x="1913" 
d="M1782 57c-39.333 -18 -84.1631 -34.334 -134.496 -49.001s-104.5 -27.167 -162.5 -37.5s-119 -18.166 -183 -23.499s-129.333 -8 -196 -8c-151.333 0 -285.333 25.833 -402 77.5s-214.667 125.5 -294 221.5s-139.5 212.167 -180.5 348.5s-61.5 288.833 -61.5 457.5
c0 119.333 9.16699 229.833 27.5 331.5s45.833 194 82.5 277s82.334 156.333 137.001 220s118.167 117 190.5 160s153.666 75.5 243.999 97.5s189.5 33 297.5 33c53.333 0 109.666 -2.66699 168.999 -8s117.166 -12.833 173.499 -22.5s108.666 -21.334 156.999 -35
c48.333 -13.667 87.833 -28.834 118.5 -45.501v-459c-36.667 13.333 -75 25.166 -115 35.499s-82 19 -126 26s-90.167 12.167 -138.5 15.5s-99.166 5 -152.499 5c-84 0 -156.833 -15.333 -218.5 -46s-112.834 -73.167 -153.501 -127.5s-70.834 -119.166 -90.501 -194.499
s-29.5 -157.333 -29.5 -246c0 -89.333 10 -172.833 30 -250.5s50.5 -145.167 91.5 -202.5s92.667 -102.666 155 -135.999s135.5 -50 219.5 -50c54 0 105.833 1.83301 155.5 5.5s97.167 9 142.5 16s88.5 15.5 129.5 25.5s80.167 21.667 117.5 35v-447zM856.003 2408l-434 648
h409l279 -340l282 340h410l-434 -648h-512z" />
    <glyph glyph-name="Dcaron" unicode="&#x10e;" horiz-adv-x="3006" 
d="M369 0v2966h1048c172 0 325 -17 459 -51s251.333 -82.333 352 -145s186 -138.5 256 -227.5s126.667 -188.333 170 -298s74.666 -228.667 94 -357c19.333 -128.333 29 -263.166 29 -404.499s-10.5 -276.166 -31.5 -404.499s-54 -247.333 -99 -357
s-103.167 -209 -174.5 -298s-157.333 -164.833 -258 -227.5s-217 -111 -349 -145s-281.333 -51 -448 -51h-1048zM1397 474.998c82.667 0 159.334 9.00098 230.001 27.001s135 45.167 193 81.5s109.333 82.166 154 137.499s82.167 120.333 112.5 195s53.333 159.167 69 253.5
s23.5 198.833 23.5 313.5s-7.83301 219.167 -23.5 313.5s-38.667 178.833 -69 253.5s-67.833 139.5 -112.5 194.5s-96 100.667 -154 137s-122.333 63.5 -193 81.5s-147.334 27 -230.001 27h-451v-2015h451zM1192 3162l-434 648h409l279 -340l282 340h410l-434 -648h-512z
" />
    <glyph glyph-name="dcaron" unicode="&#x10f;" horiz-adv-x="2548" 
d="M1733 0l-50 179.999c-32.667 -36.667 -69.167 -70.167 -109.5 -100.5s-85.5 -56.166 -135.5 -77.499s-105.167 -38 -165.5 -50s-126.833 -18 -199.5 -18c-140 0 -266 25.667 -378 77s-207 125 -285 221s-137.833 212.5 -179.5 349.5s-62.5 291.167 -62.5 462.5
c0 179.333 21.5 338.666 64.5 477.999s105.5 256.833 187.5 352.5s182.667 168.334 302 218.001s255.333 74.5 408 74.5c52 0 101.667 -3.16699 149 -9.5s92.5 -15.666 135.5 -28c43 -12.333 84.167 -28 123.5 -47s77 -41.5 113 -67.5v1090h561v-3105h-479zM1651 1585
c-30 18.667 -61.5 34.666 -94.5 47.999s-67.833 24.333 -104.5 33s-74.5 15.167 -113.5 19.5s-79.5 6.5 -121.5 6.5c-84 0 -156 -16.333 -216 -49s-109.333 -77.667 -148 -135s-67 -124.666 -85 -201.999s-27 -160.333 -27 -249c0 -89.333 10 -173.333 30 -252
s50.5 -147.167 91.5 -205.5s92.667 -104.5 155 -138.5s135.5 -51 219.5 -51c42 0 82 2 120 6s74.167 10.167 108.5 18.5s66.833 19 97.5 32s60 28.167 88 45.5v1073zM2416 2212l152 475l-127 418h365c34 0 65.667 -5 95 -15s54.833 -24.5 76.5 -43.5
s38.667 -42.167 51 -69.5s18.5 -58.333 18.5 -93c0 -40 -7.33301 -81.833 -22 -125.5s-33.834 -88.667 -57.5 -135c-23.667 -46.333 -50.667 -94.333 -81 -144l-93.5 -152.5l-69 -115h-308z" />
    <glyph glyph-name="Dcroat" unicode="&#x110;" horiz-adv-x="3047" 
d="M410 0v1217h-254v491h254v1258h1048c172 0 325 -17 459 -51s251.333 -82.333 352 -145s186 -138.5 256 -227.5s126.667 -188.333 170 -298s74.666 -228.667 94 -357c19.333 -128.333 29 -263.166 29 -404.499s-10.5 -276.166 -31.5 -404.499s-54 -247.333 -99 -357
s-103.167 -209 -174.5 -298s-157.333 -164.833 -258 -227.5s-217 -111 -349 -145s-281.333 -51 -448 -51h-1048zM1438 474.998c82.667 0 159.334 9.00098 230.001 27.001s135 45.167 193 81.5s109.333 82.166 154 137.499s82.167 120.333 112.5 195s53.333 159.167 69 253.5
s23.5 198.833 23.5 313.5s-7.83301 219.167 -23.5 313.5s-38.667 178.833 -69 253.5s-67.833 139.5 -112.5 194.5s-96 100.667 -154 137s-122.333 63.5 -193 81.5s-147.334 27 -230.001 27h-451v-782h569v-491h-569v-742h451z" />
    <glyph glyph-name="dcroat" unicode="&#x111;" horiz-adv-x="2548" 
d="M1733 0l-50 179.999c-32.667 -36.667 -69.167 -70.167 -109.5 -100.5s-85.5 -56.166 -135.5 -77.499s-105.167 -38 -165.5 -50s-126.833 -18 -199.5 -18c-140 0 -266 25.667 -378 77s-207 125 -285 221s-137.833 212.5 -179.5 349.5s-62.5 291.167 -62.5 462.5
c0 179.333 21.5 338.666 64.5 477.999s105.5 256.833 187.5 352.5s182.667 168.334 302 218.001s255.333 74.5 408 74.5c52 0 101.667 -3.16699 149 -9.5s92.5 -15.666 135.5 -28c43 -12.333 84.167 -28 123.5 -47s77 -41.5 113 -67.5v414h-369v442h369v234h561v-234h246
v-442h-246v-2429h-479zM1651 1585c-30 18.667 -61.5 34.666 -94.5 47.999s-67.833 24.333 -104.5 33s-74.5 15.167 -113.5 19.5s-79.5 6.5 -121.5 6.5c-84 0 -156 -16.333 -216 -49s-109.333 -77.667 -148 -135s-67 -124.666 -85 -201.999s-27 -160.333 -27 -249
c0 -89.333 10 -173.333 30 -252s50.5 -147.167 91.5 -205.5s92.667 -104.5 155 -138.5s135.5 -51 219.5 -51c42 0 82 2 120 6s74.167 10.167 108.5 18.5s66.833 19 97.5 32s60 28.167 88 45.5v1073z" />
    <glyph glyph-name="Emacron" unicode="&#x112;" horiz-adv-x="2478" 
d="M369 0v2966h1872v-476h-1295v-733h1114v-475h-1114v-807h1311v-475h-1888zM684 3257v426h1254v-426h-1254z" />
    <glyph glyph-name="emacron" unicode="&#x113;" horiz-adv-x="2224" 
d="M1950 86c-48 -22.667 -98.335 -42.998 -151.002 -60.998s-109.334 -33.333 -170.001 -46s-126 -22.5 -196 -29.5s-146.333 -10.5 -229 -10.5c-114.667 0 -220 11.5 -316 34.5s-182.5 56.667 -259.5 101s-144.5 98.333 -202.5 162s-106.333 136.334 -145 218.001
s-67.834 171.5 -87.501 269.5s-29.5 203.333 -29.5 316c0 102 7.33301 200.667 22 296s37.834 184.666 69.501 267.999s72.5 159.5 122.5 228.5s110.167 128.333 180.5 178s151.5 88.167 243.5 115.5s196 41 312 41c119.333 0 225.833 -14.167 319.5 -42.5
s175.834 -67.333 246.501 -117s130.667 -108.667 180 -177s89.333 -142.5 120 -222.5s53 -164.5 67 -253.5s21 -178.833 21 -269.5c0 -12 -0.333008 -26.667 -1 -44s-1.5 -35.333 -2.5 -54s-2.16699 -36.667 -3.5 -54s-3 -32 -5 -44h-1331
c4.66699 -70.667 18.334 -134.834 41.001 -192.501s55.667 -106.834 99 -147.501s98.333 -72 165 -94s146.667 -33 240 -33c62.667 0 124.834 2.5 186.501 7.5s121.5 12 179.5 21s113.5 20.167 166.5 33.5s102.167 28 147.5 44v-442zM1507 1286
c-5.33301 68.667 -17.166 130.334 -35.499 185.001s-43.833 101.167 -76.5 139.5s-72.334 67.666 -119.001 87.999s-100.667 30.5 -162 30.5s-115 -10.167 -161 -30.5s-84.667 -49.666 -116 -87.999s-55.833 -84.833 -73.5 -139.5s-29.167 -116.334 -34.5 -185.001h778z
M486.998 2503v426h1254v-426h-1254z" />
    <glyph glyph-name="Ebreve" unicode="&#x114;" horiz-adv-x="2478" 
d="M369 0v2966h1872v-476h-1295v-733h1114v-475h-1114v-807h1311v-475h-1888zM2007 3810c-4 -91.333 -21.668 -177.5 -53.001 -258.5s-76 -151.833 -134 -212.5s-129.5 -108.667 -214.5 -144s-183.167 -53 -294.5 -53c-112 0 -210.5 17.667 -295.5 53
s-156.5 83.333 -214.5 144s-102.5 131.5 -133.5 212.5s-48.5 167.167 -52.5 258.5h352c2.66699 -37.333 11.834 -73.833 27.501 -109.5s37.667 -67.5 66 -95.5s63.333 -50.667 105 -68s90.167 -26 145.5 -26s103.5 8.83301 144.5 26.5s75.5 40.667 103.5 69
s49.5 60.333 64.5 96s24.167 71.5 27.5 107.5h356z" />
    <glyph glyph-name="ebreve" unicode="&#x115;" horiz-adv-x="2224" 
d="M1950 86c-48 -22.667 -98.335 -42.998 -151.002 -60.998s-109.334 -33.333 -170.001 -46s-126 -22.5 -196 -29.5s-146.333 -10.5 -229 -10.5c-114.667 0 -220 11.5 -316 34.5s-182.5 56.667 -259.5 101s-144.5 98.333 -202.5 162s-106.333 136.334 -145 218.001
s-67.834 171.5 -87.501 269.5s-29.5 203.333 -29.5 316c0 102 7.33301 200.667 22 296s37.834 184.666 69.501 267.999s72.5 159.5 122.5 228.5s110.167 128.333 180.5 178s151.5 88.167 243.5 115.5s196 41 312 41c119.333 0 225.833 -14.167 319.5 -42.5
s175.834 -67.333 246.501 -117s130.667 -108.667 180 -177s89.333 -142.5 120 -222.5s53 -164.5 67 -253.5s21 -178.833 21 -269.5c0 -12 -0.333008 -26.667 -1 -44s-1.5 -35.333 -2.5 -54s-2.16699 -36.667 -3.5 -54s-3 -32 -5 -44h-1331
c4.66699 -70.667 18.334 -134.834 41.001 -192.501s55.667 -106.834 99 -147.501s98.333 -72 165 -94s146.667 -33 240 -33c62.667 0 124.834 2.5 186.501 7.5s121.5 12 179.5 21s113.5 20.167 166.5 33.5s102.167 28 147.5 44v-442zM1507 1286
c-5.33301 68.667 -17.166 130.334 -35.499 185.001s-43.833 101.167 -76.5 139.5s-72.334 67.666 -119.001 87.999s-100.667 30.5 -162 30.5s-115 -10.167 -161 -30.5s-84.667 -49.666 -116 -87.999s-55.833 -84.833 -73.5 -139.5s-29.167 -116.334 -34.5 -185.001h778z
M1810 3056c-4 -91.333 -21.668 -177.5 -53.001 -258.5s-76 -151.833 -134 -212.5s-129.5 -108.667 -214.5 -144s-183.167 -53 -294.5 -53c-112 0 -210.5 17.667 -295.5 53s-156.5 83.333 -214.5 144s-102.5 131.5 -133.5 212.5s-48.5 167.167 -52.5 258.5h352
c2.66699 -37.333 11.834 -73.833 27.501 -109.5s37.667 -67.5 66 -95.5s63.333 -50.667 105 -68s90.167 -26 145.5 -26s103.5 8.83301 144.5 26.5s75.5 40.667 103.5 69s49.5 60.333 64.5 96s24.167 71.5 27.5 107.5h356z" />
    <glyph glyph-name="Edotaccent" unicode="&#x116;" horiz-adv-x="2478" 
d="M369 0v2966h1872v-476h-1295v-733h1114v-475h-1114v-807h1311v-475h-1888zM1024 3236v533h570v-533h-570z" />
    <glyph glyph-name="edotaccent" unicode="&#x117;" horiz-adv-x="2224" 
d="M1950 86c-48 -22.667 -98.335 -42.998 -151.002 -60.998s-109.334 -33.333 -170.001 -46s-126 -22.5 -196 -29.5s-146.333 -10.5 -229 -10.5c-114.667 0 -220 11.5 -316 34.5s-182.5 56.667 -259.5 101s-144.5 98.333 -202.5 162s-106.333 136.334 -145 218.001
s-67.834 171.5 -87.501 269.5s-29.5 203.333 -29.5 316c0 102 7.33301 200.667 22 296s37.834 184.666 69.501 267.999s72.5 159.5 122.5 228.5s110.167 128.333 180.5 178s151.5 88.167 243.5 115.5s196 41 312 41c119.333 0 225.833 -14.167 319.5 -42.5
s175.834 -67.333 246.501 -117s130.667 -108.667 180 -177s89.333 -142.5 120 -222.5s53 -164.5 67 -253.5s21 -178.833 21 -269.5c0 -12 -0.333008 -26.667 -1 -44s-1.5 -35.333 -2.5 -54s-2.16699 -36.667 -3.5 -54s-3 -32 -5 -44h-1331
c4.66699 -70.667 18.334 -134.834 41.001 -192.501s55.667 -106.834 99 -147.501s98.333 -72 165 -94s146.667 -33 240 -33c62.667 0 124.834 2.5 186.501 7.5s121.5 12 179.5 21s113.5 20.167 166.5 33.5s102.167 28 147.5 44v-442zM1507 1286
c-5.33301 68.667 -17.166 130.334 -35.499 185.001s-43.833 101.167 -76.5 139.5s-72.334 67.666 -119.001 87.999s-100.667 30.5 -162 30.5s-115 -10.167 -161 -30.5s-84.667 -49.666 -116 -87.999s-55.833 -84.833 -73.5 -139.5s-29.167 -116.334 -34.5 -185.001h778z
M826.998 2482v533h570v-533h-570z" />
    <glyph glyph-name="Eogonek" unicode="&#x118;" horiz-adv-x="2478" 
d="M2236 -852c-32.667 -8 -67.834 -14.167 -105.501 -18.5s-76.167 -6.5 -115.5 -6.5c-84 0 -159 8.83301 -225 26.5s-121.667 43.5 -167 77.5s-80 75.667 -104 125s-36 105.666 -36 168.999c0 48.667 9 95.334 27 140.001s42 87 72 127s64.667 77.667 104 113
s80.666 68.333 123.999 99h-1441v2966h1872v-476h-1295v-733h1114v-475h-1114v-807h1311v-475h-139c-34 -34.667 -64.667 -69.5 -92 -104.5s-50.666 -69.5 -69.999 -103.5s-34.166 -67.333 -44.499 -100s-15.5 -63.667 -15.5 -93c0 -51.333 17 -92.833 51 -124.5
s86.667 -47.5 158 -47.5c15.333 0 28.833 0.5 40.5 1.5s22.5 2.16699 32.5 3.5s19.667 3 29 5l29 6v-295z" />
    <glyph glyph-name="eogonek" unicode="&#x119;" horiz-adv-x="2224" 
d="M1913 -852c-33.333 -8 -68.8359 -14.165 -106.503 -18.498s-75.834 -6.5 -114.501 -6.5c-84 0 -159 8.5 -225 25.5s-121.833 41.833 -167.5 74.5s-80.5 72.667 -104.5 120s-36 101 -36 161c0 46 7.16699 89.833 21.5 131.5s33.833 81 58.5 118s53.334 72 86.001 105
s67.667 63.833 105 92.5l-108.5 -8c-37 -2.66699 -76.167 -4 -117.5 -4c-114.667 0 -220 11.5 -316 34.5s-182.5 56.667 -259.5 101s-144.5 98.333 -202.5 162s-106.333 136.334 -145 218.001s-67.834 171.5 -87.501 269.5s-29.5 203.333 -29.5 316
c0 102 7.33301 200.667 22 296s37.834 184.666 69.501 267.999s72.5 159.5 122.5 228.5s110.167 128.333 180.5 178s151.5 88.167 243.5 115.5s196 41 312 41c119.333 0 225.833 -14.167 319.5 -42.5s175.834 -67.333 246.501 -117s130.667 -108.667 180 -177
s89.333 -142.5 120 -222.5s53 -164.5 67 -253.5s21 -178.833 21 -269.5c0 -12 -0.333008 -26.667 -1 -44s-1.5 -35.333 -2.5 -54s-2.16699 -36.667 -3.5 -54s-3 -32 -5 -44h-1331c4.66699 -70.667 18.334 -134.834 41.001 -192.501s55.667 -106.834 99 -147.501
s98.333 -72 165 -94s146.667 -33 240 -33c62.667 0 124.834 2.5 186.501 7.5s121.5 12 179.5 21s113.5 20.167 166.5 33.5s102.167 28 147.5 44v-442c-58.667 -28.667 -111.334 -64 -158.001 -106s-86.167 -85.833 -118.5 -131.5s-57.166 -90.5 -74.499 -134.5
s-26 -82.333 -26 -115c0 -51.333 16.833 -92.833 50.5 -124.5s86.5 -47.5 158.5 -47.5c15.333 0 28.833 0.5 40.5 1.5s22.5 2.16699 32.5 3.5s19.667 3 29 5l29 6v-295zM1507 1286c-5.33301 68.667 -17.166 130.334 -35.499 185.001s-43.833 101.167 -76.5 139.5
s-72.334 67.666 -119.001 87.999s-100.667 30.5 -162 30.5s-115 -10.167 -161 -30.5s-84.667 -49.666 -116 -87.999s-55.833 -84.833 -73.5 -139.5s-29.167 -116.334 -34.5 -185.001h778z" />
    <glyph glyph-name="Ecaron" unicode="&#x11a;" horiz-adv-x="2478" 
d="M369 0v2966h1872v-476h-1295v-733h1114v-475h-1114v-807h1311v-475h-1888zM1053 3162l-434 648h409l279 -340l282 340h410l-434 -648h-512z" />
    <glyph glyph-name="ecaron" unicode="&#x11b;" horiz-adv-x="2224" 
d="M1950 86c-48 -22.667 -98.335 -42.998 -151.002 -60.998s-109.334 -33.333 -170.001 -46s-126 -22.5 -196 -29.5s-146.333 -10.5 -229 -10.5c-114.667 0 -220 11.5 -316 34.5s-182.5 56.667 -259.5 101s-144.5 98.333 -202.5 162s-106.333 136.334 -145 218.001
s-67.834 171.5 -87.501 269.5s-29.5 203.333 -29.5 316c0 102 7.33301 200.667 22 296s37.834 184.666 69.501 267.999s72.5 159.5 122.5 228.5s110.167 128.333 180.5 178s151.5 88.167 243.5 115.5s196 41 312 41c119.333 0 225.833 -14.167 319.5 -42.5
s175.834 -67.333 246.501 -117s130.667 -108.667 180 -177s89.333 -142.5 120 -222.5s53 -164.5 67 -253.5s21 -178.833 21 -269.5c0 -12 -0.333008 -26.667 -1 -44s-1.5 -35.333 -2.5 -54s-2.16699 -36.667 -3.5 -54s-3 -32 -5 -44h-1331
c4.66699 -70.667 18.334 -134.834 41.001 -192.501s55.667 -106.834 99 -147.501s98.333 -72 165 -94s146.667 -33 240 -33c62.667 0 124.834 2.5 186.501 7.5s121.5 12 179.5 21s113.5 20.167 166.5 33.5s102.167 28 147.5 44v-442zM1507 1286
c-5.33301 68.667 -17.166 130.334 -35.499 185.001s-43.833 101.167 -76.5 139.5s-72.334 67.666 -119.001 87.999s-100.667 30.5 -162 30.5s-115 -10.167 -161 -30.5s-84.667 -49.666 -116 -87.999s-55.833 -84.833 -73.5 -139.5s-29.167 -116.334 -34.5 -185.001h778z
M855.998 2408l-434 648h409l279 -340l282 340h410l-434 -648h-512z" />
    <glyph glyph-name="Gcircumflex" unicode="&#x11c;" horiz-adv-x="2982" 
d="M2118 1430l577 -0.000976562v-1291c-48 -20.667 -97.667 -40 -149 -58s-104.666 -34.667 -160 -50c-55.333 -15.333 -113 -29 -173 -41s-122.5 -22.167 -187.5 -30.5s-132.833 -14.666 -203.5 -18.999s-144 -6.5 -220 -6.5c-238.667 0 -445.334 33.667 -620.001 101
s-319 166.833 -433 298.5s-198.5 294.667 -253.5 489s-82.5 418.5 -82.5 672.5c0 158 13.5 305.833 40.5 443.5s67 263.334 120 377c53 113.667 119 214.834 198 303.5c79 88.667 170.5 163.5 274.5 224.5s220.333 107.5 349 139.5s269.667 48 423 48
c63.333 0 124.5 -1.83301 183.5 -5.5s115.5 -9.33398 169.5 -17c54 -7.66699 105.833 -16.834 155.5 -27.501s97.167 -23 142.5 -37s88.5 -29.5 129.5 -46.5s79.833 -35.167 116.5 -54.5v-484c-54 26.667 -113.333 50.667 -178 72s-133.5 39.333 -206.5 54
s-149.667 26 -230 34s-163.5 12 -249.5 12c-135.333 0 -255 -21.667 -359 -65s-191.333 -108.333 -262 -195s-124.167 -194.667 -160.5 -324s-54.5 -280 -54.5 -452c0 -136 9 -256.667 27 -362s43.833 -197.5 77.5 -276.5s74.834 -145.667 123.501 -200
s103.5 -98.166 164.5 -131.499s128 -57.5 201 -72.5s150.833 -22.5 233.5 -22.5c47.333 0 92.333 0.833008 135 2.5s83.667 4.16699 123 7.5s77 7.5 113 12.5s71 11.167 105 18.5v959zM1872 3162l-283 336l-279 -336h-409l434 648h512l434 -648h-409z" />
    <glyph glyph-name="gcircumflex" unicode="&#x11d;" horiz-adv-x="2556" 
d="M1659 143c-32.667 -32 -68.667 -60.8311 -108 -86.498s-82.666 -47.5 -129.999 -65.5s-99.166 -32 -155.499 -42s-117.833 -15 -184.5 -15c-140 0 -266 25.667 -378 77s-207 125 -285 221s-137.833 212.5 -179.5 349.5s-62.5 291.167 -62.5 462.5
c0 179.333 21.5 338.666 64.5 477.999s105.667 256.833 188 352.5s183.166 168.334 302.499 218.001s255.333 74.5 408 74.5c59.333 0 115 -4.16699 167 -12.5s100.833 -20.666 146.5 -37c45.667 -16.333 88.667 -36.833 129 -61.5s78.5 -53.334 114.5 -86.001l37 131h487
v-2044c0 -178 -24.667 -332.333 -74 -463s-120.833 -238.667 -214.5 -324s-208.334 -148.833 -344.001 -190.5s-289.5 -62.5 -461.5 -62.5c-85.333 0 -165.5 3.5 -240.5 10.5s-145.333 17.167 -211 30.5s-126.334 29.666 -182.001 48.999s-106.5 41.333 -152.5 66v458
c44 -18 93 -35 147 -51s111.833 -30 173.5 -42s126.167 -21.333 193.5 -28s136.333 -10 207 -10c100 0 187.5 9.16699 262.5 27.5s137.333 48.5 187 90.5s86.834 97.167 111.501 165.5s37 152.833 37 253.5v106zM1659 1585c-30 18.667 -61.501 34.666 -94.501 47.999
s-67.667 24.333 -104 33s-74.166 15.167 -113.499 19.5s-80 6.5 -122 6.5c-84 0 -156 -16.333 -216 -49s-109.167 -77.667 -147.5 -135s-66.5 -124.666 -84.5 -201.999s-27 -160.333 -27 -249c0 -89.333 10 -173.333 30 -252s50.5 -147.167 91.5 -205.5
s92.5 -104.5 154.5 -138.5s135 -51 219 -51c42 0 82 2 120 6s74.167 10.167 108.5 18.5s66.833 19 97.5 32s60 28.167 88 45.5v1073zM1504 2408l-283 336l-279 -336h-409l434 648h512l434 -648h-409z" />
    <glyph glyph-name="Gbreve" unicode="&#x11e;" horiz-adv-x="2982" 
d="M2118 1430l577 -0.000976562v-1291c-48 -20.667 -97.667 -40 -149 -58s-104.666 -34.667 -160 -50c-55.333 -15.333 -113 -29 -173 -41s-122.5 -22.167 -187.5 -30.5s-132.833 -14.666 -203.5 -18.999s-144 -6.5 -220 -6.5c-238.667 0 -445.334 33.667 -620.001 101
s-319 166.833 -433 298.5s-198.5 294.667 -253.5 489s-82.5 418.5 -82.5 672.5c0 158 13.5 305.833 40.5 443.5s67 263.334 120 377c53 113.667 119 214.834 198 303.5c79 88.667 170.5 163.5 274.5 224.5s220.333 107.5 349 139.5s269.667 48 423 48
c63.333 0 124.5 -1.83301 183.5 -5.5s115.5 -9.33398 169.5 -17c54 -7.66699 105.833 -16.834 155.5 -27.501s97.167 -23 142.5 -37s88.5 -29.5 129.5 -46.5s79.833 -35.167 116.5 -54.5v-484c-54 26.667 -113.333 50.667 -178 72s-133.5 39.333 -206.5 54
s-149.667 26 -230 34s-163.5 12 -249.5 12c-135.333 0 -255 -21.667 -359 -65s-191.333 -108.333 -262 -195s-124.167 -194.667 -160.5 -324s-54.5 -280 -54.5 -452c0 -136 9 -256.667 27 -362s43.833 -197.5 77.5 -276.5s74.834 -145.667 123.501 -200
s103.5 -98.166 164.5 -131.499s128 -57.5 201 -72.5s150.833 -22.5 233.5 -22.5c47.333 0 92.333 0.833008 135 2.5s83.667 4.16699 123 7.5s77 7.5 113 12.5s71 11.167 105 18.5v959zM2285 3810c-4 -91.333 -21.668 -177.5 -53.001 -258.5s-76 -151.833 -134 -212.5
s-129.5 -108.667 -214.5 -144s-183.167 -53 -294.5 -53c-112 0 -210.5 17.667 -295.5 53s-156.5 83.333 -214.5 144s-102.5 131.5 -133.5 212.5s-48.5 167.167 -52.5 258.5h352c2.66699 -37.333 11.834 -73.833 27.501 -109.5s37.667 -67.5 66 -95.5s63.333 -50.667 105 -68
s90.167 -26 145.5 -26s103.5 8.83301 144.5 26.5s75.5 40.667 103.5 69s49.5 60.333 64.5 96s24.167 71.5 27.5 107.5h356z" />
    <glyph glyph-name="gbreve" unicode="&#x11f;" horiz-adv-x="2556" 
d="M1659 143c-32.667 -32 -68.667 -60.8311 -108 -86.498s-82.666 -47.5 -129.999 -65.5s-99.166 -32 -155.499 -42s-117.833 -15 -184.5 -15c-140 0 -266 25.667 -378 77s-207 125 -285 221s-137.833 212.5 -179.5 349.5s-62.5 291.167 -62.5 462.5
c0 179.333 21.5 338.666 64.5 477.999s105.667 256.833 188 352.5s183.166 168.334 302.499 218.001s255.333 74.5 408 74.5c59.333 0 115 -4.16699 167 -12.5s100.833 -20.666 146.5 -37c45.667 -16.333 88.667 -36.833 129 -61.5s78.5 -53.334 114.5 -86.001l37 131h487
v-2044c0 -178 -24.667 -332.333 -74 -463s-120.833 -238.667 -214.5 -324s-208.334 -148.833 -344.001 -190.5s-289.5 -62.5 -461.5 -62.5c-85.333 0 -165.5 3.5 -240.5 10.5s-145.333 17.167 -211 30.5s-126.334 29.666 -182.001 48.999s-106.5 41.333 -152.5 66v458
c44 -18 93 -35 147 -51s111.833 -30 173.5 -42s126.167 -21.333 193.5 -28s136.333 -10 207 -10c100 0 187.5 9.16699 262.5 27.5s137.333 48.5 187 90.5s86.834 97.167 111.501 165.5s37 152.833 37 253.5v106zM1659 1585c-30 18.667 -61.501 34.666 -94.501 47.999
s-67.667 24.333 -104 33s-74.166 15.167 -113.499 19.5s-80 6.5 -122 6.5c-84 0 -156 -16.333 -216 -49s-109.167 -77.667 -147.5 -135s-66.5 -124.666 -84.5 -201.999s-27 -160.333 -27 -249c0 -89.333 10 -173.333 30 -252s50.5 -147.167 91.5 -205.5
s92.5 -104.5 154.5 -138.5s135 -51 219 -51c42 0 82 2 120 6s74.167 10.167 108.5 18.5s66.833 19 97.5 32s60 28.167 88 45.5v1073zM1917 3056c-4 -91.333 -21.668 -177.5 -53.001 -258.5s-76 -151.833 -134 -212.5s-129.5 -108.667 -214.5 -144s-183.167 -53 -294.5 -53
c-112 0 -210.5 17.667 -295.5 53s-156.5 83.333 -214.5 144s-102.5 131.5 -133.5 212.5s-48.5 167.167 -52.5 258.5h352c2.66699 -37.333 11.834 -73.833 27.501 -109.5s37.667 -67.5 66 -95.5s63.333 -50.667 105 -68s90.167 -26 145.5 -26s103.5 8.83301 144.5 26.5
s75.5 40.667 103.5 69s49.5 60.333 64.5 96s24.167 71.5 27.5 107.5h356z" />
    <glyph glyph-name="Gdotaccent" unicode="&#x120;" horiz-adv-x="2982" 
d="M2118 1430l577 -0.000976562v-1291c-48 -20.667 -97.667 -40 -149 -58s-104.666 -34.667 -160 -50c-55.333 -15.333 -113 -29 -173 -41s-122.5 -22.167 -187.5 -30.5s-132.833 -14.666 -203.5 -18.999s-144 -6.5 -220 -6.5c-238.667 0 -445.334 33.667 -620.001 101
s-319 166.833 -433 298.5s-198.5 294.667 -253.5 489s-82.5 418.5 -82.5 672.5c0 158 13.5 305.833 40.5 443.5s67 263.334 120 377c53 113.667 119 214.834 198 303.5c79 88.667 170.5 163.5 274.5 224.5s220.333 107.5 349 139.5s269.667 48 423 48
c63.333 0 124.5 -1.83301 183.5 -5.5s115.5 -9.33398 169.5 -17c54 -7.66699 105.833 -16.834 155.5 -27.501s97.167 -23 142.5 -37s88.5 -29.5 129.5 -46.5s79.833 -35.167 116.5 -54.5v-484c-54 26.667 -113.333 50.667 -178 72s-133.5 39.333 -206.5 54
s-149.667 26 -230 34s-163.5 12 -249.5 12c-135.333 0 -255 -21.667 -359 -65s-191.333 -108.333 -262 -195s-124.167 -194.667 -160.5 -324s-54.5 -280 -54.5 -452c0 -136 9 -256.667 27 -362s43.833 -197.5 77.5 -276.5s74.834 -145.667 123.501 -200
s103.5 -98.166 164.5 -131.499s128 -57.5 201 -72.5s150.833 -22.5 233.5 -22.5c47.333 0 92.333 0.833008 135 2.5s83.667 4.16699 123 7.5s77 7.5 113 12.5s71 11.167 105 18.5v959zM1302 3236v533h570v-533h-570z" />
    <glyph glyph-name="gdotaccent" unicode="&#x121;" horiz-adv-x="2556" 
d="M1659 143c-32.667 -32 -68.667 -60.8311 -108 -86.498s-82.666 -47.5 -129.999 -65.5s-99.166 -32 -155.499 -42s-117.833 -15 -184.5 -15c-140 0 -266 25.667 -378 77s-207 125 -285 221s-137.833 212.5 -179.5 349.5s-62.5 291.167 -62.5 462.5
c0 179.333 21.5 338.666 64.5 477.999s105.667 256.833 188 352.5s183.166 168.334 302.499 218.001s255.333 74.5 408 74.5c59.333 0 115 -4.16699 167 -12.5s100.833 -20.666 146.5 -37c45.667 -16.333 88.667 -36.833 129 -61.5s78.5 -53.334 114.5 -86.001l37 131h487
v-2044c0 -178 -24.667 -332.333 -74 -463s-120.833 -238.667 -214.5 -324s-208.334 -148.833 -344.001 -190.5s-289.5 -62.5 -461.5 -62.5c-85.333 0 -165.5 3.5 -240.5 10.5s-145.333 17.167 -211 30.5s-126.334 29.666 -182.001 48.999s-106.5 41.333 -152.5 66v458
c44 -18 93 -35 147 -51s111.833 -30 173.5 -42s126.167 -21.333 193.5 -28s136.333 -10 207 -10c100 0 187.5 9.16699 262.5 27.5s137.333 48.5 187 90.5s86.834 97.167 111.501 165.5s37 152.833 37 253.5v106zM1659 1585c-30 18.667 -61.501 34.666 -94.501 47.999
s-67.667 24.333 -104 33s-74.166 15.167 -113.499 19.5s-80 6.5 -122 6.5c-84 0 -156 -16.333 -216 -49s-109.167 -77.667 -147.5 -135s-66.5 -124.666 -84.5 -201.999s-27 -160.333 -27 -249c0 -89.333 10 -173.333 30 -252s50.5 -147.167 91.5 -205.5
s92.5 -104.5 154.5 -138.5s135 -51 219 -51c42 0 82 2 120 6s74.167 10.167 108.5 18.5s66.833 19 97.5 32s60 28.167 88 45.5v1073zM933.999 2482v533h570v-533h-570z" />
    <glyph glyph-name="Gcommaaccent" unicode="&#x122;" horiz-adv-x="2982" 
d="M2118 1430l577 -0.000976562v-1291c-48 -20.667 -97.667 -40 -149 -58s-104.666 -34.667 -160 -50c-55.333 -15.333 -113 -29 -173 -41s-122.5 -22.167 -187.5 -30.5s-132.833 -14.666 -203.5 -18.999s-144 -6.5 -220 -6.5c-238.667 0 -445.334 33.667 -620.001 101
s-319 166.833 -433 298.5s-198.5 294.667 -253.5 489s-82.5 418.5 -82.5 672.5c0 158 13.5 305.833 40.5 443.5s67 263.334 120 377c53 113.667 119 214.834 198 303.5c79 88.667 170.5 163.5 274.5 224.5s220.333 107.5 349 139.5s269.667 48 423 48
c63.333 0 124.5 -1.83301 183.5 -5.5s115.5 -9.33398 169.5 -17c54 -7.66699 105.833 -16.834 155.5 -27.501s97.167 -23 142.5 -37s88.5 -29.5 129.5 -46.5s79.833 -35.167 116.5 -54.5v-484c-54 26.667 -113.333 50.667 -178 72s-133.5 39.333 -206.5 54
s-149.667 26 -230 34s-163.5 12 -249.5 12c-135.333 0 -255 -21.667 -359 -65s-191.333 -108.333 -262 -195s-124.167 -194.667 -160.5 -324s-54.5 -280 -54.5 -452c0 -136 9 -256.667 27 -362s43.833 -197.5 77.5 -276.5s74.834 -145.667 123.501 -200
s103.5 -98.166 164.5 -131.499s128 -57.5 201 -72.5s150.833 -22.5 233.5 -22.5c47.333 0 92.333 0.833008 135 2.5s83.667 4.16699 123 7.5s77 7.5 113 12.5s71 11.167 105 18.5v959zM1315 -983.001l-183.999 191.998l278 297l-82 322h365
c36.667 0 69.667 -5.83301 99 -17.5s54.166 -28 74.499 -49s36 -46.167 47 -75.5s16.5 -61.333 16.5 -96c0 -52 -12.667 -102.333 -38 -151s-59 -93.667 -101 -135s-90 -79.666 -144 -114.999s-109.667 -66.666 -167 -93.999z" />
    <glyph glyph-name="gcommaaccent" unicode="&#x123;" horiz-adv-x="2556" 
d="M1659 143c-32.667 -32 -68.667 -60.8311 -108 -86.498s-82.666 -47.5 -129.999 -65.5s-99.166 -32 -155.499 -42s-117.833 -15 -184.5 -15c-140 0 -266 25.667 -378 77s-207 125 -285 221s-137.833 212.5 -179.5 349.5s-62.5 291.167 -62.5 462.5
c0 179.333 21.5 338.666 64.5 477.999s105.667 256.833 188 352.5s183.166 168.334 302.499 218.001s255.333 74.5 408 74.5c59.333 0 115 -4.16699 167 -12.5s100.833 -20.666 146.5 -37c45.667 -16.333 88.667 -36.833 129 -61.5s78.5 -53.334 114.5 -86.001l37 131h487
v-2044c0 -178 -24.667 -332.333 -74 -463s-120.833 -238.667 -214.5 -324s-208.334 -148.833 -344.001 -190.5s-289.5 -62.5 -461.5 -62.5c-85.333 0 -165.5 3.5 -240.5 10.5s-145.333 17.167 -211 30.5s-126.334 29.666 -182.001 48.999s-106.5 41.333 -152.5 66v458
c44 -18 93 -35 147 -51s111.833 -30 173.5 -42s126.167 -21.333 193.5 -28s136.333 -10 207 -10c100 0 187.5 9.16699 262.5 27.5s137.333 48.5 187 90.5s86.834 97.167 111.501 165.5s37 152.833 37 253.5v106zM1659 1585c-30 18.667 -61.501 34.666 -94.501 47.999
s-67.667 24.333 -104 33s-74.166 15.167 -113.499 19.5s-80 6.5 -122 6.5c-84 0 -156 -16.333 -216 -49s-109.167 -77.667 -147.5 -135s-66.5 -124.666 -84.5 -201.999s-27 -160.333 -27 -249c0 -89.333 10 -173.333 30 -252s50.5 -147.167 91.5 -205.5
s92.5 -104.5 154.5 -138.5s135 -51 219 -51c42 0 82 2 120 6s74.167 10.167 108.5 18.5s66.833 19 97.5 32s60 28.167 88 45.5v1073zM1131 2408c-37.333 0 -70.667 5.83398 -100 17.501s-54.166 28 -74.499 49s-36 46.167 -47 75.5s-16.5 61.333 -16.5 96
c0 53.333 12.667 104.5 38 153.5s59 95.167 101 138.5s90.167 83.166 144.5 119.499s110.166 68.5 167.499 96.5l164 78l184 -193l-283 -307l86 -324h-364z" />
    <glyph glyph-name="Hcircumflex" unicode="&#x124;" horiz-adv-x="3064" 
d="M2118 0v1286h-1172v-1286h-577v2966h577v-1205h1172v1205h577v-2966h-577zM1815 3162l-283 336l-279 -336h-409l434 648h512l434 -648h-409z" />
    </font>
</defs>
</svg>
