<?xml version="1.0" standalone="no"?>
<!DOCTYPE svg PUBLIC "-//W3C//DTD SVG 1.1//EN" "http://www.w3.org/Graphics/SVG/1.1/DTD/svg11.dtd" >
<svg xmlns="http://www.w3.org/2000/svg">
<metadata></metadata>
<defs>
<font id="audisansextbold" horiz-adv-x="1515" >
<font-face units-per-em="2048" ascent="1638" descent="-410" />
<missing-glyph horiz-adv-x="757" />
<glyph horiz-adv-x="2048" />
<glyph horiz-adv-x="2048" />
<glyph unicode="&#xd;" horiz-adv-x="757" />
<glyph unicode=" "  horiz-adv-x="757" />
<glyph unicode="&#x09;" horiz-adv-x="757" />
<glyph unicode="&#xa0;" horiz-adv-x="757" />
<glyph unicode="!" horiz-adv-x="817" d="M256 1479h279l-27 -1076h-215zM262 0v266h277v-266h-277z" />
<glyph unicode="&#x22;" horiz-adv-x="964" d="M102 946v533h277v-533h-277zM586 946v533h276v-533h-276z" />
<glyph unicode="#" horiz-adv-x="1298" d="M41 367v192h246l55 297h-209v193h244l78 430h204l-77 -430h258l78 430h204l-78 -430h213v-193h-247l-56 -297h211v-192h-245l-78 -428h-205l78 428h-258l-78 -428h-205l78 428h-211zM492 559h258l55 297h-258z" />
<glyph unicode="$" horiz-adv-x="1568" d="M129 471h322q0 -272 325 -272q322 0 322 196q0 61 -39 109q-47 53 -133 65l-340 45q-426 57 -426 428q0 166 151.5 282t384.5 124v143h160v-143q530 -35 539 -430h-318q-6 207 -319 207q-129 0 -204 -48.5t-75 -119.5q0 -143 176 -168l281 -39q483 -68 483 -447 q0 -201 -166 -315q-154 -109 -397 -115v-147h-160v145q-279 12 -415 125q-150 121 -152 375z" />
<glyph unicode="%" horiz-adv-x="1916" d="M82 1059q0 170 90 272q100 115 295 115q193 0 295 -115q90 -102 90 -272q0 -168 -94 -273q-102 -115 -291 -114q-199 0 -297 114q-88 100 -88 273zM295 1059q0 -223 172 -223t172 223t-172 223t-172 -223zM467 -61l776 1540h197l-776 -1540h-197zM1065 365q0 170 90 272 q100 115 295 115q193 0 295 -115q90 -102 90 -272q0 -168 -94 -273q-102 -115 -291 -115q-199 0 -297 115q-88 100 -88 273zM1278 365q0 -223 172 -224q172 1 172 224t-172 223t-172 -223z" />
<glyph unicode="&#x26;" horiz-adv-x="1875" d="M84 403q0 270 403 426q-176 150 -176 287q0 141 111 234q121 100 332 100q205 0 327 -94q113 -88 113 -221q0 -205 -238 -334l340 -287q106 154 127 373h269q-37 -344 -211 -537l442 -350h-436l-187 164q-213 -195 -565 -195q-322 0 -486.5 114t-164.5 320zM410 410 q0 -102 75 -164q84 -68 246 -68q215 0 377 131l-430 371q-268 -90 -268 -270zM606 1126q0 -76 158 -186q158 67 158 176q0 63 -48.5 100t-115.5 37q-66 0 -109 -34.5t-43 -92.5z" />
<glyph unicode="'" horiz-adv-x="481" d="M102 946v533h277v-533h-277z" />
<glyph unicode="(" horiz-adv-x="698" d="M123 707q0 330 260 772h213q-229 -453 -229 -772q0 -315 227 -768h-213q-258 440 -258 768z" />
<glyph unicode=")" horiz-adv-x="698" d="M102 1479h213q260 -442 260 -772q0 -328 -258 -768h-213q227 453 228 768q0 319 -230 772z" />
<glyph unicode="*" horiz-adv-x="1011" d="M82 952v217l311 -45l-192 244l190 105l115 -283l121 289l190 -113l-201 -242l314 37l-4 -217l-305 47l192 -252l-190 -104l-119 289l-119 -291l-184 110l190 250z" />
<glyph unicode="+" horiz-adv-x="1196" d="M102 416v246h373v372h246v-372h373v-246h-373v-373h-246v373h-373z" />
<glyph unicode="," horiz-adv-x="563" d="M57 -256l138 522h307l-242 -522h-203z" />
<glyph unicode="-" horiz-adv-x="794" d="M82 426v229h631v-229h-631z" />
<glyph unicode="." horiz-adv-x="563" d="M143 0v266h277v-266h-277z" />
<glyph unicode="/" horiz-adv-x="962" d="M41 -61l664 1540h217l-664 -1540h-217z" />
<glyph unicode="0" d="M82 709q0 317 141 505q176 233 551 234q307 0 483.5 -195.5t176.5 -543.5q0 -342 -168 -535q-178 -205 -508 -205t-506 205q-170 193 -170 535zM406 709q0 -526 364 -527q184 0 272 172q68 133 68 346q0 535 -342 535q-362 0 -362 -526z" />
<glyph unicode="1" d="M307 969v282q229 86 377 197h287v-1448h-307v1141q-129 -92 -357 -172z" />
<glyph unicode="2" d="M106 0v268l271 162q403 242 514 334q152 127 151 258q0 98 -81.5 154.5t-204.5 56.5q-129 0 -211 -62q-74 -55 -74 -129v-18h-324q4 182 150 295q166 129 475 129q301 0 461 -133q133 -113 133 -275q0 -190 -137 -334.5t-510 -349.5l-221 -120h897v-236h-1289z" />
<glyph unicode="3" d="M61 389h324q10 -123 115 -170q78 -35 225 -35q168 0 252 68q72 57 72 151q0 152 -181 197q-78 18 -299 18v211q193 0 277 23q170 45 170 186q0 195 -283 195q-274 0 -291 -184h-323q2 199 178 303q162 96 430 96q330 0 483 -121q123 -98 123 -260q0 -256 -348 -328 q145 -8 262 -96q133 -99 133 -244q0 -203 -175 -316.5t-492 -113.5q-199 0 -322 31q-324 80 -330 389z" />
<glyph unicode="4" d="M61 287v198l809 963h312v-930h258v-231h-258v-287h-293v287h-828zM379 518h510v463q4 53 12 176q-35 -45 -100 -137z" />
<glyph unicode="5" d="M123 350v2h332q18 -172 317 -172q129 0 217 77t88 187q0 131 -100 215q-96 78 -232 78q-96 0 -174 -41q-86 -45 -116 -127l-305 9l40 839h1096v-235h-805l-24 -365q150 125 389 125q240 0 393 -125q162 -131 162 -360t-163 -358.5t-466 -129.5q-649 0 -649 381z" />
<glyph unicode="6" d="M102 707q0 373 201 565q186 176 514 176q221 0 375 -90q176 -102 186 -283h-323q-6 74 -80 119t-180 45q-360 0 -383 -475q180 168 452 168q238 0 396.5 -128.5t158.5 -318.5q0 -233 -164 -370q-170 -145 -469 -146q-371 0 -534 193q-150 174 -150 545zM446 446 q0 -115 80 -188q88 -80 242 -80q143 0 231 68q97 72 97 207q0 119 -92 192q-90 68 -224 68q-143 0 -233 -66q-100 -72 -101 -201z" />
<glyph unicode="7" d="M92 1180v237h1249v-241l-655 -1176h-381l723 1180h-936z" />
<glyph unicode="8" d="M92 387q0 131 84 225q90 102 262 140v4q-311 72 -311 305q0 168 141 268q166 119 490 119q317 0 485 -119q145 -102 146 -268q0 -233 -312 -305v-4q172 -37 262 -140q84 -94 84 -225q0 -156 -135 -270q-178 -147 -530 -148q-352 0 -531 148q-135 115 -135 270zM416 401 q0 -104 93 -162.5t249 -58.5t249 58.5t93 162.5q0 121 -99 183q-90 57 -243 57q-152 0 -244 -63q-98 -66 -98 -177zM451 1034q0 -84 83.5 -129t223.5 -45q139 0 223 45t84 129q0 102 -94 158q-84 47 -213 47t-211 -47q-96 -55 -96 -158z" />
<glyph unicode="9" d="M96 932q0 233 167 374.5t466 141.5q371 0 535 -193q149 -173 149 -544q0 -373 -201 -566q-186 -176 -514 -176q-221 0 -374 90q-176 102 -187 283h324q6 -74 79.5 -119t180.5 -45q360 0 383 475q-180 -168 -453 -168q-238 0 -396.5 128t-158.5 319zM420 965 q0 -119 94 -191q88 -70 221 -69q143 0 234 65q100 72 100 201q0 115 -80 188q-88 80 -241 80q-143 0 -232 -65q-96 -74 -96 -209z" />
<glyph unicode=":" horiz-adv-x="563" d="M143 0v266h277v-266h-277zM143 764v266h277v-266h-277z" />
<glyph unicode=";" horiz-adv-x="563" d="M57 -256l138 522h307l-242 -522h-203zM195 764v266h276v-266h-276z" />
<glyph unicode="&#x3c;" horiz-adv-x="1196" d="M82 373v245l1001 373v-266l-663 -229l663 -230v-266z" />
<glyph unicode="=" horiz-adv-x="1196" d="M102 172v246h992v-246h-992zM102 664v245h992v-245h-992z" />
<glyph unicode="&#x3e;" horiz-adv-x="1196" d="M82 0v266l663 230l-663 229v266l1001 -373v-245z" />
<glyph unicode="?" horiz-adv-x="1161" d="M123 1223v213q57 25 168 47q129 25 239 24q225 0 367 -63q203 -92 203 -303q0 -137 -74 -234q-51 -66 -166 -139q-139 -88 -172 -119q-61 -55 -69.5 -77.5t-8.5 -114.5v-54h-229v132q0 100 80 182q29 29 114 96q70 57 140 115q68 72 67 172q0 203 -319 203 q-145 0 -340 -80zM356 0v266h277v-266h-277z" />
<glyph unicode="@" horiz-adv-x="2082" d="M84 403q0 414 299 693q291 270 702 270q406 0 662 -209q264 -215 264 -573q0 -260 -152.5 -435.5t-388.5 -175.5q-184 0 -256 133q-162 -133 -383 -133q-332 0 -331 355q0 217 123 377q111 145 286 198q94 29 344 29q180 0 299 -27l-131 -629q-4 -18 -4 -36q0 -86 74 -86 q111 0 195 114q94 125 94 316q0 262 -190.5 421.5t-504.5 159.5q-330 0 -544 -204q-221 -213 -222 -558q0 -317 191 -487q178 -162 489 -162q262 0 439 70l67 -174q-246 -92 -506 -92q-414 0 -659 217q-256 225 -256 628zM766 326q0 -88 20 -129q29 -57 111 -58 q123 0 207 135q68 104 100 267l45 219q-31 8 -114 8q-111 0 -174 -39q-80 -49 -137.5 -169t-57.5 -234z" />
<glyph unicode="A" horiz-adv-x="1845" d="M10 0l795 1434h260l770 -1434h-360l-166 324h-783l-170 -324h-346zM639 543h561l-188 393q-45 94 -88 231q-35 -119 -93 -233z" />
<glyph unicode="B" horiz-adv-x="1609" d="M164 0v1434h823q213 0 342 -84q154 -100 154 -306q0 -92 -72 -170q-74 -84 -199 -116q131 -18 223.5 -121.5t92.5 -218.5q0 -285 -283 -385q-92 -33 -264 -33h-817zM485 227h469q242 0 242 203q0 201 -242 201h-469v-404zM485 856h385q152 0 213 33q72 39 72 141 q0 121 -92 156q-49 20 -193 20h-385v-350z" />
<glyph unicode="C" horiz-adv-x="1716" d="M102 717q0 324 220 530q225 217 598 217q283 0 473 -108q208 -121 241 -342h-331q-14 100 -119 159.5t-260 59.5q-244 0 -371 -156q-115 -137 -115 -360q0 -231 117 -367q129 -147 371 -147q162 0 260 63.5t117 173.5h327q-18 -221 -210.5 -346t-512.5 -125 q-381 0 -593 202t-212 546z" />
<glyph unicode="D" horiz-adv-x="1783" d="M164 0v1434h770q350 0 547 -183q200 -188 200 -534t-204 -535q-197 -182 -547 -182h-766zM485 231h420q217 0 332 134q109 125 109 352t-115 356t-336 129h-410v-971z" />
<glyph unicode="E" horiz-adv-x="1357" d="M164 0v1434h1136v-232h-817v-354h785v-234h-785v-383h834v-231h-1153z" />
<glyph unicode="F" horiz-adv-x="1292" d="M164 0v1434h1087v-232h-768v-375h729v-233h-729v-594h-319z" />
<glyph unicode="G" horiz-adv-x="1859" d="M102 717q0 352 258 555q245 192 633 192h4q299 0 496 -110q211 -119 223 -330h-325q-39 106 -113 150q-94 57 -297 57q-258 0 -406 -146q-137 -137 -137 -350q0 -530 582 -530q147 0 221 14q55 8 143 27v315h-307v234h629v-725q-371 -100 -692 -101q-422 0 -656 174 q-256 190 -256 574z" />
<glyph unicode="H" horiz-adv-x="1751" d="M164 0v1434h321v-580h781v580h321v-1434h-321v612h-781v-612h-321z" />
<glyph unicode="I" horiz-adv-x="649" d="M164 0v1434h321v-1434h-321z" />
<glyph unicode="J" horiz-adv-x="1243" d="M63 428h328q-2 -225 182 -225t185 190v1041h321v-1041q0 -424 -512 -424q-504 0 -504 459z" />
<glyph unicode="K" horiz-adv-x="1632" d="M164 0v1434h321v-617l676 617h445l-781 -641l807 -793h-452l-695 741v-741h-321z" />
<glyph unicode="L" horiz-adv-x="1308" d="M164 0v1434h321v-1203h803v-231h-1124z" />
<glyph unicode="M" horiz-adv-x="2301" d="M164 0v1434h498l393 -889q66 -150 100 -250q39 117 100 250l410 889h473v-1434h-321v831q0 266 6 390q-84 -246 -148 -381l-389 -840h-285l-383 829q-63 135 -149 388q6 -150 6 -396v-821h-311z" />
<glyph unicode="N" horiz-adv-x="1822" d="M164 0v1434h440l627 -930q43 -63 125 -219l-6 219v930h309v-1434h-438l-627 934q-68 102 -127 223l6 -223v-934h-309z" />
<glyph unicode="O" horiz-adv-x="1882" d="M102 717q0 338 225.5 542.5t612.5 204.5t616 -209q224 -202 224 -538t-224 -539q-227 -209 -616 -209t-613.5 205t-224.5 543zM438 717q0 -227 125 -365q132 -151 374 -151h3q250 0 383 151q123 140 123 365q0 238 -123 375q-133 145 -383 145q-254 0 -385 -150 q-117 -137 -117 -370z" />
<glyph unicode="P" horiz-adv-x="1529" d="M164 0v1434h778q526 0 526 -424q0 -203 -145 -316.5t-393 -113.5h-445v-580h-321zM485 815h433q217 0 217 195q0 192 -215 192h-2h-433v-387z" />
<glyph unicode="Q" horiz-adv-x="1882" d="M102 717q0 338 225.5 542.5t612.5 204.5t616 -209q223 -203 224 -538q0 -133 -79 -289t-183 -217q4 0 63 2t84 2q119 0 233 -29v-217q-238 23 -696 29q-125 -29 -262 -29q-389 0 -613.5 205t-224.5 543zM438 717q0 -227 125 -365q132 -151 374 -151h3q250 0 383 151 q123 140 123 365q0 238 -123 375q-133 145 -383 145q-254 0 -385 -150q-117 -137 -117 -370z" />
<glyph unicode="R" horiz-adv-x="1630" d="M164 0v1434h848q217 0 350 -74q170 -94 170 -301q0 -113 -80 -203q-82 -96 -223 -129q213 -31 250 -278l20 -136q15 -94 70 -313h-340q-16 92 -43 258l-19 131q-18 133 -59 176q-47 51 -186 51h-437v-616h-321zM485 840h471q242 0 242 184q0 178 -231 178h-482v-362z" />
<glyph unicode="S" horiz-adv-x="1589" d="M82 475h324v-8q0 -268 380 -268q377 0 377 198q0 90 -61 131q-51 37 -164 52l-344 45q-207 27 -313 92q-168 102 -168 319q0 215 200 328q176 100 465 100q283 0 463 -94q217 -113 221 -342h-319q-2 102 -103.5 155.5t-271.5 53.5q-334 0 -334 -180q0 -90 74 -127 q39 -18 151 -35l289 -41q236 -33 350 -102q189 -110 189 -346q0 -233 -223 -345q-182 -92 -480 -92q-700 0 -702 506z" />
<glyph unicode="T" horiz-adv-x="1464" d="M10 1202v232h1444v-232h-563v-1202h-320v1202h-561z" />
<glyph unicode="U" horiz-adv-x="1744" d="M143 608v826h322v-807q0 -424 405 -424q410 0 410 424v807h322v-826q0 -305 -189.5 -472t-542.5 -167q-350 0 -538.5 163t-188.5 476z" />
<glyph unicode="V" horiz-adv-x="1759" d="M10 1434h355l321 -682q125 -266 195 -459q74 205 186 442l328 699h354l-741 -1434h-277z" />
<glyph unicode="W" horiz-adv-x="2414" d="M10 1434h346l234 -699q53 -160 106 -362q27 113 113 362l240 699h329l230 -699q68 -207 106 -358q49 188 107 358l235 699h348l-532 -1434h-320l-233 735q-74 231 -109 375q-49 -172 -118 -375l-254 -735h-314z" />
<glyph unicode="X" horiz-adv-x="1730" d="M10 0l647 750l-632 684h409l436 -506l433 506h399l-647 -689l665 -745h-409l-465 561l-436 -561h-400z" />
<glyph unicode="Y" horiz-adv-x="1757" d="M10 1434h385l326 -406q55 -80 162 -233q102 152 159 227l320 412h385l-709 -832v-602h-319v602z" />
<glyph unicode="Z" horiz-adv-x="1452" d="M41 0v258l696 682q31 29 293 270q-188 -12 -315 -12h-641v236h1337v-258l-692 -672q-186 -180 -309 -281q215 14 297 15h690v-238h-1356z" />
<glyph unicode="[" horiz-adv-x="620" d="M109 -197v1811h450v-176h-219v-1458h219v-177h-450z" />
<glyph unicode="\" horiz-adv-x="962" d="M41 1479h217l664 -1540h-217z" />
<glyph unicode="]" horiz-adv-x="620" d="M61 -20h220v1458h-220v176h451v-1811h-451v177z" />
<glyph unicode="^" horiz-adv-x="1196" d="M127 680l342 768h254l348 -768h-231l-242 551l-240 -551h-231z" />
<glyph unicode="_" horiz-adv-x="1024" d="M0 -139h1024v-115h-1024v115z" />
<glyph unicode="`" horiz-adv-x="606" d="M-90 1477h360l291 -299h-258z" />
<glyph unicode="a" horiz-adv-x="1462" d="M98 305q0 219 264 295q133 37 400 37h227q0 237 -270 237h-2q-233 0 -252 -131h-309q12 160 178 242q145 74 375 74q588 0 587 -383v-440q1 -31 15 -236h-262l-11 125q-143 -156 -428 -156q-260 0 -391 94q-121 88 -121 242zM418 297q0 -137 239 -137q150 0 246 82 q88 78 88 180v43h-256q-317 0 -317 -168z" />
<glyph unicode="b" horiz-adv-x="1576" d="M154 0q10 119 10 211v1268h315v-586q123 166 428 166q229 0 381 -113q187 -141 187 -422q0 -258 -160 -406.5t-412 -148.5q-291 0 -428 162l-8 -131h-313zM479 524q0 -164 84 -258q86 -100 250 -100t254 102q82 94 82 256q0 154 -86 247t-250 93q-143 0 -238 -90 q-96 -96 -96 -250z" />
<glyph unicode="c" horiz-adv-x="1404" d="M102 506q0 250 154 395q168 158 487 158q252 0 398.5 -100.5t161.5 -296.5h-316q-14 204 -252 204h-2q-305 0 -305 -352t301 -352q123 0 197 59q68 57 71 146h316q-33 -397 -586 -398q-313 0 -473 146q-152 139 -152 391z" />
<glyph unicode="d" horiz-adv-x="1576" d="M102 524q4 240 152 381q158 154 440 154q270 0 404 -164v584h315v-1268q4 -84 10 -211h-311l-12 133q-152 -164 -420 -164q-279 0 -436 166q-142 151 -142 380v9zM428 526q0 -362 338 -362q150 0 238 90q96 96 96 272q0 164 -92.5 254t-241.5 90q-162 0 -250 -95 t-88 -249z" />
<glyph unicode="e" horiz-adv-x="1458" d="M102 506q0 248 168 400.5t469 152.5q287 0 448 -135.5t165 -374.5l2 -107h-932q0 -127 87 -204.5t241 -77.5q115 0 176 26q76 31 104 113h322q-49 -330 -600 -330q-649 0 -650 537zM422 625h616q-2 104 -71 170q-81 75 -232 75h-4q-139 0 -221 -73q-74 -63 -88 -172z" />
<glyph unicode="f" horiz-adv-x="921" d="M0 829v199h258v125q0 201 150 291q109 65 277 65h5q106 0 242 -32v-203q-74 16 -174 16q-186 0 -187 -196v-66h332v-199h-332v-829h-313v829h-258z" />
<glyph unicode="g" horiz-adv-x="1574" d="M102 518q0 256 157 398.5t446 142.5q258 0 399 -162l8 131h309q-10 -158 -10 -211v-655q0 -334 -184 -467q-150 -109 -486 -109q-283 0 -419 60q-174 74 -191 264h326q23 -68 94.5 -95.5t218.5 -27.5q172 0 253 90q74 82 74 266q0 18 -1 37q-63 -72 -176 -114 q-104 -41 -211 -41q-293 0 -450 133t-157 360zM430 528q0 -311 334 -311q160 0 248 85t88 226q0 154 -82 242q-88 94 -254 94q-168 0 -256 -96q-78 -88 -78 -240z" />
<glyph unicode="h" horiz-adv-x="1536" d="M164 0v1479h313v-617q139 197 391 197q258 0 389 -129q115 -115 115 -312v-618h-313v569q0 287 -260 287q-160 0 -246 -104q-76 -94 -76 -240v-512h-313z" />
<glyph unicode="i" horiz-adv-x="634" d="M158 1184v295h319v-295h-319zM164 0v1028h307v-1028h-307z" />
<glyph unicode="j" horiz-adv-x="630" d="M-102 -162q57 -14 122 -14q141 0 142 184v1020h305v-1085q0 -336 -363 -336q-78 0 -206 18v213zM154 1184v295h319v-295h-319z" />
<glyph unicode="k" horiz-adv-x="1345" d="M164 0v1479h313v-846l428 395h432l-555 -434l574 -594h-414l-465 543v-543h-313z" />
<glyph unicode="l" horiz-adv-x="630" d="M164 0v1479h303v-1479h-303z" />
<glyph unicode="m" horiz-adv-x="2310" d="M152 1028h307l10 -154q55 78 147 127q102 57 222 58q172 0 268 -53q90 -49 156 -170q156 223 426 223q227 0 350 -129q109 -113 108 -285v-645h-315v596q0 264 -234 264q-123 0 -203.5 -104.5t-80.5 -268.5v-487h-314v578q0 282 -233 282h-2q-141 0 -217 -119 q-68 -104 -68 -272v-469h-315v801q0 43 -12 227z" />
<glyph unicode="n" horiz-adv-x="1536" d="M152 1028h297l12 -164q137 195 399 195q512 0 512 -436v-623h-313v606q0 254 -254 254q-152 0 -240 -100.5t-88 -257.5v-502h-313v815q0 88 -12 213z" />
<glyph unicode="o" horiz-adv-x="1570" d="M102 514q0 262 176.5 403.5t503.5 141.5q334 0 510 -142.5t176 -402.5q0 -264 -170 -401q-174 -143 -514 -144q-682 0 -682 545zM430 514q0 -162 92 -257t262 -95t263.5 95t93.5 257q0 164 -94.5 258t-262.5 94q-162 0 -258 -96t-96 -256z" />
<glyph unicode="p" horiz-adv-x="1576" d="M154 1028h311l8 -147q139 178 412 178q272 0 431 -148.5t159 -406.5q0 -240 -142 -381q-154 -154 -438 -154q-272 0 -416 152v-514h-315v1216q-2 94 -10 205zM479 504q0 -164 92 -256q84 -88 222 -88q170 0 263 94t93 250q0 162 -80 254q-88 100 -258 100 q-164 0 -252 -102q-80 -94 -80 -252z" />
<glyph unicode="q" horiz-adv-x="1576" d="M102 510q0 246 161 397.5t419 151.5q283 0 420 -166l6 135h305v-1421h-315v522q-154 -160 -424 -160t-424 154q-147 145 -148 387zM428 508q0 -154 72 -242q84 -102 250 -102q164 0 257 93q91 91 91 248v7q-2 154 -90 250q-96 100 -265 100q-152 0 -233.5 -94t-81.5 -260 z" />
<glyph unicode="r" horiz-adv-x="948" d="M164 0v1028h311v-186q132 202 318 202h2q80 0 133 -10v-239q-98 12 -129 12q-135 0 -217 -72q-106 -92 -107 -286v-449h-311z" />
<glyph unicode="s" horiz-adv-x="1314" d="M51 319h332q39 -165 257 -165h3q266 0 266 114q0 82 -159 105l-242 33q-416 57 -416 323q0 135 121 221q150 109 451 109q508 0 538 -326h-323q-8 63 -77 102t-186 39q-88 0 -144 -29.5t-56 -78.5q0 -78 188 -107l311 -47q318 -47 318 -305q0 -338 -569 -338 q-328 0 -469 86q-135 80 -144 264z" />
<glyph unicode="t" horiz-adv-x="956" d="M20 829v199h228v215l313 78v-293h334v-199h-334v-540q0 -35 27 -68q33 -39 86 -39q70 0 211 27v-211q-160 -29 -289 -29q-348 0 -348 301v559h-228z" />
<glyph unicode="u" horiz-adv-x="1525" d="M154 446v582h313v-565q0 -143 49 -213q59 -84 201 -84q160 0 244 100q78 92 77 252v510h314v-833q0 -11 10 -195h-287l-8 164q-86 -94 -156 -133q-111 -61 -272 -62q-270 0 -387 140q-98 115 -98 337z" />
<glyph unicode="v" horiz-adv-x="1480" d="M10 1028h361l274 -541q35 -76 92 -225q14 39 97 225l280 541h356l-618 -1028h-244z" />
<glyph unicode="w" horiz-adv-x="2369" d="M10 1028h363l227 -532q20 -47 76 -207q31 82 88 207l254 532h358l240 -532q23 -49 82 -207q29 88 80 207l229 532h352l-532 -1028h-303l-244 537q-29 66 -90 225q-29 -80 -98 -225l-263 -537h-309z" />
<glyph unicode="x" horiz-adv-x="1447" d="M10 1028h428l283 -303l311 303h406l-520 -496l516 -532h-430l-295 344l-293 -344h-402l504 537z" />
<glyph unicode="y" horiz-adv-x="1435" d="M10 1028h359l317 -670l395 670h344l-872 -1421h-328l289 502z" />
<glyph unicode="z" horiz-adv-x="1247" d="M61 0v246l469 364q96 76 291 209q-104 -4 -338 -4h-413v213h1095v-256l-452 -348q-106 -82 -301 -217q131 10 336 10h438v-217h-1125z" />
<glyph unicode="{" horiz-adv-x="731" d="M51 623v168q109 0 150 65q31 51 30 174v340q0 244 263 244h186v-176h-102q-82 0 -102.5 -27t-20.5 -115v-297q0 -176 -74 -245q-25 -23 -94 -45q70 -20 94 -45q74 -72 74 -248v-297q0 -88 20.5 -115t102.5 -27h102v-176h-186q-262 0 -263 244v340q0 123 -30 174 q-41 63 -150 64z" />
<glyph unicode="|" horiz-adv-x="569" d="M162 -61v1540h246v-1540h-246z" />
<glyph unicode="}" horiz-adv-x="731" d="M51 -23h103q82 0 102 27t20 115v297q0 176 74 248q25 25 94 45q-70 23 -94 45q-74 70 -74 245v297q0 88 -20 115t-102 27h-103v176h187q262 0 262 -244v-340q0 -123 32 -174q39 -66 148 -65v-168q-109 0 -148 -64q-33 -51 -32 -174v-340q0 -244 -262 -244h-187v176z" />
<glyph unicode="~" horiz-adv-x="1196" d="M121 393q0 342 233 342q94 0 168 -45l244 -147q41 -25 65 -25q68 0 68 150h176q0 -342 -233 -342q-94 0 -168 45l-244 147q-41 25 -65 25q-68 0 -68 -150h-176z" />
<glyph unicode="&#xa1;" horiz-adv-x="817" d="M256 762v266h276v-266h-276zM260 -451l27 1076h215l37 -1076h-279z" />
<glyph unicode="&#xa2;" horiz-adv-x="1705" d="M82 420q0 274 287 371q-113 51 -158 102q-72 78 -72 215q0 190 170 287q150 82 406 82q135 0 360 -35v-230q-51 8 -102 15q-86 12 -182 12q-137 0 -203 -22q-115 -37 -115 -144q0 -176 260 -176h457v254h289v-254h227v-233h-227v-664h-850q-547 0 -547 420zM403 440 q0 -207 230 -207h555v431h-451q-164 0 -231 -31q-102 -49 -103 -193z" />
<glyph unicode="&#xa3;" horiz-adv-x="1404" d="M39 633v233h182v144q0 438 596 438q250 0 393 -98q154 -103 154 -293h-297q0 76 -57 127q-70 59 -197 59q-287 0 -287 -256v-121h613v-233h-613v-402h799v-231h-1264v231h158v402h-180z" />
<glyph unicode="&#xa4;" horiz-adv-x="1542" d="M61 455l27 184h184q-4 45 -4 70t4 73h-211l27 185h213q61 223 270 352t510 129q188 0 359 -39v-244q-180 45 -359 45q-160 0 -285.5 -65.5t-168.5 -177.5h700l-27 -185h-714q-4 -49 -4 -73q0 -25 4 -70h741l-27 -184h-671q43 -111 174 -181q125 -66 278 -65q184 0 359 51 v-252q-166 -39 -359 -39q-305 0 -514 128t-268 358h-238z" />
<glyph unicode="&#xa5;" horiz-adv-x="1429" d="M10 1417h369q102 -197 344 -633l348 633h369l-492 -721h228v-176h-302v-114h302v-177h-302v-229h-319v229h-283v177h283v114h-283v176h211z" />
<glyph unicode="&#xa6;" horiz-adv-x="569" d="M162 0v590h246v-590h-246zM162 889v590h246v-590h-246z" />
<glyph unicode="&#xa7;" horiz-adv-x="1087" d="M102 682q0 86 60 147q39 43 131 91q-156 104 -156 227q0 301 422 301q156 0 342 -51v-226q-197 66 -301 66q-178 0 -178 -78q0 -53 72 -82q59 -16 118 -33l138 -43q223 -70 223 -233q0 -139 -176 -229q188 -97 188 -244q0 -162 -151 -250q-133 -76 -326 -76 q-238 0 -371 51v242q174 -74 359 -74q207 0 206 103q0 53 -79 84q-18 8 -123 33l-140 32q-258 61 -258 242zM356 739q0 -55 93 -90q72 -23 145 -43q119 49 119 137q0 45 -97 78q-68 16 -135 35q-70 -27 -92 -45q-33 -27 -33 -72z" />
<glyph unicode="&#xa8;" horiz-adv-x="563" d="M92 1198v248h256v-248h-256zM625 1198v248h256v-248h-256z" />
<glyph unicode="&#xa9;" horiz-adv-x="1724" d="M123 709q0 311 216 525t523 214t523.5 -214t216.5 -525q0 -313 -216.5 -526.5t-523.5 -213.5t-523 213t-216 527zM311 709q0 -231 161 -398.5t390 -167.5q233 0 392 166.5t159 399.5t-157.5 399t-393.5 166q-233 0 -392 -166t-159 -399zM496 713q0 182 88 291 q96 121 274 120q152 0 248 -67q109 -76 108 -219h-194q0 66 -43 106.5t-115 40.5q-82 0 -127 -84q-39 -74 -39 -188q0 -270 168 -271q72 0 114 40t42 106h194q0 -145 -110 -221q-96 -63 -246 -64q-182 0 -276 119q-86 109 -86 291z" />
<glyph unicode="&#xaa;" horiz-adv-x="1107" d="M111 942q0 154 176 207q100 31 303 31h143q-10 139 -176 139q-150 0 -164 -94h-243q10 125 133 188q102 51 268 51q426 0 426 -272v-297q0 -31 12 -172h-213l-6 68q-109 -88 -287 -89q-373 0 -372 240zM162 348v184h815v-184h-815zM362 940q0 -86 154 -86q102 0 160.5 49 t58.5 119v18h-166q-98 0 -133 -10q-74 -20 -74 -90z" />
<glyph unicode="&#xab;" horiz-adv-x="1132" d="M61 551l271 395h258l-242 -395l244 -404h-256zM520 551l271 395h258l-242 -395l244 -404h-256z" />
<glyph unicode="&#xac;" horiz-adv-x="1196" d="M102 598v246h992v-596h-246v350h-746z" />
<glyph unicode="&#xad;" horiz-adv-x="794" d="M82 426v229h631v-229h-631z" />
<glyph unicode="&#xae;" horiz-adv-x="1724" d="M123 709q0 311 216 525t523 214t523.5 -214t216.5 -525q0 -313 -216.5 -526.5t-523.5 -213.5t-523 213t-216 527zM311 709q0 -231 161 -398.5t390 -167.5q233 0 392 166.5t159 399.5t-157.5 399t-393.5 166q-233 0 -392 -166t-159 -399zM584 322v790h338q121 0 192 -49 q82 -55 82 -160q0 -137 -127 -186q63 -18 88 -80q10 -29 23 -121q14 -110 41 -194h-199q-10 51 -29 217q-6 53 -16 67q-14 27 -64 27h-143v-311h-186zM770 780h127q104 1 104 97q0 88 -104 88h-127v-185z" />
<glyph unicode="&#xaf;" horiz-adv-x="569" d="M-39 1239v143h649v-143h-649z" />
<glyph unicode="&#xb0;" horiz-adv-x="868" d="M123 1145q0 127 91 215t220 88t220 -88t91 -215t-91 -215t-220 -88t-220 88t-91 215zM276 1145q0 -63 47.5 -110.5t110.5 -47.5t110.5 47.5t47.5 110.5t-47 110.5t-111 47.5q-63 0 -110.5 -47.5t-47.5 -110.5z" />
<glyph unicode="&#xb1;" horiz-adv-x="1196" d="M102 0v246h992v-246h-992zM123 547v246h352v249h246v-249h352v-246h-352v-199h-246v199h-352z" />
<glyph unicode="&#xb2;" horiz-adv-x="921" d="M78 594v174l166 96q236 137 301 191q86 68 86 137q0 49 -43 77.5t-113 28.5q-72 0 -112.5 -30.5t-40.5 -65.5v-24h-222q4 121 95 192q102 78 290 78q182 0 281 -80q84 -66 84 -166q0 -115 -84 -201t-305 -202l-82 -43h487v-162h-788z" />
<glyph unicode="&#xb3;" horiz-adv-x="921" d="M66 848h219q10 -121 186 -121t176 115q0 80 -108 102q-43 8 -174 8v146q119 0 161 10q102 20 103 96q0 100 -152 101q-147 0 -160 -109h-219q2 129 121 197q100 59 254 59q193 0 289 -72q82 -61 82 -159q0 -129 -154 -185q76 -20 125 -67q57 -55 57 -129 q0 -123 -108.5 -191.5t-298.5 -68.5q-229 0 -326 88q-66 61 -73 180z" />
<glyph unicode="&#xb4;" horiz-adv-x="606" d="M45 1178l291 299h360l-393 -299h-258z" />
<glyph unicode="&#xb6;" horiz-adv-x="1214" d="M82 1071q0 203 131 309q121 98 322 99h598v-172h-91v-1307h-200v1307h-217v-1307h-201v686q-158 29 -250 128t-92 257z" />
<glyph unicode="&#xb7;" horiz-adv-x="563" d="M143 408v266h277v-266h-277z" />
<glyph unicode="&#xb8;" horiz-adv-x="612" d="M41 -293q102 -33 176 -33q119 0 119 78q0 72 -125 72q-16 0 -72 -17l-41 41l150 179h100l-110 -129q43 14 104 14q70 0 124 -39t54 -102q0 -190 -303 -191q-74 0 -176 31v96z" />
<glyph unicode="&#xb9;" horiz-adv-x="921" d="M199 1141v190q147 53 231 117h188v-854h-208v639q-80 -49 -211 -92z" />
<glyph unicode="&#xba;" horiz-adv-x="1107" d="M61 1083q0 184 128 282.5t362 98.5q240 0 368 -99.5t128 -281.5q0 -381 -494 -381q-492 0 -492 381zM127 348v184h858v-184h-858zM319 1083q0 -104 60.5 -164.5t173.5 -60.5t174 60.5t61 164.5t-62 165t-173 61q-106 0 -170 -61.5t-64 -164.5z" />
<glyph unicode="&#xbb;" horiz-adv-x="1132" d="M82 147l244 404l-242 395h258l270 -395l-274 -404h-256zM541 147l243 404l-241 395h258l270 -395l-274 -404h-256z" />
<glyph unicode="&#xbc;" horiz-adv-x="1916" d="M84 1141v190q147 53 231 117h189v-854h-209v639q-80 -49 -211 -92zM451 -61l776 1540h194l-776 -1540h-194zM1006 164v131l485 559h205v-530h151v-160h-151v-164h-203v164h-487zM1237 324h256v249l4 56l-31 -41z" />
<glyph unicode="&#xbd;" horiz-adv-x="1916" d="M84 1141v190q147 53 231 117h189v-854h-209v639q-80 -49 -211 -92zM416 -61l776 1540h194l-776 -1540h-194zM1055 0v174l166 96q236 137 301 191q86 68 86 137q0 49 -43 78t-113 29q-72 0 -113 -31t-41 -66v-24h-221q4 121 94 192q102 78 291 78q182 0 281 -80 q84 -66 84 -166q0 -115 -84 -200.5t-305 -202.5l-82 -43h487v-162h-788z" />
<glyph unicode="&#xbe;" horiz-adv-x="1916" d="M37 848h219q10 -121 186 -121t176 115q0 80 -108 102q-43 8 -174 8v146q119 0 162 10q102 20 102 96q0 100 -151 101q-147 0 -160 -109h-219q2 129 120 197q100 59 254 59q193 0 289 -72q82 -61 82 -159q0 -129 -153 -185q76 -20 124 -67q58 -55 58 -129 q0 -123 -108.5 -191.5t-299.5 -68.5q-229 0 -325 88q-66 61 -74 180zM530 -61l777 1540h194l-776 -1540h-195zM1026 164v131l485 559h205v-530h152v-160h-152v-164h-203v164h-487zM1257 324h256v249l5 56l-31 -41z" />
<glyph unicode="&#xbf;" horiz-adv-x="1161" d="M123 -113q0 137 74 234q51 66 165 139q139 88 173 119q61 55 69 77.5t8 114.5v54h230v-131q0 -100 -80 -183q-29 -29 -115 -96q-70 -57 -139 -115q-68 -72 -68 -172q0 -203 320 -202q145 0 340 79v-213q-57 -25 -168 -47q-129 -25 -240 -24q-225 0 -366 63 q-203 92 -203 303zM590 762v266h276v-266h-276z" />
<glyph unicode="&#xc0;" horiz-adv-x="1845" d="M10 0l795 1434h260l770 -1434h-360l-166 324h-783l-170 -324h-346zM416 1907h360l291 -299h-258zM639 543h561l-188 393q-45 94 -88 231q-35 -119 -93 -233z" />
<glyph unicode="&#xc1;" horiz-adv-x="1845" d="M10 0l795 1434h260l770 -1434h-360l-166 324h-783l-170 -324h-346zM639 543h561l-188 393q-45 94 -88 231q-35 -119 -93 -233zM811 1608l291 299h360l-393 -299h-258z" />
<glyph unicode="&#xc2;" horiz-adv-x="1845" d="M10 0l795 1434h260l770 -1434h-360l-166 324h-783l-170 -324h-346zM557 1608l268 299h219l259 -299h-191l-180 196l-184 -196h-191zM639 543h561l-188 393q-45 94 -88 231q-35 -119 -93 -233z" />
<glyph unicode="&#xc3;" horiz-adv-x="1845" d="M10 0l795 1434h260l770 -1434h-360l-166 324h-783l-170 -324h-346zM543 1628q0 90 65 166q74 84 187 84q61 0 170.5 -39t167.5 -39q37 0 59 26.5t22 65.5h119q0 -102 -59 -170q-66 -76 -182 -75q-59 0 -167 36.5t-159 36.5q-47 0 -75.5 -28.5t-28.5 -63.5h-119zM639 543 h561l-188 393q-45 94 -88 231q-35 -119 -93 -233z" />
<glyph unicode="&#xc4;" horiz-adv-x="1845" d="M10 0l795 1434h260l770 -1434h-360l-166 324h-783l-170 -324h-346zM541 1628v248h256v-248h-256zM639 543h561l-188 393q-45 94 -88 231q-35 -119 -93 -233zM1073 1628v248h256v-248h-256z" />
<glyph unicode="&#xc5;" horiz-adv-x="1845" d="M10 0l795 1434h260l770 -1434h-360l-166 324h-783l-170 -324h-346zM639 543h561l-188 393q-45 94 -88 231q-35 -119 -93 -233zM721 1784q0 84 61.5 141t147.5 57t148.5 -57t62.5 -141t-62.5 -140.5t-148.5 -56.5t-147.5 56.5t-61.5 140.5zM823 1784q0 -47 30 -78t75 -31 q47 0 78.5 32t31.5 77q0 47 -31.5 78.5t-76.5 31.5t-76 -31.5t-31 -78.5z" />
<glyph unicode="&#xc6;" horiz-adv-x="2478" d="M0 0l1124 1434h1276v-232h-821l61 -354h727v-234h-677l71 -383h656v-231h-932l-58 324h-817l-243 -324h-367zM772 543h614l-71 381q-39 205 -51 301q-59 -94 -179 -269z" />
<glyph unicode="&#xc7;" horiz-adv-x="1716" d="M102 717q0 324 220 530q225 217 598 217q283 0 473 -108q208 -121 241 -342h-331q-14 100 -119 159.5t-260 59.5q-244 0 -371 -156q-115 -137 -115 -360q0 -231 117 -367q129 -147 371 -147q162 0 260 63.5t117 173.5h327q-18 -215 -199.5 -339t-482.5 -132l-61 -71 q43 14 104 14q70 0 124 -39t54 -102q0 -190 -303 -191q-74 0 -176 31v96q102 -33 176 -33q119 0 119 78q0 72 -125 72q-16 0 -72 -17l-40 41l102 123q-354 14 -551 215t-197 531z" />
<glyph unicode="&#xc8;" horiz-adv-x="1357" d="M164 0v1434h1136v-232h-817v-354h785v-234h-785v-383h834v-231h-1153zM213 1907h360l291 -299h-258z" />
<glyph unicode="&#xc9;" horiz-adv-x="1357" d="M164 0v1434h1136v-232h-817v-354h785v-234h-785v-383h834v-231h-1153zM520 1608l291 299h360l-393 -299h-258z" />
<glyph unicode="&#xca;" horiz-adv-x="1357" d="M164 0v1434h1136v-232h-817v-354h785v-234h-785v-383h834v-231h-1153zM358 1608l269 299h219l258 -299h-191l-180 196l-184 -196h-191z" />
<glyph unicode="&#xcb;" horiz-adv-x="1357" d="M164 0v1434h1136v-232h-817v-354h785v-234h-785v-383h834v-231h-1153zM334 1628v248h256v-248h-256zM866 1628v248h256v-248h-256z" />
<glyph unicode="&#xcc;" horiz-adv-x="649" d="M-176 1907h360l291 -299h-258zM164 0v1434h321v-1434h-321z" />
<glyph unicode="&#xcd;" horiz-adv-x="649" d="M164 0v1434h321v-1434h-321zM168 1608l291 299h360l-393 -299h-258z" />
<glyph unicode="&#xce;" horiz-adv-x="649" d="M-53 1608l268 299h219l258 -299h-190l-180 196l-185 -196h-190zM164 0v1434h321v-1434h-321z" />
<glyph unicode="&#xcf;" horiz-adv-x="649" d="M-74 1628v248h256v-248h-256zM164 0v1434h321v-1434h-321zM459 1628v248h256v-248h-256z" />
<glyph unicode="&#xd0;" horiz-adv-x="1783" d="M12 637v209h152v588h770q350 0 547 -183q200 -188 200 -534q0 -348 -199.5 -532.5t-547.5 -184.5h-770v637h-152zM485 231h408q219 0 338 134q115 127 115 352q0 227 -115 356t-336 129h-410v-356h435v-209h-435v-406z" />
<glyph unicode="&#xd1;" horiz-adv-x="1822" d="M164 0v1434h440l627 -930q43 -63 125 -219l-6 219v930h309v-1434h-438l-627 934q-68 102 -127 223l6 -223v-934h-309zM545 1628q0 90 65 166q74 84 187 84q61 0 170.5 -39t167.5 -39q37 0 59.5 26.5t22.5 65.5h118q0 -102 -59 -170q-66 -76 -182 -75q-59 0 -167 36.5 t-159 36.5q-47 0 -75.5 -28.5t-28.5 -63.5h-119z" />
<glyph unicode="&#xd2;" horiz-adv-x="1882" d="M102 717q0 338 225.5 542.5t612.5 204.5t616 -209q224 -202 224 -538t-224 -539q-227 -209 -616 -209t-613.5 205t-224.5 543zM438 717q0 -227 125 -365q133 -152 377 -151q250 0 383 151q123 140 123 365q0 238 -123 375q-133 145 -383 145q-254 0 -385 -150 q-117 -137 -117 -370zM444 1907h361l291 -299h-258z" />
<glyph unicode="&#xd3;" horiz-adv-x="1882" d="M102 717q0 338 225.5 542.5t612.5 204.5t616 -209q224 -202 224 -538t-224 -539q-227 -209 -616 -209t-613.5 205t-224.5 543zM438 717q0 -227 125 -365q133 -152 377 -151q250 0 383 151q123 140 123 365q0 238 -123 375q-133 145 -383 145q-254 0 -385 -150 q-117 -137 -117 -370zM780 1608l291 299h361l-394 -299h-258z" />
<glyph unicode="&#xd4;" horiz-adv-x="1882" d="M102 717q0 338 225.5 542.5t612.5 204.5t616 -209q224 -202 224 -538t-224 -539q-227 -209 -616 -209t-613.5 205t-224.5 543zM438 717q0 -227 125 -365q133 -152 377 -151q250 0 383 151q123 140 123 365q0 238 -123 375q-133 145 -383 145q-254 0 -385 -150 q-117 -137 -117 -370zM567 1608l269 299h219l258 -299h-191l-180 196l-184 -196h-191z" />
<glyph unicode="&#xd5;" horiz-adv-x="1882" d="M102 717q0 338 225.5 542.5t612.5 204.5t616 -209q224 -202 224 -538t-224 -539q-227 -209 -616 -209t-613.5 205t-224.5 543zM438 717q0 -227 125 -365q133 -152 377 -151q250 0 383 151q123 140 123 365q0 238 -123 375q-133 145 -383 145q-254 0 -385 -150 q-117 -137 -117 -370zM539 1628q0 90 65 166q74 84 187 84q61 0 170.5 -39t166.5 -39q37 0 59.5 26.5t22.5 65.5h119q0 -102 -59 -170q-66 -76 -183 -75q-59 0 -166.5 36.5t-158.5 36.5q-47 0 -76 -28.5t-29 -63.5h-118z" />
<glyph unicode="&#xd6;" horiz-adv-x="1882" d="M102 717q0 338 225.5 542.5t612.5 204.5t616 -209q224 -202 224 -538t-224 -539q-227 -209 -616 -209t-613.5 205t-224.5 543zM438 717q0 -227 125 -365q133 -152 377 -151q250 0 383 151q123 140 123 365q0 238 -123 375q-133 145 -383 145q-254 0 -385 -150 q-117 -137 -117 -370zM543 1628v248h256v-248h-256zM1075 1628v248h256v-248h-256z" />
<glyph unicode="&#xd7;" horiz-adv-x="1196" d="M102 154l322 321l-322 322l174 174l322 -322l322 322l174 -174l-322 -322l322 -321l-174 -174l-322 321l-322 -321z" />
<glyph unicode="&#xd8;" horiz-adv-x="1882" d="M102 717q0 338 225.5 542.5t612.5 204.5q281 0 479 -110l172 186l131 -110l-163 -177q221 -202 221 -536q0 -336 -224 -539q-227 -209 -616 -209q-276 0 -477 109l-172 -184l-123 110l158 170q-223 201 -224 543zM438 717q0 -195 90 -324l711 768q-121 76 -299 76 q-254 0 -385 -150q-117 -137 -117 -370zM649 276q117 -76 291 -75q250 0 383 151q123 140 123 365q0 201 -84 325z" />
<glyph unicode="&#xd9;" horiz-adv-x="1744" d="M143 608v826h322v-807q0 -424 405 -424q410 0 410 424v807h322v-826q0 -305 -189.5 -472t-542.5 -167q-350 0 -538.5 163t-188.5 476zM381 1907h360l291 -299h-258z" />
<glyph unicode="&#xda;" horiz-adv-x="1744" d="M143 608v826h322v-807q0 -424 405 -424q410 0 410 424v807h322v-826q0 -305 -189.5 -472t-542.5 -167q-350 0 -538.5 163t-188.5 476zM721 1608l291 299h360l-393 -299h-258z" />
<glyph unicode="&#xdb;" horiz-adv-x="1744" d="M143 608v826h322v-807q0 -424 405 -424q410 0 410 424v807h322v-826q0 -305 -189.5 -472t-542.5 -167q-350 0 -538.5 163t-188.5 476zM502 1608l268 299h219l258 -299h-190l-180 196l-185 -196h-190z" />
<glyph unicode="&#xdc;" horiz-adv-x="1744" d="M143 608v826h322v-807q0 -424 405 -424q410 0 410 424v807h322v-826q0 -305 -189.5 -472t-542.5 -167q-350 0 -538.5 163t-188.5 476zM479 1628v248h256v-248h-256zM1012 1628v248h256v-248h-256z" />
<glyph unicode="&#xdd;" horiz-adv-x="1757" d="M10 1434h385l326 -406q55 -80 162 -233q102 152 159 227l320 412h385l-709 -832v-602h-319v602zM700 1608l291 299h361l-394 -299h-258z" />
<glyph unicode="&#xde;" horiz-adv-x="1529" d="M164 0v1434h321v-277h457q526 0 526 -424q0 -203 -145 -316.5t-393 -113.5h-445v-303h-321zM485 535h433q217 -1 217 198q0 193 -217 193h-433v-391z" />
<glyph unicode="&#xdf;" horiz-adv-x="1652" d="M164 -2v926q0 276 131 415q158 170 518 170q496 0 496 -311q0 -115 -68 -192q-43 -49 -162 -125q-88 -57 -86 -90q2 -27 24.5 -42.5t106.5 -46.5l146 -51q152 -53 207 -100q94 -78 94 -223q0 -188 -170 -283q-135 -76 -330 -76q-209 0 -317 54q-160 76 -162 272h323 q12 -123 172 -123q166 0 166 107q0 80 -90 127q-27 14 -162 57q-293 94 -292 293q0 94 63 166q23 27 135 118q66 53 80 72q29 35 29 88q0 121 -230 121q-307 0 -307 -449v-874h-315z" />
<glyph unicode="&#xe0;" horiz-adv-x="1462" d="M98 305q0 219 264 295q133 37 400 37h227q0 238 -272 237q-233 0 -252 -131h-309q12 160 178 242q145 74 375 74q588 0 587 -383v-440q1 -31 15 -236h-262l-11 125q-143 -156 -428 -156q-260 0 -391 94q-121 88 -121 242zM207 1477h360l291 -299h-258zM418 297 q0 -137 239 -137q150 0 246 82q88 78 88 180v43h-256q-317 0 -317 -168z" />
<glyph unicode="&#xe1;" horiz-adv-x="1462" d="M98 305q0 219 264 295q133 37 400 37h227q0 238 -272 237q-233 0 -252 -131h-309q12 160 178 242q145 74 375 74q588 0 587 -383v-440q1 -31 15 -236h-262l-11 125q-143 -156 -428 -156q-260 0 -391 94q-121 88 -121 242zM418 297q0 -137 239 -137q150 0 246 82 q88 78 88 180v43h-256q-317 0 -317 -168zM553 1178l291 299h360l-393 -299h-258z" />
<glyph unicode="&#xe2;" horiz-adv-x="1462" d="M98 305q0 219 264 295q133 37 400 37h227q0 238 -272 237q-233 0 -252 -131h-309q12 160 178 242q145 74 375 74q588 0 587 -383v-440q1 -31 15 -236h-262l-11 125q-143 -156 -428 -156q-260 0 -391 94q-121 88 -121 242zM342 1178l268 299h219l258 -299h-190l-180 196 l-185 -196h-190zM418 297q0 -137 239 -137q150 0 246 82q88 78 88 180v43h-256q-317 0 -317 -168z" />
<glyph unicode="&#xe3;" horiz-adv-x="1462" d="M98 305q0 219 264 295q133 37 400 37h227q0 238 -272 237q-233 0 -252 -131h-309q12 160 178 242q145 74 375 74q588 0 587 -383v-440q1 -31 15 -236h-262l-11 125q-143 -156 -428 -156q-260 0 -391 94q-121 88 -121 242zM299 1198q0 90 66 166q74 84 186 84 q61 0 170.5 -39t167.5 -39q37 0 59.5 26.5t22.5 65.5h119q0 -102 -60 -170q-66 -76 -182 -75q-59 0 -167 36.5t-159 36.5q-47 0 -75.5 -28.5t-28.5 -63.5h-119zM418 297q0 -137 239 -137q150 0 246 82q88 78 88 180v43h-256q-317 0 -317 -168z" />
<glyph unicode="&#xe4;" horiz-adv-x="1462" d="M98 305q0 219 264 295q133 37 400 37h227q0 238 -272 237q-233 0 -252 -131h-309q12 160 178 242q145 74 375 74q588 0 587 -383v-440q1 -31 15 -236h-262l-11 125q-143 -156 -428 -156q-260 0 -391 94q-121 88 -121 242zM338 1198v248h256v-248h-256zM418 297 q0 -137 239 -137q150 0 246 82q88 78 88 180v43h-256q-317 0 -317 -168zM870 1198v248h256v-248h-256z" />
<glyph unicode="&#xe5;" horiz-adv-x="1462" d="M98 305q0 219 264 295q133 37 400 37h227q0 238 -272 237q-233 0 -252 -131h-309q12 160 178 242q145 74 375 74q588 0 587 -383v-440q1 -31 15 -236h-262l-11 125q-143 -156 -428 -156q-260 0 -391 94q-121 88 -121 242zM418 297q0 -137 239 -137q150 0 246 82 q88 78 88 180v43h-256q-317 0 -317 -168zM528 1354q0 84 61.5 141t147.5 57t148.5 -57t62.5 -141t-62.5 -140.5t-148.5 -56.5t-147.5 56.5t-61.5 140.5zM631 1354q0 -47 29.5 -78t74.5 -31q47 0 79 32t32 77q0 47 -32 78.5t-77 31.5t-75.5 -31.5t-30.5 -78.5z" />
<glyph unicode="&#xe6;" horiz-adv-x="2285" d="M102 305q0 221 258 295q131 37 394 37h221q-10 229 -262 229q-213 0 -232 -129h-321q12 164 174 248q141 74 371 74q164 0 262 -33q115 -37 186 -131q137 164 414 164q287 0 444.5 -131t167.5 -379l4 -107h-926q0 -127 80 -200q86 -80 240 -80q223 0 281 143h321 q-49 -336 -600 -336q-365 0 -500 193q-182 -193 -465 -193q-260 0 -391 94q-121 88 -121 242zM426 297q0 -131 236 -131q152 0 237 72q80 67 80 180v39h-244q-309 0 -309 -160zM1260 635h595q-2 102 -71 164q-80 68 -225 67q-266 0 -299 -231z" />
<glyph unicode="&#xe7;" horiz-adv-x="1404" d="M102 506q0 250 154 395q168 158 487 158q252 0 398.5 -100.5t161.5 -296.5h-316q-14 205 -254 204q-305 0 -305 -352t301 -352q123 0 197 59q68 57 71 146h316q-33 -393 -578 -398l-61 -71q43 14 104 14q70 0 124 -39t54 -102q0 -190 -303 -191q-74 0 -176 31v96 q102 -33 176 -33q119 0 119 78q0 72 -125 72q-16 0 -72 -17l-40 41l104 125q-270 20 -403.5 159.5t-133.5 373.5z" />
<glyph unicode="&#xe8;" horiz-adv-x="1458" d="M102 506q0 248 168 400.5t469 152.5q287 0 448 -135.5t165 -374.5l2 -107h-932q0 -127 87 -204.5t241 -77.5q115 0 176 26q76 31 104 113h322q-49 -330 -600 -330q-649 0 -650 537zM238 1477h360l291 -299h-258zM422 625h616q-2 104 -71 170q-82 76 -236 75 q-139 0 -221 -73q-74 -63 -88 -172z" />
<glyph unicode="&#xe9;" horiz-adv-x="1458" d="M102 506q0 248 168 400.5t469 152.5q287 0 448 -135.5t165 -374.5l2 -107h-932q0 -127 87 -204.5t241 -77.5q115 0 176 26q76 31 104 113h322q-49 -330 -600 -330q-649 0 -650 537zM422 625h616q-2 104 -71 170q-82 76 -236 75q-139 0 -221 -73q-74 -63 -88 -172z M608 1178l291 299h361l-394 -299h-258z" />
<glyph unicode="&#xea;" horiz-adv-x="1458" d="M102 506q0 248 168 400.5t469 152.5q287 0 448 -135.5t165 -374.5l2 -107h-932q0 -127 87 -204.5t241 -77.5q115 0 176 26q76 31 104 113h322q-49 -330 -600 -330q-649 0 -650 537zM383 1178l268 299h219l258 -299h-190l-180 196l-185 -196h-190zM422 625h616 q-2 104 -71 170q-82 76 -236 75q-139 0 -221 -73q-74 -63 -88 -172z" />
<glyph unicode="&#xeb;" horiz-adv-x="1458" d="M102 506q0 248 168 400.5t469 152.5q287 0 448 -135.5t165 -374.5l2 -107h-932q0 -127 87 -204.5t241 -77.5q115 0 176 26q76 31 104 113h322q-49 -330 -600 -330q-649 0 -650 537zM362 1198v248h256v-248h-256zM422 625h616q-2 104 -71 170q-82 76 -236 75 q-139 0 -221 -73q-74 -63 -88 -172zM895 1198v248h256v-248h-256z" />
<glyph unicode="&#xec;" horiz-adv-x="634" d="M-178 1477h360l291 -299h-258zM164 0v1028h307v-1028h-307z" />
<glyph unicode="&#xed;" horiz-adv-x="634" d="M164 0v1028h307v-1028h-307zM168 1178l291 299h360l-393 -299h-258z" />
<glyph unicode="&#xee;" horiz-adv-x="634" d="M-53 1178l268 299h219l258 -299h-190l-180 196l-185 -196h-190zM164 0v1028h307v-1028h-307z" />
<glyph unicode="&#xef;" horiz-adv-x="634" d="M-76 1198v248h256v-248h-256zM164 0v1028h307v-1028h-307zM457 1198v248h256v-248h-256z" />
<glyph unicode="&#xf0;" horiz-adv-x="1570" d="M102 500q0 240 189 387q180 141 448 141q135 0 265 -43q-94 137 -242 191l-326 -117v143l164 60q-104 47 -188 65l84 154q217 -53 368 -123l318 115v-144l-156 -57q233 -147 336 -318q106 -178 106 -440q0 -250 -174 -393q-180 -152 -510 -152q-313 0 -493 135 q-188 139 -189 396zM430 500q0 -160 91 -249t263 -89t264.5 89t92.5 249q0 162 -93.5 249t-263.5 87q-164 0 -259 -89.5t-95 -246.5z" />
<glyph unicode="&#xf1;" horiz-adv-x="1536" d="M152 1028h297l12 -164q137 195 399 195q512 0 512 -436v-623h-313v606q0 254 -254 254q-152 0 -240 -100.5t-88 -257.5v-502h-313v815q0 88 -12 213zM385 1198q0 90 66 166q74 84 186 84q61 0 171 -39t167 -39q37 0 59.5 26.5t22.5 65.5h119q0 -102 -60 -170 q-66 -76 -182 -75q-59 0 -167 36.5t-159 36.5q-47 0 -75.5 -28.5t-28.5 -63.5h-119z" />
<glyph unicode="&#xf2;" horiz-adv-x="1570" d="M102 514q0 262 176.5 403.5t503.5 141.5q334 0 510 -142.5t176 -402.5q0 -264 -170 -401q-174 -143 -514 -144q-682 0 -682 545zM266 1477h361l291 -299h-259zM430 514q0 -162 92 -257t262 -95t263.5 95t93.5 257q0 164 -94.5 258t-262.5 94q-162 0 -258 -96t-96 -256z " />
<glyph unicode="&#xf3;" horiz-adv-x="1570" d="M102 514q0 262 176.5 403.5t503.5 141.5q334 0 510 -142.5t176 -402.5q0 -264 -170 -401q-174 -143 -514 -144q-682 0 -682 545zM430 514q0 -162 92 -257t262 -95t263.5 95t93.5 257q0 164 -94.5 258t-262.5 94q-162 0 -258 -96t-96 -256zM649 1178l291 299h360 l-393 -299h-258z" />
<glyph unicode="&#xf4;" horiz-adv-x="1570" d="M102 514q0 262 176.5 403.5t503.5 141.5q334 0 510 -142.5t176 -402.5q0 -264 -170 -401q-174 -143 -514 -144q-682 0 -682 545zM399 1178l269 299h219l258 -299h-191l-180 196l-184 -196h-191zM430 514q0 -162 92 -257t262 -95t263.5 95t93.5 257q0 164 -94.5 258 t-262.5 94q-162 0 -258 -96t-96 -256z" />
<glyph unicode="&#xf5;" horiz-adv-x="1570" d="M102 514q0 262 176.5 403.5t503.5 141.5q334 0 510 -142.5t176 -402.5q0 -264 -170 -401q-174 -143 -514 -144q-682 0 -682 545zM381 1198q0 90 65 166q74 84 187 84q61 0 170.5 -39t167.5 -39q37 0 59.5 26.5t22.5 65.5h118q0 -102 -59 -170q-66 -76 -182 -75 q-59 0 -167 36.5t-159 36.5q-47 0 -75.5 -28.5t-28.5 -63.5h-119zM430 514q0 -162 92 -257t262 -95t263.5 95t93.5 257q0 164 -94.5 258t-262.5 94q-162 0 -258 -96t-96 -256z" />
<glyph unicode="&#xf6;" horiz-adv-x="1570" d="M102 514q0 262 176.5 403.5t503.5 141.5q334 0 510 -142.5t176 -402.5q0 -264 -170 -401q-174 -143 -514 -144q-682 0 -682 545zM385 1198v248h256v-248h-256zM430 514q0 -162 92 -257t262 -95t263.5 95t93.5 257q0 164 -94.5 258t-262.5 94q-162 0 -258 -96t-96 -256z M918 1198v248h256v-248h-256z" />
<glyph unicode="&#xf7;" horiz-adv-x="1196" d="M102 352v246h992v-246h-992zM475 -20v245h246v-245h-246zM475 725v246h246v-246h-246z" />
<glyph unicode="&#xf8;" horiz-adv-x="1570" d="M102 514q0 262 176.5 403.5t503.5 141.5q207 0 361 -58l160 168l108 -104l-131 -139q188 -142 188 -412q0 -264 -170 -401q-174 -143 -514 -144q-211 0 -358 56l-164 -172l-112 106l135 141q-182 139 -183 414zM430 514q0 -123 51 -205l494 516q-82 41 -191 41 q-162 0 -258 -96t-96 -256zM594 203q78 -41 190 -41q170 0 263.5 95t93.5 257q0 121 -56 209z" />
<glyph unicode="&#xf9;" horiz-adv-x="1525" d="M154 446v582h313v-565q0 -143 49 -213q59 -84 201 -84q160 0 244 100q78 92 77 252v510h314v-833q0 -11 10 -195h-287l-8 164q-86 -94 -156 -133q-111 -61 -272 -62q-270 0 -387 140q-98 115 -98 337zM238 1477h360l291 -299h-258z" />
<glyph unicode="&#xfa;" horiz-adv-x="1525" d="M154 446v582h313v-565q0 -143 49 -213q59 -84 201 -84q160 0 244 100q78 92 77 252v510h314v-833q0 -11 10 -195h-287l-8 164q-86 -94 -156 -133q-111 -61 -272 -62q-270 0 -387 140q-98 115 -98 337zM618 1178l291 299h361l-393 -299h-259z" />
<glyph unicode="&#xfb;" horiz-adv-x="1525" d="M154 446v582h313v-565q0 -143 49 -213q59 -84 201 -84q160 0 244 100q78 92 77 252v510h314v-833q0 -11 10 -195h-287l-8 164q-86 -94 -156 -133q-111 -61 -272 -62q-270 0 -387 140q-98 115 -98 337zM377 1178l268 299h219l258 -299h-190l-180 196l-185 -196h-190z" />
<glyph unicode="&#xfc;" horiz-adv-x="1525" d="M154 446v582h313v-565q0 -143 49 -213q59 -84 201 -84q160 0 244 100q78 92 77 252v510h314v-833q0 -11 10 -195h-287l-8 164q-86 -94 -156 -133q-111 -61 -272 -62q-270 0 -387 140q-98 115 -98 337zM371 1198v248h256v-248h-256zM903 1198v248h256v-248h-256z" />
<glyph unicode="&#xfd;" horiz-adv-x="1435" d="M10 1028h359l317 -670l395 670h344l-872 -1421h-328l289 502zM551 1178l291 299h360l-393 -299h-258z" />
<glyph unicode="&#xfe;" horiz-adv-x="1576" d="M164 -393v1872h315v-590q139 170 406 170q272 0 431 -148.5t159 -406.5q0 -240 -146 -381q-158 -154 -459 -154q-250 0 -391 156v-518h-315zM479 504q0 -164 92 -256q84 -88 222 -88q170 0 263 94t93 250q0 162 -80 254q-88 100 -258 100q-164 0 -252 -102 q-80 -94 -80 -252z" />
<glyph unicode="&#xff;" horiz-adv-x="1435" d="M10 1028h359l317 -670l395 670h344l-872 -1421h-328l289 502zM328 1198v248h256v-248h-256zM860 1198v248h256v-248h-256z" />
<glyph unicode="&#x152;" horiz-adv-x="2512" d="M102 717q0 338 225.5 542.5t612.5 204.5q188 0 379 -30h1116v-232h-797v-354h764v-234h-764v-383h813v-231h-1132q-180 -31 -379 -31q-389 0 -613.5 205t-224.5 543zM438 717q0 -227 125 -365q133 -152 377 -151q217 0 379 45v954q-154 37 -379 37q-254 0 -385 -150 q-117 -137 -117 -370z" />
<glyph unicode="&#x153;" horiz-adv-x="2461" d="M102 514q0 262 176.5 403.5t503.5 141.5q350 0 506 -189q156 188 455 189q287 0 444.5 -131t167.5 -379l4 -107h-925q0 -127 79 -200q86 -80 240 -80q223 0 281 143h321q-49 -336 -600 -336q-328 0 -471 178q-147 -178 -500 -178q-682 0 -682 545zM430 514 q0 -162 92 -257t262 -95t263.5 95t93.5 257q0 164 -94.5 258t-262.5 94q-162 0 -258 -96t-96 -256zM1436 635h596q-2 102 -72 164q-80 68 -225 67q-266 0 -299 -231z" />
<glyph unicode="&#x178;" horiz-adv-x="1757" d="M10 1434h385l326 -406q55 -80 162 -233q102 152 159 227l320 412h385l-709 -832v-602h-319v602zM485 1567v248h256v-248h-256zM1018 1567v248h256v-248h-256z" />
<glyph unicode="&#x2c6;" horiz-adv-x="606" d="M-88 1178l268 299h219l258 -299h-190l-180 196l-185 -196h-190z" />
<glyph unicode="&#x2dc;" horiz-adv-x="608" d="M-90 1198q0 90 65 166q74 84 187 84q61 0 170.5 -39t167.5 -39q37 0 59.5 26.5t22.5 65.5h118q0 -102 -59 -170q-66 -76 -182 -75q-59 0 -167 36.5t-159 36.5q-47 0 -75.5 -28.5t-28.5 -63.5h-119z" />
<glyph unicode="&#x2000;" horiz-adv-x="991" />
<glyph unicode="&#x2001;" horiz-adv-x="1982" />
<glyph unicode="&#x2002;" horiz-adv-x="991" />
<glyph unicode="&#x2003;" horiz-adv-x="1982" />
<glyph unicode="&#x2004;" horiz-adv-x="660" />
<glyph unicode="&#x2005;" horiz-adv-x="495" />
<glyph unicode="&#x2006;" horiz-adv-x="330" />
<glyph unicode="&#x2007;" horiz-adv-x="330" />
<glyph unicode="&#x2008;" horiz-adv-x="247" />
<glyph unicode="&#x2009;" horiz-adv-x="396" />
<glyph unicode="&#x200a;" horiz-adv-x="110" />
<glyph unicode="&#x2010;" horiz-adv-x="794" d="M82 426v229h631v-229h-631z" />
<glyph unicode="&#x2011;" horiz-adv-x="794" d="M82 426v229h631v-229h-631z" />
<glyph unicode="&#x2012;" horiz-adv-x="794" d="M82 426v229h631v-229h-631z" />
<glyph unicode="&#x2013;" horiz-adv-x="1302" d="M82 426v229h1139v-229h-1139z" />
<glyph unicode="&#x2014;" horiz-adv-x="1810" d="M82 426v229h1647v-229h-1647z" />
<glyph unicode="&#x2018;" horiz-adv-x="647" d="M109 977l235 502h195l-127 -502h-303z" />
<glyph unicode="&#x2019;" horiz-adv-x="647" d="M109 977l127 502h303l-236 -502h-194z" />
<glyph unicode="&#x201a;" horiz-adv-x="647" d="M109 -274l127 501h303l-236 -501h-194z" />
<glyph unicode="&#x201c;" horiz-adv-x="1132" d="M109 977l235 502h195l-127 -502h-303zM594 977l235 502h195l-127 -502h-303z" />
<glyph unicode="&#x201d;" horiz-adv-x="1050" d="M109 977l127 502h303l-236 -502h-194zM594 977l127 502h303l-236 -502h-194z" />
<glyph unicode="&#x201e;" horiz-adv-x="1132" d="M109 -274l127 501h303l-236 -501h-194zM594 -274l127 501h303l-236 -501h-194z" />
<glyph unicode="&#x2022;" horiz-adv-x="1597" d="M164 0v1434l1433 -717z" />
<glyph unicode="&#x2026;" horiz-adv-x="1914" d="M143 0v266h277v-266h-277zM819 0v266h277v-266h-277zM1495 0v266h277v-266h-277z" />
<glyph unicode="&#x202f;" horiz-adv-x="396" />
<glyph unicode="&#x2039;" horiz-adv-x="673" d="M61 551l271 395h258l-242 -395l244 -404h-256z" />
<glyph unicode="&#x203a;" horiz-adv-x="673" d="M82 147l244 404l-242 395h258l270 -395l-274 -404h-256z" />
<glyph unicode="&#x205f;" horiz-adv-x="495" />
<glyph unicode="&#x2122;" horiz-adv-x="1783" d="M41 1253v164h719v-164h-264v-626h-193v626h-262zM811 627v790h264l197 -534l192 534h258v-790h-190v491l-180 -491h-166l-185 493v-493h-190z" />
<glyph unicode="&#xe000;" horiz-adv-x="1024" d="M0 0v1024h1024v-1024h-1024z" />
</font>
</defs>
</svg>
